#TITLE:Kr 4d1 5s;
#SUBTITLE:;
#ARTIST:Ryan Henwood;
#TITLETRANSLIT:;
#SUBTITLETRANSLIT:;
#ARTISTTRANSLIT:;
#GENRE:Lovers In A Dangerous Spacetime;
#CREDIT:[Ness];
#BANNER:Kr 4d1 5s.png;
#BACKGROUND:Black.png;
#LYRICSPATH:;
#CDTITLE:;
#MUSIC:Kr 4d1 5s.mp3;
#OFFSET:-0.015000;
#SAMPLESTART:110.796165;
#SAMPLELENGTH:14.769234;
#LASTBEATHINT:324.863708;
#SELECTABLE:YES;
#BPMS:0.000000=130.000000
;
#STOPS:
;
#BGCHANGES:0.000=Kr 4d1 5s.avi=1.000=1=0=0=StretchNoLoop==CrossFade==,
99999=-nosongbg-=1.000=0=0=0 // don't automatically add -songbackground-
;
#KEYSOUNDS:;
#ATTACKS:;

//---------------dance-single - ----------------
#NOTES:
     dance-single:
     :
     Challenge:
     11:
     0.782054,0.874492,0.442781,0.154302,0.707778,816.000000,750.000000,66.000000,23.000000,8.000000,8.000000,0.782054,0.874492,0.442781,0.154302,0.707778,816.000000,750.000000,66.000000,23.000000,8.000000,8.000000:
0000
0000
0000
0000
,
0000
0000
0000
0000
,
0000
0000
0000
0000
,
0000
0000
0000
0000
,
0101
0101
0010
0100
1100
1100
0002
0000
,
1003
0010
0100
0020
0000
0031
0010
1000
,
1100
1100
0010
0100
0101
0101
2000
0000
,
3001
0010
0100
0020
0000
1030
0010
0001
,
1001
0101
0001
1000
1010
1001
0020
0000
,
1030
0100
0010
0200
0000
0301
0100
1000
,
1001
1100
1000
0001
0011
1001
0020
0000
,
0031
0100
0010
0100
1000
0100
0010
0100
0001
0100
0010
1000
0001
1000
0100
1000
,
0001
0100
0001
0000
0100
0000
0010
0000
1000
0010
1000
0000
0002
0000
0000
0000
,
1003
0100
0010
0200
0000
0301
0100
1000
,
0001
0100
0010
0000
1000
0000
0001
0000
0010
0001
0010
0000
0200
0000
0000
0000
,
0301
0100
0010
0200
0000
1300
0010
0001
,
0010
1000
0001
0000
0010
0000
0100
0000
1000
0100
1000
0000
0002
0000
0000
0000
,
1003
0010
0100
0020
0000
0031
0010
1000
,
0001
0010
0100
0000
1000
0000
0001
0000
0100
0001
0100
0000
0020
0000
0000
0000
,
0031
0010
0100
0010
1000
0010
0100
0010
1000
0100
0010
0001
0010
0100
1000
0001
,
2000
0000
0000
0000
0011
0011
0000
3000
,
0002
0000
0000
0000
1010
1010
0000
0003
,
0200
0000
0000
0000
1001
1001
0000
0000
,
0020
0000
0000
0000
1001
1001
0000
0330
,
0002
0000
0000
0000
0013
0020
0200
0030
,
2000
0000
0300
0000
3010
0010
0200
0000
,
0301
MMMM
1001
MMMM
,
0010
0000
0000
0000
0100
0000
0000
0000
0001
0000
1000
0000
0010
0100
0001
1000
,
0100
0010
0100
0000
1000
0100
1000
0000
0001
1000
0001
0000
0100
0001
0100
0000
,
0010
0100
0010
0000
1000
0010
1000
0000
0001
0010
0001
0000
0100
0010
0100
0000
,
0001
1000
0010
0000
0100
0001
0010
0000
0100
1000
0001
0000
1000
0100
0010
0000
,
0001
1000
0010
0000
0100
0001
1000
0000
0010
0100
0001
0000
0010
0100
1000
0000
,
0001
0010
0100
1000
0001
0010
0100
1000
0001
0010
0100
1000
0001
0010
0100
1000
,
0010
0100
0001
1000
0010
0100
0001
1000
0010
0100
0001
1000
0010
0100
0001
1000
,
0100
0010
0001
1000
0010
0100
0001
1000
0100
0010
0001
1000
0010
0100
0001
1000
,
0100
0010
0001
0100
0010
1000
0100
0010
0001
0100
0010
1000
0001
0100
0010
1000
,
0100
0010
0001
0000
0010
0100
1000
0000
0001
0010
0100
0000
1000
0100
0010
0000
,
0001
0100
0010
0000
1000
0010
0100
0000
1000
0010
0100
0000
0001
0100
0010
0000
,
0001
1000
0100
0000
0010
0001
0100
0000
0010
1000
0001
0000
1000
0001
0100
0000
,
1000
0010
0100
0000
0010
1000
0100
0000
0001
1000
0100
0000
0010
0001
0100
0000
,
0001
1000
0100
0000
0010
0100
1000
0000
0100
0010
0001
0000
1000
0010
0100
0000
,
0010
1000
0001
0000
1000
0100
0010
0000
1000
0001
0100
0000
0010
1000
0001
0000
,
0010
0100
0001
0000
1000
0100
0010
0000
0001
1000
0010
0000
0001
0100
0010
0000
,
1000
0000
0000
0001
0000
0000
0100
0000
0000
0000
0000
0000
1000
0000
0000
0010
0000
0000
0100
0000
0000
0000
0000
0000
1000
0000
0000
0100
0000
0000
0010
0000
0000
0001
0000
0000
1000
0000
0001
0000
1000
0000
0001
0000
1000
0000
0001
0000
,
1000
0000
0100
0000
1000
0010
0000
0010
0001
0000
0100
0000
0010
0000
1000
0000
,
0001
0000
1000
0000
0100
0001
0000
0001
0010
0000
0100
0000
0010
0000
0100
0000
,
1000
0000
0010
0000
0001
0100
0000
1000
0100
0000
0010
0000
0001
0000
1000
0000
,
0010
0000
0100
0000
0001
0000
1000
0000
0100
0010
0100
0010
0100
0000
1001
0000
,
0100
0000
0010
0000
0001
0100
0000
0100
1000
0000
0001
0000
0100
0000
0010
0000
,
1000
0000
0100
0000
0001
1000
0000
0010
0001
0000
0010
0000
1000
0000
0001
0000
,
0100
0000
0010
0000
1000
0100
0000
0001
0100
0000
0010
0000
1000
0000
0001
0000
,
0100
0000
0010
0000
1000
0000
0100
0000
0001
0100
0010
0000
1000
0010
0100
0000
,
1100
0000
0100
0000
0100
0000
0100
1000
0010
0000
1000
0000
1000
0100
1000
0000
,
0101
0000
0100
0000
0100
0000
0100
0001
0010
0000
0100
0000
0100
0001
0100
0000
,
0011
0000
0100
0000
0100
0000
0100
1000
0010
0000
0100
0000
0100
1000
0100
0000
,
1010
0000
0100
0000
0100
0000
0100
0001
0010
0000
0100
0000
0100
0001
0100
0000
,
0110
0000
0001
0000
0010
0100
1000
0100
0010
0000
1000
0000
0010
1000
0010
0000
,
0110
0000
1000
0000
0100
0001
0010
0001
0100
0000
0010
0000
0010
0001
0010
0000
,
0011
0000
0100
0000
0010
1000
0100
1000
0010
0000
0100
0000
0100
1000
0100
0000
,
0101
0000
0001
0000
0100
0000
1000
0000
0001
0000
0010
0000
0100
1000
0001
0100
,
0010
1001
0010
1100
0010
1001
0010
0101
,
0001
1100
1000
0101
0001
1100
1000
0101
,
0010
1001
0010
1100
0010
1001
0010
0101
,
1000
0011
1000
0101
1000
0101
1001
1100
,
0001
0110
1000
0101
1000
0110
0001
1010
,
0100
1001
0010
1100
0010
1001
0100
0011
,
1000
0101
0001
1010
0100
0011
0100
1001
,
1000
0000
0110
0000
0001
0000
0110
0000
1000
0000
0010
0000
0100
0001
1000
0010
,
0100
0001
0100
0000
0001
0100
0001
0000
0010
1000
0010
0000
1000
0010
1000
0000
,
0100
1000
0100
0000
1000
0100
1000
0000
0010
0001
0010
0000
0001
0010
0001
0000
,
1000
0010
0100
0000
1000
0100
0010
0000
0001
0100
0010
0000
0001
0010
0100
0000
,
0001
1000
0100
0000
1000
0010
0100
0000
1000
0001
0100
0000
0001
0010
0100
0000
,
1000
0100
1000
0100
1000
0001
1000
0001
0100
0001
0100
0001
1000
0001
1000
0001
,
1000
0010
1000
0010
1000
0001
1000
0001
0010
0001
0010
0001
1000
0001
1000
0001
,
0100
0010
0100
0010
1000
0001
1000
0001
0100
0010
0100
0010
1000
0001
1000
0001
,
0100
0010
1000
0100
0010
0001
1000
0010
0100
0001
0010
0100
1000
0010
0100
0001
,
1000
0001
1000
0001
1000
0001
1000
0001
1000
0001
1000
0001
1000
0001
1000
0001
,
1000
0001
1000
0001
1000
0001
1000
0001
1000
0001
1000
0001
1000
0001
1000
0001
,
1000
0000
0001
0000
,
1001
0000
0000
0000
;

//---------------dance-single - ----------------
#NOTES:
     dance-single:
     :
     Hard:
     8:
     0.496451,0.503495,0.127467,0.154302,0.221390,518.000000,499.000000,19.000000,23.000000,0.000000,0.000000,0.496451,0.503495,0.127467,0.154302,0.221390,518.000000,499.000000,19.000000,23.000000,0.000000,0.000000:
0000
0000
0000
0000
,
0000
0000
0000
0000
,
0000
0000
0000
0000
,
0000
0000
0000
0000
,
0001
0100
0001
2000
0000
0000
3010
0000
,
1000
0100
0010
0001
0000
0010
0100
0110
,
0100
1000
0001
0200
0000
0000
0310
0000
,
1000
0001
1000
0020
0000
0130
0010
0110
,
0001
1000
0100
2000
0000
0000
3001
0000
,
0100
0001
0010
0200
0000
0310
0100
0110
,
1000
0001
0100
0020
0000
0000
1030
0000
,
0001
1000
0001
1000
0010
0100
0001
1000
,
0100
0010
0001
1000
0100
0100
1000
0000
,
0001
0100
0010
2000
0000
3010
0100
0001
,
1000
0100
1000
0001
0010
0010
0100
0000
,
0010
0001
1000
0002
0000
0103
0010
1000
,
0001
0010
0100
1000
0010
0100
0010
0000
,
1000
0001
0100
0020
0000
0130
0001
0100
,
0010
1000
0100
1000
0001
0001
0200
0000
,
0301
1000
0001
1000
0100
0010
0001
1000
,
0100
0100
0010
0100
1000
0100
0020
0000
,
0031
0001
0010
0100
0010
0001
0020
0000
,
0130
0100
1000
0001
0100
0010
1000
0000
,
1000
1000
0001
1000
0100
0010
0002
0000
,
0103
0001
0010
0100
0001
0100
0001
0000
,
0010
1000
0100
0010
1000
0100
1000
0000
,
0100
0001
1000
0100
0001
0100
0001
0000
,
0010
1000
0001
0010
1000
0010
1000
0000
,
0110
0000
0000
0100
0001
0000
0000
0001
0010
0000
0000
0010
0100
0000
0000
0100
,
1000
0000
0000
1000
0010
0000
0000
0010
1000
0000
0000
1000
0001
0000
0000
0001
,
0010
0000
0000
0010
0001
0000
0000
0001
0010
0000
0000
0010
1000
0000
0000
1000
,
0100
0000
0000
0100
0001
0000
0000
0001
0100
0000
0000
0100
1000
0000
0000
1000
,
0010
0000
0000
0010
0100
0000
0000
0100
0001
0000
0000
0001
0010
0000
0000
0010
,
0100
0000
0000
0100
1000
0000
0000
1000
0001
0000
0000
0001
0100
0000
0000
0100
,
0010
0000
0000
0010
1000
0000
0000
1000
0001
0000
0000
0001
0010
0000
0000
0010
,
0100
0000
0000
0100
1000
0000
0000
1000
0010
0000
0100
0000
0010
0000
0100
0000
,
0001
0100
0001
2000
0000
3001
0100
0000
,
0001
0100
0101
0000
0001
0100
0101
0000
,
0001
1000
0100
0010
0001
0100
0001
0000
,
0001
0010
0001
0100
0001
1000
0101
0000
,
1000
0100
1000
0002
0000
1003
0100
0000
,
1000
0100
1100
0000
1000
0100
1100
0000
,
1000
0001
0100
0010
1000
0100
1000
0000
,
1000
0010
1000
0100
1000
0001
1100
0000
,
0002
0000
0000
0000
0103
0010
0000
0010
0100
0000
0010
0000
1000
0000
0000
0000
,
0200
0000
0000
0000
1300
0001
0000
0001
1000
0000
0010
0000
1000
0000
0000
0000
,
0020
0000
0000
0000
0130
0001
0000
0001
0100
0000
0010
0000
0100
0000
0000
0000
,
2000
0000
3100
0000
0001
1000
0100
1000
,
0020
0000
0000
0000
1030
0001
0000
1000
0001
0000
1000
0000
0100
0000
0000
0000
,
2000
0000
0000
0000
3010
0100
0000
0010
0100
0000
0001
0000
0010
0000
0000
0000
,
0002
0000
0000
0000
0103
0010
0000
0100
0010
0000
1000
0000
0001
0000
0000
0000
,
0200
0000
0301
0010
0000
0100
1000
0000
,
0110
0000
0000
0000
0100
0000
1000
0100
0010
0000
0100
0000
1000
0000
0000
0000
,
1001
0000
0000
0000
0010
0000
0100
0001
1000
0000
0001
0000
0100
0000
0000
0000
,
0101
0000
0000
0000
0100
0000
0010
1000
0100
0000
1000
0000
0100
0000
0000
0000
,
1100
0000
0000
0000
0010
0000
1000
0010
0100
0000
0001
0000
0100
0000
0000
0000
,
0001
0000
1000
0000
0001
0000
0100
0010
1000
0000
0001
0000
1000
0000
0100
0000
,
0010
0000
0100
0000
1000
0000
0001
0010
0100
0000
0010
0000
0001
0000
1000
0000
,
0100
0000
1000
0000
0001
0000
0100
0001
1000
0000
0010
0000
0100
0000
0001
0000
,
0010
0000
0100
0000
1000
0000
0001
0010
0100
0000
0010
0000
0001
0000
0000
0000
,
1000
0001
0000
0100
0000
1001
0000
0100
,
0001
1000
0001
1000
0000
0010
0100
0010
,
0000
1000
0000
0100
0000
0110
0000
0001
,
0010
0001
1000
0001
0000
0100
0010
0100
,
0000
0001
0000
1000
0000
1100
0000
1000
,
0010
0100
0010
1000
0000
0001
0010
0100
,
0000
0010
0000
0001
0000
1001
0000
1000
,
0010
1000
0001
1000
0100
1000
0001
1000
,
0010
0100
0001
0010
,
0100
1000
0001
1000
,
0010
0001
0010
1000
,
0100
0001
0100
1000
,
0001
0000
0000
0001
1000
0000
0000
1000
0001
0000
0000
0001
0100
0000
0000
0100
,
0001
0000
0000
0001
1000
0000
0000
1000
0100
0000
0000
0100
1000
0000
0000
1000
,
0001
0000
0000
0100
0001
0000
0000
0100
0001
0000
0000
0100
0001
0000
0000
1000
,
0010
0000
0000
1000
0010
0000
0000
1000
0010
0000
0000
1000
0010
0000
0000
1000
,
0010
1000
0100
0001
,
0010
0100
1000
0001
,
1000
0000
0001
0000
,
1001
0000
0000
0000
;

//---------------dance-single - ----------------
#NOTES:
     dance-single:
     :
     Medium:
     6:
     0.338315,0.397496,0.073797,0.154302,0.000000,353.000000,342.000000,11.000000,23.000000,0.000000,0.000000,0.338315,0.397496,0.073797,0.154302,0.000000,353.000000,342.000000,11.000000,23.000000,0.000000,0.000000:
0000
0000
0000
0000
,
0000
0000
0000
0000
,
0000
0000
0000
0000
,
0000
0000
0000
0000
,
0010
0000
0000
0000
1000
0100
0000
0000
,
1000
0000
0000
0000
0010
0001
0000
0000
,
0100
0000
0000
0000
0001
1000
0000
0000
,
0100
0000
0000
0000
1000
0010
0000
0000
,
0001
0000
0000
0000
0010
1000
0000
0000
,
0100
0000
0000
0000
1000
0001
0000
0000
,
0010
0000
0000
0000
1000
0100
0000
0000
,
0100
0000
0000
0000
0001
0100
0001
0000
,
0010
0000
0100
0000
1000
0100
0010
0000
,
1000
0000
0001
0000
0010
0001
1000
0000
,
0100
0000
1000
0000
0001
1000
0010
0000
,
0100
0000
0001
0000
1000
0010
0100
0000
,
0001
0000
0100
0000
0010
1000
0100
0000
,
0010
0000
0001
0000
1000
0001
0100
0000
,
0010
0000
1000
0000
0001
0100
0010
0000
,
1000
0000
0001
0000
1000
0100
1000
0000
,
0002
0000
0000
0000
1000
1000
0003
0000
,
2000
0000
0000
0000
0001
0001
3000
0000
,
0002
0000
0000
0000
0100
0100
0003
0000
,
2000
0000
0000
0000
0100
0100
3000
0000
,
0010
0000
0100
0000
1000
0100
0010
0000
,
0001
0000
0100
0000
0010
0100
0001
0000
,
1000
0010
1000
0000
0001
0010
0001
0000
,
1000
0000
0001
0000
1000
0010
0100
0001
,
1000
0001
0010
0100
,
1000
0010
1000
0001
,
0010
0001
0010
1000
,
0100
0001
0100
1000
,
0000
0010
0000
0100
0000
0001
0000
0010
,
0000
0100
0000
1000
0000
0001
0000
0100
,
0000
0010
0000
1000
0000
0001
0000
0010
,
0000
0100
0000
1000
0000
0010
0100
0000
,
0001
0000
0011
0000
0001
1000
0001
0000
,
0100
0000
0110
0000
0100
0001
0010
0000
,
0001
0100
0001
0000
0010
0001
0010
0000
,
0001
0100
0001
0010
0001
0100
0101
0000
,
1000
0000
1010
0000
1000
0001
1000
0000
,
0100
0000
0110
0000
0100
1000
0010
0000
,
1000
0100
1000
0000
0010
1000
0010
0000
,
1000
0100
1000
0010
1000
0100
1100
0000
,
0020
0000
0230
0000
0301
1000
0001
0000
,
0020
0000
0230
0000
1300
0001
1000
0000
,
0002
0000
0203
0000
0310
1000
0010
0000
,
2000
0000
3200
0000
1300
0100
1000
0100
,
2000
0000
3002
0000
0103
0001
0100
0000
,
0020
0000
0230
0000
0301
0100
0001
0000
,
2000
0000
3020
0000
1030
0001
1000
0000
,
0200
0000
1300
0001
0000
1000
0001
0000
,
0200
0000
0000
0000
0310
0100
0010
0000
,
2000
0000
0000
0000
3001
1000
0001
0000
,
0020
0000
0000
0000
0130
1000
0100
0000
,
0002
0000
0000
0000
0103
0001
1000
0000
,
0001
0000
0100
0000
0010
1000
0001
0000
,
1000
0000
0100
0000
0010
0001
1000
0000
,
0010
0000
1000
0000
0100
0010
0001
0000
,
0100
0000
0001
0000
1000
0001
0001
0000
,
0100
0001
0100
1001
,
0100
0001
1000
0001
0000
1000
0001
1000
,
0100
1000
0100
0110
,
0001
0010
0001
1000
0000
0001
1000
0001
,
0100
0001
1000
1100
,
1000
0010
0100
0010
0000
1000
0010
1000
,
0100
0010
0001
1001
,
1000
0001
1000
0001
1000
0100
1000
0001
,
0100
0010
0001
0010
,
0100
1000
0001
1000
,
0010
0001
0010
1000
,
0100
0001
0100
1000
,
0001
1000
0001
0100
,
0001
1000
0100
1000
,
0001
0100
0001
0100
,
0010
1000
0010
1000
,
0010
1000
0100
0001
,
0010
0100
1000
0001
,
1000
0000
0001
0000
,
1001
0000
0000
0000
;

//---------------dance-single - ----------------
#NOTES:
     dance-single:
     :
     Easy:
     4:
     0.256851,0.264998,0.026835,0.100632,0.000000,268.000000,264.000000,4.000000,15.000000,0.000000,0.000000,0.256851,0.264998,0.026835,0.100632,0.000000,268.000000,264.000000,4.000000,15.000000,0.000000,0.000000:
// measure 0
0000
0000
0000
0000
,  // measure 1
0000
0000
0000
0000
,  // measure 2
0000
0000
0000
0000
,  // measure 3
0000
0000
0000
0000
,  // measure 4
0100
0000
1000
0000
,  // measure 5
0001
0100
0001
0100
,  // measure 6
0001
0000
1000
0000
,  // measure 7
0010
1000
0010
1000
,  // measure 8
0010
0000
0100
0000
,  // measure 9
0001
1000
0001
0010
,  // measure 10
0100
0000
0010
0000
,  // measure 11
0100
1000
0100
1000
,  // measure 12
0001
0000
0200
0000
,  // measure 13
0310
1000
0010
1000
,  // measure 14
0001
0000
2000
0000
,  // measure 15
3100
0010
0100
0010
,  // measure 16
0100
0000
0020
0000
,  // measure 17
0031
0100
0010
1000
,  // measure 18
0001
0000
0020
0000
,  // measure 19
0130
1000
0100
0010
,  // measure 20
0001
0000
1000
0000
,  // measure 21
0010
0000
0100
0000
,  // measure 22
0001
0000
0010
0000
,  // measure 23
0100
0000
1000
0000
,  // measure 24
0010
0000
0100
0020
,  // measure 25
0130
0000
0001
2000
,  // measure 26
3001
0000
0010
0200
,  // measure 27
0310
0001
0100
1000
,  // measure 28
0010
0010
0100
0100
,  // measure 29
0010
0010
0100
0100
,  // measure 30
0001
0001
0010
0010
,  // measure 31
0100
0100
1000
1000
,  // measure 32
0010
0100
0010
0100
,  // measure 33
0001
0010
0100
1000
,  // measure 34
0010
0100
0010
0100
,  // measure 35
0001
0010
0100
1000
,  // measure 36
0001
0100
0001
0010
,  // measure 37
0100
0001
0100
0010
,  // measure 38
0001
0100
0010
0100
,  // measure 39
0001
0010
0100
0110
,  // measure 40
1000
0100
1000
0010
,  // measure 41
0100
1000
0100
0010
,  // measure 42
1000
0100
0010
0100
,  // measure 43
1000
0010
0100
0110
,  // measure 44
0001
1000
0001
0001
,  // measure 45
1000
0001
1000
1000
,  // measure 46
0001
1000
0001
0001
,  // measure 47
1000
0010
0100
0001
,  // measure 48
0010
0100
0010
0010
,  // measure 49
0100
0010
0100
0100
,  // measure 50
0010
0100
0010
0010
,  // measure 51
0001
0100
0010
1000
,  // measure 52
0200
0300
1000
0001
,  // measure 53
2000
3000
0001
0100
,  // measure 54
0002
0003
1000
0010
,  // measure 55
2000
3000
0001
0010
,  // measure 56
0002
0003
0010
0100
,  // measure 57
2000
3000
0100
0010
,  // measure 58
0002
0003
0100
0001
,  // measure 59
2000
3000
0010
0100
,  // measure 60
0001
0100
0001
0100
,  // measure 61
0001
1000
0001
0100
,  // measure 62
0010
0100
0010
1000
,  // measure 63
0010
0100
0001
0100
,  // measure 64
0010
1000
0010
1000
,  // measure 65
0001
1000
0100
1000
,  // measure 66
0001
1000
0001
1000
,  // measure 67
0001
0100
0010
1000
,  // measure 68
0100
0100
0100
0100
,  // measure 69
0010
0010
0010
0010
,  // measure 70
0001
1000
0001
1000
,  // measure 71
0010
0100
0010
0100
,  // measure 72
0001
0001
1000
1000
,  // measure 73
0010
0010
0100
0100
,  // measure 74
0001
1000
0001
1000
,  // measure 75
0100
0010
0100
1001
,  // measure 76
0010
1000
0100
0001
,  // measure 77
0010
0100
1000
0001
,  // measure 78
1000
0000
0001
0000
,  // measure 79
1001
0000
0000
0000
;

//---------------dance-single - ----------------
#NOTES:
     dance-single:
     :
     Beginner:
     1:
     0.139926,0.185498,0.006709,0.000000,0.000000,146.000000,145.000000,1.000000,0.000000,0.000000,0.000000,0.139926,0.185498,0.006709,0.000000,0.000000,146.000000,145.000000,1.000000,0.000000,0.000000,0.000000:
// measure 0
0000
0000
0000
0000
,  // measure 1
0000
0000
0000
0000
,  // measure 2
0000
0000
0000
0000
,  // measure 3
0000
0000
0000
0000
,  // measure 4
0001
0000
0010
0000
,  // measure 5
0001
0000
0001
0000
,  // measure 6
1000
0000
0100
0000
,  // measure 7
1000
0000
1000
0000
,  // measure 8
0010
0000
1000
0000
,  // measure 9
0010
0000
0010
0000
,  // measure 10
0100
0000
0010
0000
,  // measure 11
0100
0000
0100
0000
,  // measure 12
0001
0000
0001
0000
,  // measure 13
0010
0000
0010
0000
,  // measure 14
0100
0000
0100
0000
,  // measure 15
1000
0000
1000
0000
,  // measure 16
0100
0000
0001
0000
,  // measure 17
0100
0000
1000
0000
,  // measure 18
0001
0000
1000
0000
,  // measure 19
0010
0000
0100
0000
,  // measure 20
0010
0000
0000
0000
,  // measure 21
1000
0000
0000
0000
,  // measure 22
0100
0000
0000
0000
,  // measure 23
0001
0000
0000
0000
,  // measure 24
0010
0000
0000
0000
,  // measure 25
0100
0000
0000
0000
,  // measure 26
0010
0000
0100
0000
,  // measure 27
0010
0010
0010
0010
,  // measure 28
0010
0000
0100
0000
,  // measure 29
0010
0000
0100
0000
,  // measure 30
1000
0000
1000
0000
,  // measure 31
0001
0000
0001
0000
,  // measure 32
0010
0000
0100
0000
,  // measure 33
0010
0000
0100
0000
,  // measure 34
1000
0000
1000
0000
,  // measure 35
0001
0000
0001
0000
,  // measure 36
0100
0000
1000
0000
,  // measure 37
0100
0000
0001
0000
,  // measure 38
0010
0000
1000
0000
,  // measure 39
0010
0000
0001
0000
,  // measure 40
0100
0000
0010
0000
,  // measure 41
0100
0000
0010
0000
,  // measure 42
1000
0000
0001
0000
,  // measure 43
0100
0000
0010
0000
,  // measure 44
1000
0000
1000
0000
,  // measure 45
0001
0000
0001
0000
,  // measure 46
1000
0000
1000
0000
,  // measure 47
0001
0000
0001
0000
,  // measure 48
1000
0000
1000
0000
,  // measure 49
0010
0000
0010
0000
,  // measure 50
0100
0000
0100
0000
,  // measure 51
0001
0000
0001
0000
,  // measure 52
0010
0000
0100
0000
,  // measure 53
0010
0000
0100
0000
,  // measure 54
1000
0000
0001
0000
,  // measure 55
1000
0000
0001
0000
,  // measure 56
0100
0000
0010
0000
,  // measure 57
0100
0000
0010
0000
,  // measure 58
1000
0000
0010
0000
,  // measure 59
0100
0000
0001
0000
,  // measure 60
0010
0000
0010
0000
,  // measure 61
0100
0100
0100
0000
,  // measure 62
0010
0000
0010
0000
,  // measure 63
0100
0100
0100
0000
,  // measure 64
0010
0000
0010
0000
,  // measure 65
0100
0100
0100
0000
,  // measure 66
0010
0000
0010
0000
,  // measure 67
0100
0100
0100
0000
,  // measure 68
1000
0000
0000
0000
,  // measure 69
0001
0000
0000
0000
,  // measure 70
0100
0000
0000
0000
,  // measure 71
0010
0000
0000
0000
,  // measure 72
1000
0000
0000
0000
,  // measure 73
0001
0000
0000
0000
,  // measure 74
0100
0000
0010
0000
,  // measure 75
1000
0000
0001
0000
,  // measure 76
1000
0000
0001
0000
,  // measure 77
0010
0000
0100
0000
,  // measure 78
1000
0000
0001
0000
,  // measure 79
1001
0000
0000
0000
;
