#VERSION:0.83;
#TITLE:Kass' Theme;
#SUBTITLE:(dj-Jo Remix);
#ARTIST:Yasuaki Iwata;
#TITLETRANSLIT:;
#SUBTITLETRANSLIT:;
#ARTISTTRANSLIT:;
#GENRE:The Legend of Zelda;
#ORIGIN:;
#CREDIT:;
#BANNER:Kass' Theme (dj-Jo Remix)-bn.png;
#BACKGROUND:Kass' Theme (dj-Jo Remix)-bg.png;
#PREVIEWVID:;
#JACKET:Kass' Theme (dj-Jo Remix)-jacket.png;
#CDIMAGE:;
#DISCIMAGE:;
#LYRICSPATH:;
#CDTITLE:;
#MUSIC:Kass' Theme (dj-Jo Remix).mp3;
#OFFSET:-0.022006;
#SAMPLESTART:33.872108;
#SAMPLELENGTH:16.666668;
#SELECTABLE:YES;
#BPMS:0.000=171.000,
144.000=228.000,
401.000=171.000;
#STOPS:144.000=0.789;
#DELAYS:;
#WARPS:;
#TIMESIGNATURES:0.000=3=4,
144.000=1=4,
145.000=8=4,
401.000=3=4;
#TICKCOUNTS:0.000=2;
#COMBOS:0.000=1;
#SPEEDS:0.000=1.000=0.000=0;
#SCROLLS:0.000=1.000;
#FAKES:;
#LABELS:0.000=Song Start;
#LASTSECONDHINT:135.821457;
#BGCHANGES:;
#KEYSOUNDS:;
#ATTACKS:
;

//---------------dance-single - ----------------
#NOTEDATA:;
#CHARTNAME:;
#STEPSTYPE:dance-single;
#DESCRIPTION:;
#CHARTSTYLE:;
#DIFFICULTY:Challenge;
#METER:10;
#RADARVALUES:0.646769,0.906949,0.596290,0.169317,0.750883,615.000000,534.000000,81.000000,23.000000,0.000000,0.000000,0.000000,0.000000,0.000000,0.646769,0.906949,0.596290,0.169317,0.750883,615.000000,534.000000,81.000000,23.000000,0.000000,0.000000,0.000000,0.000000,0.000000;
#CREDIT:;
#NOTES:
0000
0000
0000
0000
,
0000
0000
0000
0000
,
0000
0000
0000
0000
,
0000
0000
0000
0000
,
0000
0000
0000
0000
,
0000
0000
0000
0000
,
0000
0000
0000
0000
,
0000
0000
0000
0000
,
0000
0000
0000
0000
,
0000
0000
0000
0000
,
0000
0000
0000
0000
,
0000
0000
0000
0000
,
0000
0000
0000
0000
0000
0000
1001
0010
,
0100
0010
0100
0010
0001
0010
0100
1000
,
0100
0010
0001
1000
0001
1000
0001
1000
,
0001
0100
1000
0100
0010
0100
0001
0000
,
0000
0001
0001
0000
0011
0000
1001
0000
,
1010
0000
0010
1000
0010
0100
1000
0100
,
0020
0000
0000
1030
0001
1000
0100
0010
,
0001
0010
0100
1000
0100
0010
0001
0010
,
0100
1000
0001
0010
0100
1000
0100
0010
,
0001
0010
0100
1000
0001
0010
0002
0000
,
1000
1000
1003
0000
1001
0000
0010
0000
,
0100
1001
0011
1100
,
1001
0000
0200
0000
0000
0000
0301
0100
0001
0000
0010
0000
0110
0000
0100
0000
,
0000
0000
1001
0000
0100
0000
0000
0000
1100
0000
0200
0000
0000
0000
1300
0001
,
1000
0010
0200
0000
0301
1001
0010
0100
,
0110
0000
0001
0010
0001
1000
0100
0000
1000
0000
0001
0000
0102
0000
1000
0000
,
0003
2001
0100
3000
1100
0000
1010
0000
,
0101
0000
0000
0000
1001
0000
0000
0000
0100
0001
0100
0000
0010
0000
0100
0001
,
1000
0000
0001
1000
0010
0100
0002
0000
,
0003
0000
0001
0010
0002
0000
0000
0000
1003
0000
0000
0000
0100
0000
1000
0000
,
0001
0000
1000
0000
0200
0000
0000
0000
1300
0100
1000
0000
0001
0000
0000
0000
,
0101
0000
0100
0001
1000
0000
0100
1000
0001
0000
1000
0001
0020
0000
0000
0000
,
0031
1000
0010
0000
1001
0000
0010
0000
,
0100
0101
1010
1100
,
1001
0000
0000
0001
0000
0000
0000
0001
0000
0010
0000
0000
,
0000
0010
0000
1000
0000
0000
0000
1000
0000
0100
0000
0000
,
0000
0100
0000
0001
0000
0000
0000
0001
0000
0100
0000
0000
,
0000
0100
0000
1000
0000
0000
0000
1000
0000
0010
0000
0001
,
0000
0010
0000
1000
0000
0000
0000
1100
0000
0000
0000
0100
,
0000
0000
0000
0101
0000
0000
0000
0010
0000
0000
0000
1010
,
0000
0000
0000
1001
0000
0000
0000
0110
0000
0000
0000
0010
,
0000
0000
0000
1001
0000
0000
0000
0100
0000
0001
0000
1000
,
0000
0001
0000
0010
0000
0000
0000
0010
0000
1000
0000
0000
,
0000
1000
0000
0010
0000
0000
0000
0010
0000
0001
0000
1000
,
0000
0001
0000
0100
0000
0000
0000
0100
0000
0010
0000
0000
,
0000
0010
0000
1000
0000
0000
0000
1000
0000
0100
0000
0010
,
0000
0001
0000
0100
0000
0000
0000
0100
0000
0001
0000
1000
,
0000
0000
0000
0010
0000
0000
0000
1010
0000
0000
0000
0101
,
0000
0000
0000
1001
0000
0000
0000
0011
0000
0000
0000
1100
,
0000
0000
0000
1001
0000
0002
0000
0000
0013
0001
0010
0001
,
0000
0100
0000
0101
0000
0100
0000
0010
0000
1001
0000
0100
,
0000
0010
0000
1000
0000
0100
0000
0010
0000
1001
0000
0001
,
0000
0010
0000
1000
0000
0010
0000
0001
0000
0101
0000
0100
,
0000
0010
0000
1000
0000
0100
0000
0001
0000
0110
0000
0001
,
0000
1000
0000
0010
0000
0010
0000
0100
0000
0100
0000
0001
,
0000
0001
0000
1000
0000
1000
0000
0100
0000
0100
0000
0010
,
0000
0010
0000
0001
0000
0000
0000
0001
0000
1000
0000
0000
,
0000
1000
0000
0010
0000
0000
0000
0010
0000
0100
0000
0001
,
0000
0010
0000
0100
0000
1000
0000
0100
0000
0001
0000
0100
,
0000
1000
0000
0001
0000
0010
0000
0100
0000
1000
0000
0100
,
0000
0010
0000
0001
0000
1000
0000
0010
0000
0001
0000
1000
,
0000
0100
0000
0001
0000
1000
0000
0010
0000
0100
0000
0001
,
0000
1000
0000
0100
0000
0010
0000
0001
0000
0100
0000
0010
,
0000
0000
0000
1010
0000
0000
0000
0001
0000
0000
0000
1000
,
0000
0000
0000
0101
0000
0000
0000
0011
0000
0000
0000
1100
,
0000
1001
0000
0000
,
0000
0000
0000
1001
0000
0100
0000
0020
0000
0000
0000
0000
,
0030
0000
0000
1001
0000
0100
0000
0020
0000
0000
0000
0000
,
0030
0000
0000
2000
0000
0000
0000
0000
0000
3100
0000
0001
,
0000
0100
0000
1000
0000
0001
0000
0100
0000
0001
0010
0100
,
1000
0100
0010
0001
0000
0000
0000
0100
0000
0010
0000
1000
,
0000
0001
0000
0010
0000
0000
0000
0010
0000
0100
0000
1000
,
0000
0001
0000
0100
0000
0000
0000
0100
0000
0001
0000
1000
,
0000
0100
0000
0010
0000
0001
0000
1000
0000
0001
0000
0100
,
0000
0001
0000
1100
0000
0001
0000
0010
0000
0200
0000
0000
,
0300
0000
0000
0101
0000
1000
0000
0010
0000
0200
0000
0000
,
0300
0000
0000
0002
0000
0000
0000
0000
0000
1003
0000
0010
,
0000
0100
0000
0001
0000
1000
0000
0100
0000
0010
0000
0010
,
0000
0010
0000
0012
0000
0000
0000
0103
0000
0000
0000
0010
,
0000
1000
0000
0002
0000
0000
0000
0003
0000
0000
0000
1000
,
0000
0000
0000
0101
0000
0100
0000
0001
0000
0101
0000
0100
,
0000
0001
0000
0101
0000
0000
0000
1001
0000
0000
0000
1000
,
0010
0100
0001
0010
0000
0010
0000
0100
0000
1000
0000
1000
,
0000
1000
0000
0000
0000
1001
0000
0000
0000
0000
0000
0100
,
0000
0000
0000
0010
0000
0000
0000
0010
0000
1000
0000
0000
,
0000
1000
0000
0100
0000
0001
0000
0100
0000
1000
0000
0010
,
0000
0100
0000
0101
0000
0000
0000
0100
0000
1010
0000
0000
,
0000
0010
0000
0100
0000
0000
0000
0001
0000
0000
0000
1000
,
0000
0000
0000
0010
0000
0000
0000
0010
0000
0001
0000
0000
,
0000
0001
0000
0010
0000
0000
0000
0010
0000
1000
0000
0001
,
0000
1000
0000
0001
0000
0000
0000
0001
0000
0100
0000
0010
,
0000
1000
0000
0100
0000
0000
0000
0100
0000
1000
0000
0001
,
0000
1000
0000
0010
0000
0000
0000
0010
0000
0001
0000
0100
,
0000
0001
0000
0010
0000
0000
0000
0010
0000
1000
0000
0001
,
0000
1000
0000
0100
0000
0000
0000
0100
0000
0001
0000
0100
,
0000
1000
0000
0001
0000
0000
0000
1000
0000
0010
0000
0100
,
0000
0001
0000
1000
0000
0010
0000
0001
0000
1000
0000
0100
,
0000
0001
0000
0001
0000
0010
0000
1000
0000
0001
0000
0100
,
0000
0000
1000
0000
0000
0000
1001
0000
0000
0001
0000
0000
1000
0000
0000
1001
0000
0000
0001
0000
0000
1000
0000
0000
,
1001
0000
0101
0000
0011
0000
1001
0001
,
1000
1001
0001
1000
1001
0000
1100
0000
,
1010
0000
2001
0000
3010
0100
0010
0100
,
0011
0000
1010
0000
0110
0000
0001
1000
,
0100
0010
0100
0010
0001
0000
1000
0000
0001
0000
0010
0000
0000
0000
0010
0000
,
0100
1000
0001
0100
0001
1000
0100
1000
,
0001
0000
0000
1000
0010
0100
0001
0010
,
0001
1000
0100
0000
0010
0000
0001
0000
0001
0100
0010
0100
0010
0000
1000
0001
,
1000
0000
0100
1000
0100
0000
0000
0000
0110
0000
0000
0000
0011
0000
0000
0000
,
1100
0000
0000
1000
0010
0000
0001
0000
0010
0000
1000
0000
1001
0000
0000
0000
,
0011
1100
2002
0000
,
3003
0000
0000
0000
;

//---------------dance-single - ----------------
#NOTEDATA:;
#CHARTNAME:;
#STEPSTYPE:dance-single;
#DESCRIPTION:;
#CHARTSTYLE:;
#DIFFICULTY:Hard;
#METER:8;
#RADARVALUES:0.459574,0.700824,0.345995,0.242933,0.415931,437.000000,390.000000,47.000000,33.000000,0.000000,0.000000,0.000000,0.000000,0.000000,0.459574,0.700824,0.345995,0.242933,0.415931,437.000000,390.000000,47.000000,33.000000,0.000000,0.000000,0.000000,0.000000,0.000000;
#CREDIT:;
#NOTES:
0000
0000
0000
0000
,
0000
0000
0000
0000
,
0000
0000
0000
0000
,
0000
0000
0000
0000
,
0000
0000
0000
0000
,
0000
0000
0000
0000
,
0000
0000
0000
0000
,
0000
0000
0000
0000
,
0000
0000
0000
0000
,
0000
0000
0000
0000
,
0000
0000
0000
0000
,
0000
0000
0000
0000
,
0000
0000
0000
1001
,
0010
0001
0100
0001
0010
0000
0100
0000
,
1000
0000
0001
0000
1000
0010
0100
0010
,
1000
1100
0000
0110
0000
0011
0002
0000
,
0003
1000
0001
0000
1001
0000
0010
0000
,
0100
0000
1000
0000
0001
0000
0100
0010
,
1001
0000
1000
0010
0100
0001
0020
0000
,
0130
1000
0001
0000
0101
0000
0001
1000
,
0001
1000
0020
0000
1030
0001
0100
0000
,
0110
0000
0010
0000
1000
0001
1000
0000
,
1000
0010
0100
0000
0101
0000
0010
0000
,
0100
1100
1010
0110
,
1001
0000
0002
0000
0000
0000
1003
0001
1000
0000
0100
0000
0010
0000
0010
0000
,
0000
0000
0100
0000
0100
0000
0000
0000
1001
0000
0000
0000
0100
0000
1000
0001
,
1000
0001
0100
0100
0000
0010
0010
0000
,
1001
0000
0010
0000
0100
0001
0010
0000
,
0000
0001
0010
1000
0010
0000
0100
0000
,
1000
0000
0001
1000
0010
0000
0100
0001
,
1000
0000
0001
0010
0100
1000
0010
0000
,
1000
0100
1000
0000
1100
0000
0100
0000
,
0010
0001
0100
0000
0010
0100
0001
0000
,
0101
0000
1000
0000
0001
0010
0100
0000
,
1000
0010
0001
0010
1000
0000
0110
0000
,
0010
0011
1100
1010
,
0101
0000
0000
0001
0000
0000
0000
0001
0000
0010
0000
0000
,
0000
0010
0000
0100
0000
0000
0000
0100
0000
1000
0000
0000
,
0000
1000
0000
0001
0000
0000
0000
0001
0000
0100
0000
0000
,
0000
0100
0000
0010
0000
0000
0000
0010
0000
1000
0000
0001
,
0000
0010
0000
0100
0000
0000
0000
0100
0000
0000
0000
0100
,
0000
0000
0000
0100
0000
0000
0000
0010
0000
0000
0000
0001
,
0000
0000
0000
1001
0000
0000
0000
0010
0000
0000
0000
0100
,
0000
0000
0000
0001
0000
0000
0000
0010
0000
0001
0000
1000
,
0000
0001
0000
0010
0000
0000
0000
0010
0000
0100
0000
0000
,
0000
0100
0000
0010
0000
0000
0000
0010
0000
0001
0000
1000
,
0000
0001
0000
0100
0000
0000
0000
0100
0000
0010
0000
0000
,
0000
0010
0000
1000
0000
0000
0000
1000
0000
0100
0000
0010
,
0000
0001
0000
0100
0000
0000
0000
0100
0000
0001
0000
0000
,
0000
0001
0000
1000
0000
0000
0000
0010
0000
0000
0000
0100
,
0000
0000
0000
0002
0000
0000
0000
0010
0000
0000
0000
0103
,
0000
0000
0000
1001
0000
0002
0000
0000
0013
0000
0000
0100
,
0000
1000
0000
0100
0000
0000
0000
0100
0000
0010
0000
0000
,
0000
0010
0000
0001
0000
0000
0000
0001
0000
1000
0000
0000
,
0000
1000
0000
0010
0000
0000
0000
0010
0000
1000
0000
0000
,
0000
1000
0000
0001
0000
0000
0000
0001
0000
0100
0000
0000
,
0000
0100
0000
0010
0000
0000
0000
1000
0000
0000
0000
0100
,
0000
0000
0000
0010
0000
0000
0000
0001
0000
0000
0000
1000
,
0000
0000
0000
0001
0000
0000
0000
0010
0000
0000
0000
0100
,
0000
0000
0000
1000
0000
0000
0000
0000
0000
1000
0000
0010
,
0000
1000
0000
0010
0000
0000
0000
0100
0000
0001
0000
0000
,
0000
0000
0000
0010
0000
0000
0000
0000
0000
0001
0000
0010
,
0000
0001
0000
0010
0000
0000
0000
0100
0000
1000
0000
0000
,
0000
0000
0000
0001
0000
0000
0000
0000
0000
1000
0000
0010
,
0000
1000
0000
0010
0000
0000
0000
0000
0000
0100
0000
0001
,
0000
0000
0000
0101
0000
0000
0000
0010
0000
0000
0000
0100
,
0000
0000
0000
1001
0000
0000
0000
0010
0000
0000
0000
0100
,
0000
1001
0000
0000
,
0000
0000
0000
0100
0000
0001
0000
0020
0000
0000
0000
0000
,
0030
0000
0000
0100
0000
0001
0000
0020
0000
0000
0000
0000
,
0030
0000
0000
0002
0000
0000
0000
0000
0000
0013
0000
0001
,
0000
0010
0000
0001
0000
1000
0000
0100
0000
0000
0000
0000
,
0000
0000
0000
1000
0000
0000
0000
0100
0000
0000
0000
0001
,
0000
1000
0000
0020
0000
0000
0000
0030
0000
1100
0000
0000
,
0000
0000
0000
0001
0000
0000
0000
0100
0000
0000
0000
1000
,
0000
0001
0000
0200
0000
0000
0000
0300
0000
1001
0000
0000
,
0000
0000
0000
0001
0000
0100
0000
0020
0000
0000
0000
0000
,
0030
0000
0000
1000
0000
0100
0000
0020
0000
0000
0000
0000
,
0030
0000
0000
0002
0000
0000
0000
0000
0000
0013
0000
0001
,
0000
0010
0000
0001
0000
1000
0000
0020
0000
0000
0000
0000
,
0030
0000
0000
1000
0000
0000
0000
0100
0000
0000
0000
0001
,
0000
0100
0000
0020
0000
0000
0000
0030
0000
0000
0000
0010
,
0000
0000
0000
0100
0000
0000
0000
0010
0000
0000
0000
1000
,
0000
0100
0000
0000
,
0000
2002
3003
0220
,
0000
0000
0000
0330
0000
0000
0000
0010
0000
0000
0000
1000
,
0000
0000
0000
0100
0000
0000
0000
0100
0000
0010
0000
0000
,
0000
0010
0000
0001
0000
0000
0000
0000
0000
0000
0000
0000
,
0000
2002
3003
0202
,
0000
0000
0000
0303
0000
0000
0000
1000
0000
0000
0000
0100
,
0000
0000
0000
0010
0000
0000
0000
0010
0000
0100
0000
0000
,
0000
0100
0000
1000
0000
0000
0000
0000
0000
0000
0000
0000
,
0000
0000
0000
0002
0000
0000
0000
0000
0000
0013
0000
0100
,
0000
0000
0000
2000
0000
0000
0000
0000
0000
3000
0000
0001
,
0000
0000
0000
0020
0000
0000
0000
0000
0000
0130
0000
1000
,
0000
0000
0000
0002
0000
0000
0000
0000
0000
0003
0000
1000
,
0000
0000
0000
0020
0000
0000
0000
0000
0000
0030
0000
0100
,
0000
0000
0000
0002
0000
0000
0000
0000
0000
1003
0000
0100
,
0000
0000
0000
1001
0000
0000
0000
0000
0000
0010
0000
0001
,
0000
0000
0000
0101
0000
0000
0000
0000
0000
0001
0000
1000
,
0000
0000
0001
0000
0000
0000
1000
0000
0000
0001
0000
0000
0000
0000
0000
1000
0000
0000
0001
0000
0000
0000
0000
0000
,
1001
0000
0110
0000
0101
0000
0001
1000
,
0000
0001
1000
0000
1001
0000
1100
0000
,
0110
0000
0002
0000
0003
0001
0010
0000
,
0100
1000
0010
0100
,
0001
0000
1000
0000
0010
0000
0001
0010
,
0100
1000
0010
0000
1000
0100
0010
0000
,
0101
0000
0010
0000
0100
0001
0010
0000
,
0100
1000
0001
0000
1001
0000
0100
0000
,
0001
0010
0100
0000
0010
0000
0100
0000
,
1001
0000
0000
1000
0010
0000
0100
0000
0001
0000
0010
0000
0100
0000
0000
0000
,
0011
1100
2002
0000
,
3003
0000
0000
0000
;

//---------------dance-single - ----------------
#NOTEDATA:;
#CHARTNAME:;
#STEPSTYPE:dance-single;
#DESCRIPTION:;
#CHARTSTYLE:;
#DIFFICULTY:Medium;
#METER:6;
#RADARVALUES:0.352305,0.574573,0.257656,0.066254,0.195082,335.000000,300.000000,35.000000,9.000000,0.000000,0.000000,0.000000,0.000000,0.000000,0.352305,0.574573,0.257656,0.066254,0.195082,335.000000,300.000000,35.000000,9.000000,0.000000,0.000000,0.000000,0.000000,0.000000;
#CREDIT:;
#NOTES:
0000
0000
0000
0000
,
0000
0000
0000
0000
,
0000
0000
0000
0000
,
0000
0000
0000
0000
,
0000
0000
0000
0000
,
0000
0000
0000
0000
,
0000
0000
0000
0000
,
0000
0000
0000
0000
,
0000
0000
0000
0000
,
0000
0000
0000
0000
,
0000
0000
0000
0000
,
0000
0000
0000
0000
,
0000
0000
0000
1001
,
1000
0010
1000
0100
,
0010
0110
0100
0010
,
0001
1000
0010
1000
,
0000
1000
0001
0000
0100
0000
0010
0000
,
0100
0100
0001
0010
,
0100
0000
1000
0000
0001
1000
0001
0000
,
0000
0010
0100
0000
1000
0000
0100
0000
,
0010
0000
0001
0000
0000
1000
0001
0000
,
0100
0010
1000
0100
,
0000
0010
0100
0000
0010
0000
0001
0000
,
1000
0100
0110
0110
,
1001
0000
0000
0000
0000
0000
1000
0001
,
0000
1000
0001
0000
0200
0000
0000
0000
,
0300
0000
0001
0000
1000
0001
1000
0000
,
2002
0000
3003
0010
,
0000
0010
0100
0000
0001
0000
0010
0000
,
0100
1000
0010
0100
,
2002
0000
3003
1000
,
0010
1000
0010
0000
0100
0000
0001
0000
,
0010
0000
0100
0000
0010
0001
0010
0000
,
0100
0000
1000
0000
0001
1000
0001
0000
,
0000
0010
0100
0000
1000
0000
0010
0000
,
0100
0001
0110
0110
,
1001
0002
0000
0010
,
0000
0100
0000
1003
,
0000
2000
0000
0010
,
0000
0100
0000
3001
,
0000
0000
0000
0100
0000
0000
0000
1000
0000
0000
0000
0001
,
0000
0000
0000
0100
0000
0000
0000
0001
0000
0000
0000
1000
,
0000
0001
0000
0010
,
0000
0000
0000
0100
0000
0000
0000
0000
0000
1000
0000
0010
,
0000
1000
0000
0010
0000
0000
0000
0000
0000
0100
0000
0000
,
0000
0000
0000
0001
0000
0000
0000
0000
0000
0010
0000
0001
,
0000
0010
0000
0001
0000
0000
0000
0000
0000
1000
0000
0000
,
0000
0000
0000
0100
0000
0000
0000
0000
0000
0010
0000
0100
,
0000
0010
0000
0100
0000
0000
0000
0000
0000
1000
0000
0000
,
0000
0000
0000
0001
0000
0000
0000
0010
0000
0000
0000
0100
,
0000
0000
0000
1000
0000
0000
0000
0010
0000
0000
0000
0100
,
0000
0001
0000
0000
,
0000
1000
0000
1100
,
0000
0001
0000
0101
,
0000
1000
0000
1010
,
0000
0001
0000
0011
,
0000
0000
0000
0010
0000
0000
0000
0001
0000
0000
0000
1000
,
0000
0000
0000
0010
0000
0000
0000
1000
0000
0000
0000
0001
,
0000
0010
0000
0110
,
0000
0100
0000
1001
,
0000
0000
0000
1000
0000
0000
0000
0001
0000
1000
0000
0000
,
0000
0010
0000
0110
,
0000
0000
0000
0001
0000
0000
0000
1000
0000
0001
0000
0000
,
0000
0100
0000
1001
,
0000
0000
0000
0010
0000
0000
0000
0000
0000
0001
0000
1000
,
0000
0000
0000
0001
0000
0000
0000
0010
0000
0000
0000
0100
,
0000
0000
0000
1100
0000
0000
0000
0110
0000
0000
0000
0101
,
0000
1001
0000
0000
,
0000
0000
0000
1000
0000
0100
0000
0010
0000
0000
0000
0000
,
0000
0000
0000
1000
0000
0100
0000
0010
0000
0000
0000
0000
,
0000
0001
0000
0010
,
0000
0000
0000
0100
0000
0000
0000
0000
0000
1000
0000
0001
,
0000
1000
0000
0001
0000
0000
0000
0000
0000
0100
0000
0000
,
0000
0010
0000
1010
,
0000
0100
0000
0010
,
0000
1000
0000
0101
,
0000
0000
0000
1000
0000
0001
0000
0010
0000
0000
0000
0000
,
0000
0000
0000
1000
0000
0001
0000
0010
0000
0000
0000
0000
,
0000
1000
0000
0010
,
0000
0000
0000
0001
0000
0000
0000
0000
0000
1000
0000
0001
,
0000
0100
0000
0010
0000
0000
0000
0100
0000
0000
0000
0001
,
0000
0010
0000
0100
0000
0000
0000
0000
0000
0000
0000
1000
,
0000
0000
0000
0010
0000
0000
0000
0100
0000
0000
0000
0010
,
0000
0110
0000
0000
,
0000
2000
0000
0020
,
0000
0000
0000
3030
0000
0000
0000
0100
0000
0000
0000
0001
,
0000
0010
0000
0100
,
0000
1000
0000
0001
,
0000
0010
0000
0100
,
0000
0000
0000
0000
0000
0000
0000
1000
0000
0000
0000
0001
,
0000
0010
0000
0001
,
0000
1000
0000
0001
,
0000
0000
0000
0100
0000
0000
0000
0000
0000
0010
0000
1000
,
0000
0000
0000
0100
0000
0000
0000
0000
0000
0000
0000
0010
,
0000
0000
0000
0001
0000
0000
0000
0000
0000
1000
0000
0001
,
0000
0000
0000
0010
0000
0000
0000
0000
0000
0000
0000
0100
,
0000
1000
0000
0010
,
0000
0000
0000
0010
0000
0000
0000
0000
0000
0100
0000
0001
,
0000
0000
0000
0101
0000
0000
0000
0000
0000
0010
0000
1000
,
0000
1100
0000
0010
,
0000
0000
0001
1000
0000
0001
1000
0000
,
0001
0000
0110
0000
0110
0000
1000
0001
,
0000
1000
0001
0000
1000
0000
0110
0000
,
0110
0000
0010
0000
0000
0010
1000
0000
,
0001
0010
0100
1000
,
0001
0100
0010
0100
,
0001
1000
0001
0000
0010
0000
0100
0000
,
1000
0000
0010
0000
1000
0001
1000
0000
,
0010
0100
0001
0010
,
0100
1000
0001
0000
0000
0010
0100
0000
,
1000
0010
0100
1001
,
0110
0110
1001
0000
;

//---------------dance-single - ----------------
#NOTEDATA:;
#CHARTNAME:;
#STEPSTYPE:dance-single;
#DESCRIPTION:;
#CHARTSTYLE:;
#DIFFICULTY:Easy;
#METER:4;
#RADARVALUES:0.222951,0.410409,0.154594,0.272379,0.000000,212.000000,191.000000,21.000000,37.000000,0.000000,0.000000,0.000000,0.000000,0.000000,0.222951,0.410409,0.154594,0.272379,0.000000,212.000000,191.000000,21.000000,37.000000,0.000000,0.000000,0.000000,0.000000,0.000000;
#CREDIT:;
#NOTES:
// measure 0
0000
0000
0000
0000
,  // measure 1
0000
0000
0000
0000
,  // measure 2
0000
0000
0000
0000
,  // measure 3
0000
0000
0000
0000
,  // measure 4
0000
0000
0000
0000
,  // measure 5
0000
0000
0000
0000
,  // measure 6
0000
0000
0000
0000
,  // measure 7
0000
0000
0000
0000
,  // measure 8
0000
0000
0000
0000
,  // measure 9
0000
0000
0000
0000
,  // measure 10
0000
0000
0000
0000
,  // measure 11
0000
0000
0000
0000
,  // measure 12
0000
0000
0000
0001
,  // measure 13
0010
0100
1000
0000
,  // measure 14
0000
1000
0100
0001
,  // measure 15
0100
0000
0000
0010
,  // measure 16
0000
0010
1000
1000
,  // measure 17
0001
0010
0100
0000
,  // measure 18
0000
0000
0000
1001
,  // measure 19
0000
0100
0000
0010
,  // measure 20
0000
1001
0000
1000
,  // measure 21
0000
0001
0000
0010
,  // measure 22
0000
0000
0001
1000
,  // measure 23
0001
0200
0000
0000
,  // measure 24
0310
0000
0000
1000
,  // measure 25
1000
0100
0001
0000
,  // measure 26
0000
0001
0001
0010
,  // measure 27
0100
0000
0000
1000
,  // measure 28
0000
1000
0001
0100
,  // measure 29
0010
1000
0002
0000
,  // measure 30
0003
0000
0010
0200
,  // measure 31
0000
2300
0000
3000
,  // measure 32
0001
0020
0000
0230
,  // measure 33
0000
0300
0010
0001
,  // measure 34
0000
1000
0001
0010
,  // measure 35
0100
1000
0010
0100
,  // measure 36
0001
1000
0000
1000
,  // measure 37
0000
1000
0000
1000
,  // measure 38
0000
0100
0000
0100
,  // measure 39
0000
0100
0000
0100
,  // measure 40
0000
0010
0000
0001
,  // measure 41
0000
1000
0000
0001
,  // measure 42
0000
0100
0000
0010
,  // measure 43
0000
1000
0000
0100
,  // measure 44
0000
0010
0000
0220
,  // measure 45
0000
0330
0000
1000
,  // measure 46
0000
0001
0000
2002
,  // measure 47
0000
3003
0000
0100
,  // measure 48
0000
0010
0000
1000
,  // measure 49
0000
0100
0000
0010
,  // measure 50
0000
0001
0000
1000
,  // measure 51
0000
1001
0000
0000
,  // measure 52
0000
0001
0000
0101
,  // measure 53
0000
0000
0000
0100
,  // measure 54
0000
0010
0000
1010
,  // measure 55
0000
0000
0000
1000
,  // measure 56
0000
0001
0000
0001
,  // measure 57
0000
1000
0000
1000
,  // measure 58
0000
0100
0000
0010
,  // measure 59
0000
0100
0000
0010
,  // measure 60
0000
0100
0000
2000
,  // measure 61
0000
3000
0000
0001
,  // measure 62
0000
0010
0000
0200
,  // measure 63
0000
0300
0000
0010
,  // measure 64
0000
0001
0000
0100
,  // measure 65
0000
0010
0000
0000
,  // measure 66
0000
0110
0000
0000
,  // measure 67
0000
1001
0000
0000
,  // measure 68
0000
0000
0000
0020
0000
0000
0000
0030
0000
0000
0000
0000
,  // measure 69
0000
0000
0000
0020
0000
0000
0000
0030
0000
0000
0000
0000
,  // measure 70
0000
1000
0000
0001
,  // measure 71
0000
0100
0000
0010
,  // measure 72
0000
1010
0000
0100
,  // measure 73
0000
0010
0000
0000
,  // measure 74
0000
0101
0000
0010
,  // measure 75
0000
0100
0000
0000
,  // measure 76
0000
0002
0000
0013
,  // measure 77
0000
2000
0000
3010
,  // measure 78
0000
0100
0000
0010
,  // measure 79
0000
1000
0000
0001
,  // measure 80
0000
1100
0000
0101
,  // measure 81
0000
2002
0000
3003
,  // measure 82
0000
0010
0000
0100
,  // measure 83
0000
0001
0000
0000
,  // measure 84
0000
2000
0000
3001
,  // measure 85
0000
0000
0000
0010
,  // measure 86
0000
0100
0000
1000
,  // measure 87
0000
0001
0000
0100
,  // measure 88
0000
0020
0000
0130
,  // measure 89
0000
0000
0000
0001
,  // measure 90
0000
0010
0000
0100
,  // measure 91
0000
1000
0000
0001
,  // measure 92
0000
0200
0000
0000
,  // measure 93
0000
0320
0000
0000
,  // measure 94
0000
1030
0000
0001
,  // measure 95
0000
0100
0000
0010
,  // measure 96
0000
2000
0000
0000
,  // measure 97
0000
3010
0000
0000
,  // measure 98
0000
0100
0000
0000
,  // measure 99
0000
0001
0000
0000
,  // measure 100
0000
0202
0000
0303
,  // measure 101
2002
0000
3003
2200
,  // measure 102
0000
3300
2002
0000
,  // measure 103
3003
0001
0010
0100
,  // measure 104
1000
1000
0100
0001
,  // measure 105
0001
0100
1000
0000
,  // measure 106
0000
2020
0030
0002
,  // measure 107
3003
0000
0000
0022
,  // measure 108
0030
2000
3003
0000
,  // measure 109
0001
1000
0010
0100
,  // measure 110
0001
0010
0100
1000
,  // measure 111
0001
0100
0110
0000
;

//---------------dance-single - ----------------
#NOTEDATA:;
#CHARTNAME:;
#STEPSTYPE:dance-single;
#DESCRIPTION:;
#CHARTSTYLE:;
#DIFFICULTY:Beginner;
#METER:1;
#RADARVALUES:0.119889,0.205205,0.007362,0.000000,0.000000,114.000000,113.000000,1.000000,0.000000,0.000000,0.000000,0.000000,0.000000,0.000000,0.119889,0.205205,0.007362,0.000000,0.000000,114.000000,113.000000,1.000000,0.000000,0.000000,0.000000,0.000000,0.000000,0.000000;
#CREDIT:;
#NOTES:
// measure 0
0000
0000
0000
0000
,  // measure 1
0000
0000
0000
0000
,  // measure 2
0000
0000
0000
0000
,  // measure 3
0000
0000
0000
0000
,  // measure 4
0000
0000
0000
0000
,  // measure 5
0000
0000
0000
0000
,  // measure 6
0000
0000
0000
0000
,  // measure 7
0000
0000
0000
0000
,  // measure 8
0000
0000
0000
0000
,  // measure 9
0000
0000
0000
0000
,  // measure 10
0000
0000
0000
0000
,  // measure 11
0000
0000
0000
0000
,  // measure 12
0000
0000
0000
1000
,  // measure 13
0000
0000
1000
0000
,  // measure 14
0000
0001
0000
0000
,  // measure 15
0001
0000
0000
0100
,  // measure 16
0000
0000
0100
0000
,  // measure 17
0000
0010
0000
0000
,  // measure 18
0010
0000
0000
1000
,  // measure 19
0000
1000
0000
0000
,  // measure 20
0000
0001
0000
0001
,  // measure 21
0000
0000
0000
0100
,  // measure 22
0000
0000
0010
0000
,  // measure 23
0000
1000
0000
0000
,  // measure 24
0000
0000
0000
0001
,  // measure 25
0000
0001
0001
0000
,  // measure 26
0000
0100
0000
0000
,  // measure 27
0100
0000
0000
0010
,  // measure 28
0000
0000
1000
0000
,  // measure 29
0000
0100
0000
0000
,  // measure 30
0001
0000
0000
0100
,  // measure 31
0000
0100
0000
0000
,  // measure 32
0000
0010
0000
0010
,  // measure 33
0000
0000
0000
1000
,  // measure 34
0000
0000
0001
0000
,  // measure 35
0000
0100
0000
0000
,  // measure 36
0100
0000
0000
0000
,  // measure 37
0000
0001
0000
0000
,  // measure 38
0000
0001
0000
0000
,  // measure 39
0000
1000
0000
0000
,  // measure 40
0000
0010
0000
0010
,  // measure 41
0000
0010
0000
0010
,  // measure 42
0000
0010
0000
0010
,  // measure 43
0000
0000
0000
0000
,  // measure 44
0000
0100
0000
0100
,  // measure 45
0000
0000
0000
0000
,  // measure 46
0000
0001
0000
0001
,  // measure 47
0000
0000
0000
0000
,  // measure 48
0000
1000
0000
0000
,  // measure 49
0000
0100
0000
0000
,  // measure 50
0000
0010
0000
0000
,  // measure 51
0001
0000
0000
0000
,  // measure 52
0000
1000
0000
1000
,  // measure 53
0000
0000
0000
1000
,  // measure 54
0000
0000
0000
0001
,  // measure 55
0000
0000
0000
0001
,  // measure 56
0000
0000
0000
0100
,  // measure 57
0000
0000
0000
0010
,  // measure 58
0000
0000
0000
1000
,  // measure 59
0000
0000
0000
0100
,  // measure 60
0000
0000
0000
0010
,  // measure 61
0000
0000
0000
0001
,  // measure 62
0000
0000
0000
1000
,  // measure 63
0000
0000
0000
0010
,  // measure 64
0000
0000
0000
0100
,  // measure 65
0000
0100
0000
0000
,  // measure 66
0000
0001
0000
0000
,  // measure 67
0000
0001
0000
0000
,  // measure 68
0000
0010
0000
0000
,  // measure 69
0000
0010
0000
0000
,  // measure 70
0000
0100
0000
0000
,  // measure 71
0000
1000
0000
0000
,  // measure 72
0000
0100
0000
0100
,  // measure 73
0000
0000
0000
0000
,  // measure 74
0000
0010
0000
0010
,  // measure 75
0000
0000
0000
0000
,  // measure 76
0000
1000
0000
0000
,  // measure 77
0000
1000
0000
0000
,  // measure 78
0000
0001
0000
0000
,  // measure 79
0000
0100
0000
0000
,  // measure 80
0000
0001
0000
0000
,  // measure 81
0000
0010
0000
0000
,  // measure 82
0000
0100
0000
0000
,  // measure 83
0000
1000
0000
0000
,  // measure 84
0000
0010
0000
0010
,  // measure 85
0000
0000
0000
0000
,  // measure 86
0000
0100
0000
0100
,  // measure 87
0000
0100
0000
0000
,  // measure 88
0000
0001
0000
0001
,  // measure 89
0000
0000
0000
0000
,  // measure 90
0000
0010
0000
0000
,  // measure 91
0000
0100
0000
0000
,  // measure 92
0000
1000
0000
0000
,  // measure 93
0000
0001
0000
0000
,  // measure 94
0000
0100
0000
0000
,  // measure 95
0000
0010
0000
0000
,  // measure 96
0000
1000
0000
0000
,  // measure 97
0000
1000
0000
0000
,  // measure 98
0000
0001
0000
0000
,  // measure 99
0000
0100
0000
0000
,  // measure 100
0000
0001
0000
0000
,  // measure 101
0000
0000
0000
0010
,  // measure 102
0000
0000
0000
0000
,  // measure 103
0000
0100
0000
0000
,  // measure 104
0100
0000
0000
1000
,  // measure 105
0000
0000
1000
0000
,  // measure 106
0000
0001
0000
0001
,  // measure 107
0000
0000
0000
0100
,  // measure 108
0000
0100
0000
0000
,  // measure 109
0000
0010
0000
0000
,  // measure 110
1000
0000
0000
0001
,  // measure 111
0000
0000
1001
0000
;
