#VERSION:0.83;
#TITLE:Joy Comes In The Morning;
#SUBTITLE:;
#ARTIST:Xploding Plastix;
#TITLETRANSLIT:;
#SUBTITLETRANSLIT:;
#ARTISTTRANSLIT:;
#GENRE:The Donca Matic Singalongs;
#ORIGIN:;
#CREDIT:;
#BANNER:Joy Comes In The Morning-bn.png;
#BACKGROUND:Joy Comes In The Morning-bg.png;
#PREVIEWVID:Joy Comes In The Morning-preview.avi;
#JACKET:Joy Comes In The Morning-jacket.png;
#CDIMAGE:;
#DISCIMAGE:;
#LYRICSPATH:;
#CDTITLE:;
#MUSIC:Joy Comes In The Morning.mp3;
#OFFSET:-0.035000;
#SAMPLESTART:44.377552;
#SAMPLELENGTH:11.932770;
#SELECTABLE:YES;
#DISPLAYBPM:119.000000;
#BPMS:0.000=119.000,
71.000=476.000,
72.000=119.000;
#STOPS:70.333=0.168,
70.667=0.168,
71.000=0.546;
#DELAYS:;
#WARPS:;
#TIMESIGNATURES:0.000=4=4;
#TICKCOUNTS:0.000=2;
#COMBOS:0.000=1;
#SPEEDS:0.000=1.000=0.000=0;
#SCROLLS:0.000=1.000;
#FAKES:;
#LABELS:0.000=Song Start;
#LASTSECONDHINT:115.550346;
#BGCHANGES:0.000=Joy Comes In The Morning-video.avi=1.000=0=0=0=StretchNoLoop====,
99999=-nosongbg-=1.000=0=0=0 // don't automatically add -songbackground-
;
#KEYSOUNDS:;
#ATTACKS:
;

//---------------dance-single - ----------------
#NOTEDATA:;
#CHARTNAME:;
#STEPSTYPE:dance-single;
#DESCRIPTION:;
#CHARTSTYLE:;
#DIFFICULTY:Challenge;
#METER:12;
#RADARVALUES:0.742567,0.912647,0.145818,0.120085,1.458176,606.000000,589.000000,17.000000,14.000000,0.000000,0.000000,0.000000,0.000000,0.000000,0.742567,0.912647,0.145818,0.120085,1.458176,606.000000,589.000000,17.000000,14.000000,0.000000,0.000000,0.000000,0.000000,0.000000;
#CREDIT:;
#DISPLAYBPM:119.000000;
#NOTES:
0000
0000
0000
0000
,
0000
0000
0000
0000
,
1000
0000
1000
0100
0000
0000
0010
0000
0110
0000
0000
0000
,
0001
0000
0001
0100
0000
0000
0010
0000
0110
0000
0000
0000
,
0001
0000
0001
0010
0000
0010
1000
0000
0110
0000
0000
0000
,
1000
0000
1000
0100
0000
0100
0001
0000
0110
0000
0000
0000
,
1000
0010
1000
0100
0000
0100
0010
0000
0001
0100
0000
0001
,
1000
0001
0010
0100
0000
0010
0001
0000
1000
0100
0000
0010
,
0100
1000
0010
0100
0000
0001
1000
0000
0001
0100
0000
0010
,
1000
0100
0010
0001
0000
0100
0010
0000
1000
0010
0000
1000
,
0100
0000
0010
0000
0001
0000
1000
0000
0010
1000
0010
0000
0100
0000
0001
0000
0100
0000
0010
0000
1000
0000
0100
0000
,
0010
0000
0100
0000
1000
0000
0001
0000
0010
0001
0010
0000
0100
0000
1000
0000
0001
0000
0100
0000
0010
0000
1000
0000
,
0100
0010
0001
0101
0000
1000
0010
1000
0100
1000
0010
1000
,
1001
0000
0001
0010
0001
0100
0001
0010
0001
0100
0001
1000
,
0100
0000
0010
0000
0001
0000
1000
0000
0010
1000
0010
0000
1000
0000
0001
0000
0100
0000
0010
0000
0100
0000
0001
0000
,
1000
0001
1000
0000
0100
0000
0010
0000
0001
0100
0001
0000
0010
0000
0100
0000
1000
0000
0010
0000
0100
0000
0001
0000
,
0010
0100
0010
0011
0000
0001
1000
0001
0100
0001
1000
0001
,
0101
0000
0001
0010
0001
0100
0010
1010
1001
0101
0000
0000
,
1001
0000
0100
0001
0000
1000
0100
0000
0000
0010
0001
0100
,
0001
0000
1000
0010
1000
0100
1000
0000
0000
0100
0001
0010
,
0100
0000
0000
0001
0010
0100
1000
0000
1000
0010
0001
0010
,
1000
0100
0010
0100
1000
0001
0100
0000
0000
0110
0000
0000
,
0001
0000
1000
0100
0000
0100
0010
0000
0001
0100
0000
0100
,
0010
0000
1000
0100
0000
0100
0010
0000
0001
1000
0001
0100
,
0010
0000
1000
0010
1000
0000
0100
0000
0010
0000
0001
0000
1000
0000
0001
0000
0100
0000
0010
0100
0010
0000
1000
0000
,
0001
0000
0010
0001
0010
0000
0100
0000
1000
0000
0001
0000
0100
0000
0010
0000
1000
0000
0001
0000
0010
0000
0100
0000
,
2000
0000
0000
3002
0000
0000
2003
0000
0000
3010
0100
0001
,
0200
0000
0000
0000
0000
0000
0320
0000
0000
0000
0000
0000
1030
0000
0000
0000
1001
0000
0001
0010
0001
0000
0010
0000
,
0100
0000
1000
0100
1000
0000
0010
0000
0100
0000
0001
0000
1000
0000
0001
0000
0100
0000
0010
1000
0010
0000
0100
0000
,
0001
0000
1000
0001
1000
0000
0100
0000
0010
0000
0001
0000
0100
0000
0010
0000
0100
0000
0001
0000
0010
0000
0100
0000
,
1000
0000
0000
1000
0010
0001
1000
0100
0001
0100
0000
0000
,
0010
1000
0100
0010
0001
0100
0000
1001
0000
2000
0000
3001
,
1000
0001
1000
0200
0000
0310
0100
0010
0100
0020
0000
0031
,
0100
0001
0100
0002
0000
1003
0010
1000
0010
2000
0000
3100
,
0010
0001
0100
0002
0000
0013
0100
1000
0010
0200
0000
0301
,
1000
0001
0100
0020
0000
1030
0001
1000
0100
1000
0000
0010
,
1000
0001
1000
0001
1000
0001
1000
0000
0010
1000
0010
1000
0010
0000
0100
0001
0100
0001
0100
0000
0001
0010
0001
0000
,
0010
0000
0100
0000
1000
0000
0100
0000
1000
0100
1000
0100
1000
0000
0010
0000
0100
0000
0001
0000
0010
0000
0100
0000
,
1000
0000
0001
0100
0001
0100
0001
0000
1000
0000
0001
0000
0010
0000
0100
0000
1000
0000
0010
0000
0100
0000
0001
0000
,
1000
0001
1000
0001
1000
0001
1000
0000
0010
0100
0010
0100
0010
0000
1000
0001
1000
0001
1000
0000
0001
0100
0001
0000
,
0100
0000
0010
0100
0010
0000
1000
0000
0100
0000
0010
0000
0001
0000
0100
0000
0010
0000
1000
0000
0010
1000
0010
1000
,
0010
0100
0001
0000
1000
0000
0100
0000
0010
0000
0001
0000
,
1000
0010
1000
0010
1000
0010
1000
0000
0100
1000
0100
0000
0010
0000
0001
0010
0001
0000
0100
0000
0001
1000
0001
0000
,
0010
0000
0100
1000
0100
0000
0010
0000
0001
0100
0001
0100
0001
0000
1000
0010
1000
0010
1000
0000
0001
0100
0001
0100
,
0001
0000
1000
0010
1000
0010
1000
0000
0100
0000
0010
0000
0001
0000
0100
0000
0010
0000
1000
0000
0100
1000
0100
0000
,
0010
0000
0001
0010
0001
0000
0100
0000
0001
1000
0001
0000
0010
0000
0100
1000
0100
0000
0010
0000
0001
0000
0100
0000
,
0001
1000
0001
1000
0001
1000
0001
0000
0010
0000
0100
0000
1000
0000
0010
0000
0100
0000
0001
0000
1000
0001
1000
0000
,
0100
0000
0010
0000
0001
0000
0100
0000
0001
0000
1000
0000
0100
0000
1000
0000
0010
0000
1000
0000
0001
1000
0001
0000
,
0100
0000
1000
0100
0001
0000
0010
0000
1000
0000
0100
0000
,
0001
1000
0001
1000
0001
1000
0001
0000
0100
0001
0100
0000
0010
0000
1000
0010
1000
0000
0100
0000
1000
0100
1000
0000
,
0100
0000
0010
0001
0000
0100
0010
1000
0100
0010
0000
0001
,
1000
0001
1000
0100
0000
0010
0100
0010
0001
2000
0000
3010
,
0100
0000
0110
0001
0000
0000
0001
1000
0001
0100
0000
0000
,
1000
0001
1000
0010
0000
0000
0001
1000
0001
0100
0000
0010
,
1000
0000
1000
0001
0000
0000
0010
0100
0010
0001
0000
0000
,
0100
0010
0100
1000
0000
0000
0001
0000
0000
0100
0000
0000
,
1001
0000
0000
0000
;

//---------------dance-single - ----------------
#NOTEDATA:;
#CHARTNAME:;
#STEPSTYPE:dance-single;
#DESCRIPTION:;
#CHARTSTYLE:;
#DIFFICULTY:Hard;
#METER:9;
#RADARVALUES:0.552637,0.504357,0.068620,0.077198,1.007857,451.000000,443.000000,8.000000,9.000000,0.000000,0.000000,0.000000,0.000000,0.000000,0.552637,0.504357,0.068620,0.077198,1.007857,451.000000,443.000000,8.000000,9.000000,0.000000,0.000000,0.000000,0.000000,0.000000;
#CREDIT:;
#DISPLAYBPM:119.000000;
#NOTES:
0000
0000
0000
0000
,
0000
0000
0000
0000
,
1000
0000
1000
0100
0000
0000
0010
0000
0110
0000
0000
0000
,
0001
0000
0001
0100
0000
0000
0010
0000
0110
0000
0000
0000
,
0001
0000
0001
0010
0000
0010
1000
0000
0110
0000
0000
0000
,
1000
0000
1000
0100
0000
0100
0001
0000
0110
0000
0000
0000
,
1000
0000
1000
0100
0000
0100
0010
0000
0010
0001
0000
0001
,
1000
0000
1000
0010
0000
0010
0100
0000
0100
0001
0000
0001
,
0010
0000
0010
0100
0000
0100
1000
0000
1000
0001
0000
0001
,
0100
0000
0100
0010
0000
0010
1000
0000
1000
0001
0000
0001
,
1000
0000
1000
0010
1000
0010
0100
0000
0100
0001
0000
0001
,
0010
0000
0010
0100
1000
0100
1000
0000
1000
0001
0000
0001
,
0100
0010
0100
0010
0000
0000
1000
0000
0100
1000
0001
1000
,
0001
0000
0000
0010
0000
0001
0100
0001
0100
0001
0000
0001
,
1000
0000
1000
0010
1000
0010
1000
0000
1000
0001
0000
0001
,
0010
0000
0010
0100
1000
0100
1000
0000
1000
0010
0000
0010
,
0100
0001
0100
0001
0000
0000
1000
0000
1000
0001
0100
0001
,
0100
0000
0000
0001
0000
0001
0010
0100
1000
0002
0000
0000
,
1003
0000
1000
0001
0000
0001
0100
0000
0100
0010
0000
0010
,
1000
0000
1000
0100
0000
0100
0010
0000
0000
0100
1000
0010
,
0100
0000
0000
0010
1000
0100
0010
0000
0000
0100
1000
0010
,
0100
0000
0100
0010
1000
0100
0010
0000
0000
0110
0000
0000
,
0001
0000
0001
1000
0000
1000
0100
0000
0100
0010
0000
0010
,
0001
0000
0001
1000
0000
1000
0010
0000
0000
0100
0001
0100
,
0010
0000
0010
1000
0100
1000
0100
0000
0100
0010
0000
0010
,
0001
0000
0001
0010
0100
0010
0100
0000
0100
1000
0000
1000
,
0002
0203
0301
1100
,
0200
0000
0000
2300
0000
0000
3001
0000
1000
0001
0000
0001
,
0010
0100
1000
0100
0000
0100
0010
0000
0010
0001
0000
0100
,
0010
1000
0001
1000
0000
1000
0010
0000
0010
0100
0001
0010
,
0100
0000
0000
0010
0001
0100
0010
0000
0000
0100
0001
0010
,
0100
0000
0100
0010
0001
0100
0000
1001
0000
1000
0000
0010
,
0100
0000
0010
1000
0000
0000
0001
0010
0001
0020
0000
0000
,
0130
1000
0100
2000
0000
0000
3001
0100
0001
0100
0000
0100
,
1000
0000
1000
0100
0000
0000
0001
1000
0001
2000
0000
0000
,
3010
1000
0010
2000
0000
0000
3100
0010
0100
0010
0000
0010
,
0001
0100
0001
0100
0000
0001
1000
0001
1000
0001
0000
0010
,
0001
0010
0001
0010
0000
0010
0100
0010
0100
1000
0000
0010
,
0001
0000
0010
1000
0000
1000
0100
1000
0100
0010
0000
0001
,
0010
0001
0010
0100
0000
1000
0001
1000
0001
1000
0000
0010
,
0100
0000
0100
0001
0000
0001
0010
0100
0010
0100
0000
0100
,
1000
0001
1000
0000
0010
0000
0100
0000
0001
0000
0010
0000
,
0100
1000
0100
1000
0000
0001
0100
0001
0100
0001
0000
1000
,
0010
1000
0010
1000
0000
0001
0100
0001
0100
0001
0000
1000
,
0010
0000
0001
0010
0000
0001
0100
0001
0100
0001
0000
1000
,
0100
1000
0100
1000
0000
0010
0100
0010
0100
0010
0000
1000
,
0001
0000
0001
1000
0000
1000
0100
1000
0100
1000
0000
0010
,
0100
0010
0100
0010
0000
1000
0001
1000
0001
1000
0000
0001
,
0010
0000
0100
0000
1000
0000
0010
0000
0001
0000
0100
0000
,
1000
0010
1000
0010
0000
0100
0001
0100
0001
0100
0000
0001
,
0010
0000
0100
1000
0000
1000
0010
1000
0001
1000
0000
0001
,
0010
0001
1000
0001
0000
1000
0100
1000
0001
1000
0000
0010
,
0100
0000
0100
0001
0000
0000
0001
1000
0001
0100
0000
0000
,
1000
0001
1000
0010
0000
0000
0001
1000
0001
0100
0000
0010
,
1000
0000
1000
0001
0000
0000
0010
0100
0010
0001
0000
0000
,
0100
0010
0100
1000
0000
0000
0001
0000
0000
0100
0000
0000
,
1001
0000
0000
0000
;

//---------------dance-single - ----------------
#NOTEDATA:;
#CHARTNAME:;
#STEPSTYPE:dance-single;
#DESCRIPTION:;
#CHARTSTYLE:;
#DIFFICULTY:Medium;
#METER:7;
#RADARVALUES:0.324720,0.360255,0.077198,0.248748,0.218726,265.000000,256.000000,9.000000,29.000000,0.000000,0.000000,0.000000,0.000000,0.000000,0.324720,0.360255,0.077198,0.248748,0.218726,265.000000,256.000000,9.000000,29.000000,0.000000,0.000000,0.000000,0.000000,0.000000;
#CREDIT:;
#DISPLAYBPM:119.000000;
#NOTES:
0000
0000
0000
0000
,
0000
0000
0000
0000
,
2000
0100
3001
0000
,
0002
0100
1003
0000
,
2000
0010
3001
0000
,
0002
0010
0103
0000
,
1100
0010
0100
0001
,
0010
0100
0010
0001
,
1000
0010
0001
0100
,
0010
1000
0100
0010
,
0001
0100
0001
0100
0000
0000
0001
0000
0000
0001
0000
0000
,
1000
0010
1000
0010
0000
0000
1000
0000
0000
0010
0000
0000
,
0100
1001
0100
0100
,
1001
0100
0100
0100
,
1001
0000
0000
0100
0001
0100
0001
0000
0000
1000
0000
0000
,
0010
0000
0000
1000
0010
1000
0010
0000
0000
0100
0000
0000
,
1001
0100
0100
0100
,
1001
0100
0100
0000
,
0000
0002
0023
2030
,
3200
0000
0000
0302
0000
0000
0023
0000
0000
1030
0010
1000
,
0010
0000
0000
1000
0000
0000
1100
0000
0000
0001
0010
0001
,
0010
0100
1000
0002
,
0203
2300
3020
0032
,
0203
2300
3010
0100
,
0001
0100
0001
0100
0000
0000
1000
0000
0000
0010
0000
0000
,
1000
0010
1000
0010
0000
0000
1000
0000
0000
0200
0000
0000
,
0300
0020
0030
0002
,
0003
2000
3000
0001
,
0010
0000
0100
1000
0000
0000
0100
0000
0000
0010
0000
0000
,
0001
0000
0100
0010
0000
0000
1000
0000
0000
0001
0000
1000
,
0001
0000
0000
0010
0000
0001
0010
0000
0000
0100
0000
1000
,
0100
0000
0000
0010
0000
0100
0010
0000
0000
0001
0000
0001
,
0100
0000
0100
0010
0000
0000
1000
0000
0000
0100
0000
0000
,
0010
0000
0000
0001
0000
0000
1000
0000
0000
0010
0000
0010
,
0100
0000
0100
0010
0000
0000
1000
0000
0000
0100
0000
0000
,
0010
0000
0000
0001
0000
0000
1000
0000
0000
2002
0000
3003
,
0000
0000
0010
1000
,
0010
0000
0100
0001
0000
0000
0010
0000
0100
1000
0000
1000
,
0001
0000
0000
0010
0000
0000
0001
0000
0100
0010
0000
0000
,
1000
0000
0100
0010
0000
0000
0001
0000
0100
0010
0000
1000
,
0001
0000
0000
0010
0000
0000
0100
0000
0010
0100
0000
0000
,
1000
0000
0001
1000
0000
0000
0100
0000
0010
0100
0000
0000
,
0010
0000
0000
0001
0000
0000
1000
0000
0001
1000
0000
0000
,
0010
0000
1000
0010
0000
0000
0100
0000
0001
0100
0000
0000
,
0010
0000
0000
1000
0000
0000
0100
0000
1000
0100
0000
0000
,
0010
0000
0001
0010
0000
0000
0100
0000
1000
0001
0000
0000
,
0100
0000
0000
0010
0000
0000
1000
0000
0010
0100
0000
0000
,
0001
0000
0010
0100
0000
0000
0010
0000
0001
0010
0000
0100
,
1000
0001
1000
0001
,
0100
0000
0010
1000
0000
0000
0010
0000
0100
0001
0000
0000
,
0010
0000
0000
0100
0000
0000
1000
0000
0001
1000
0000
0000
,
0100
0000
0010
0100
0000
0000
0010
0000
0001
0100
0000
0000
,
0010
1000
0200
0310
,
0200
1300
0200
0310
,
0001
1000
0020
0130
,
0002
0103
0020
1030
,
0101
0000
0000
0000
;

//---------------dance-single - ----------------
#NOTEDATA:;
#CHARTNAME:;
#STEPSTYPE:dance-single;
#DESCRIPTION:;
#CHARTSTYLE:;
#DIFFICULTY:Easy;
#METER:5;
#RADARVALUES:0.283058,0.334737,0.214438,0.591848,0.000000,231.000000,206.000000,25.000000,69.000000,0.000000,0.000000,0.000000,0.000000,0.000000,0.283058,0.334737,0.214438,0.591848,0.000000,231.000000,206.000000,25.000000,69.000000,0.000000,0.000000,0.000000,0.000000,0.000000;
#CREDIT:;
#DISPLAYBPM:119.000000;
#NOTES:
// measure 0
0000
0000
0000
0000
,  // measure 1
0000
0000
0000
0000
,  // measure 2
2000
0100
3001
0000
,  // measure 3
0002
0100
1003
0000
,  // measure 4
2000
0010
3001
0000
,  // measure 5
0002
0010
0103
0000
,  // measure 6
0010
1000
0100
0100
,  // measure 7
0001
0100
1000
0100
,  // measure 8
0001
0010
0100
0100
,  // measure 9
1000
0100
0001
0100
,  // measure 10
1002
1000
1003
1001
,  // measure 11
2001
0001
3001
1001
,  // measure 12
1001
0010
0100
0010
,  // measure 13
1001
0010
0100
0010
,  // measure 14
1002
1000
1003
1001
,  // measure 15
2001
0001
3001
1001
,  // measure 16
2000
3100
0002
1003
,  // measure 17
0020
0031
0100
0000
,  // measure 18
0000
2000
3200
0302
,  // measure 19
0203
2300
3200
0310
,  // measure 20
0001
0010
0100
1000
,  // measure 21
0010
0100
0001
1000
,  // measure 22
0002
0203
2300
3200
,  // measure 23
0302
0203
2300
3100
,  // measure 24
0001
0010
0100
0010
,  // measure 25
0100
1000
0001
2000
,  // measure 26
3000
0020
0030
0002
,  // measure 27
0003
0020
0030
0100
,  // measure 28
1000
0010
0010
0001
,  // measure 29
0010
1000
1000
0002
,  // measure 30
0103
2000
3001
1002
,  // measure 31
1003
0010
0020
0130
,  // measure 32
1000
0100
0002
1003
,  // measure 33
0020
0130
2000
3100
,  // measure 34
0002
1003
0020
0031
,  // measure 35
0200
1300
0002
1003
,  // measure 36
0020
1030
0200
0301
,  // measure 37
2000
3100
0002
1003
,  // measure 38
0110
1001
0020
1030
,  // measure 39
0200
0301
2000
3100
,  // measure 40
0110
1001
0020
1030
,  // measure 41
2000
3100
0002
1003
,  // measure 42
0110
1001
0020
0031
,  // measure 43
0200
1300
0002
0103
,  // measure 44
0110
1001
0020
1030
,  // measure 45
0200
0301
2000
3100
,  // measure 46
0110
1001
0020
0031
,  // measure 47
2000
3010
0002
1003
,  // measure 48
0110
1001
0200
1300
,  // measure 49
0002
0103
2000
3001
,  // measure 50
0110
1001
0200
0301
,  // measure 51
0020
0130
2000
3001
,  // measure 52
0010
1000
0200
0310
,  // measure 53
0002
1003
0020
0130
,  // measure 54
0001
0001
0020
0130
,  // measure 55
2000
3001
0100
1000
;

//---------------dance-single - ----------------
#NOTEDATA:;
#CHARTNAME:;
#STEPSTYPE:dance-single;
#DESCRIPTION:;
#CHARTSTYLE:;
#DIFFICULTY:Beginner;
#METER:2;
#RADARVALUES:0.144592,0.165868,0.000000,0.000000,0.000000,118.000000,118.000000,0.000000,0.000000,0.000000,0.000000,0.000000,0.000000,0.000000,0.144592,0.165868,0.000000,0.000000,0.000000,118.000000,118.000000,0.000000,0.000000,0.000000,0.000000,0.000000,0.000000,0.000000;
#CREDIT:;
#DISPLAYBPM:119.000000;
#NOTES:
// measure 0
0000
0000
0000
0000
,  // measure 1
0000
0000
0000
0000
,  // measure 2
1000
0000
0100
0000
,  // measure 3
0001
0000
0100
0000
,  // measure 4
1000
0000
0100
0000
,  // measure 5
0001
0000
0010
0000
,  // measure 6
0100
0100
0100
0000
,  // measure 7
1000
0000
1000
0000
,  // measure 8
0010
0000
0100
0000
,  // measure 9
0001
0000
0010
0000
,  // measure 10
0100
0100
0100
0000
,  // measure 11
1000
1000
1000
0000
,  // measure 12
0001
0000
0100
0000
,  // measure 13
0010
0000
1000
0000
,  // measure 14
0001
0001
0001
0000
,  // measure 15
1000
1000
1000
0000
,  // measure 16
0010
0000
0100
0000
,  // measure 17
0001
0000
1000
0000
,  // measure 18
0000
0000
0100
0000
,  // measure 19
0001
0000
0100
0000
,  // measure 20
1000
0000
1000
0000
,  // measure 21
0010
0000
0001
0000
,  // measure 22
1000
0000
0100
0000
,  // measure 23
0001
0000
0010
0000
,  // measure 24
0100
0000
0100
0000
,  // measure 25
1000
0000
1000
0000
,  // measure 26
0000
0001
0000
0000
,  // measure 27
0000
0100
0000
0000
,  // measure 28
0010
0000
0010
0000
,  // measure 29
1000
0000
0001
0000
,  // measure 30
0010
0000
0100
0000
,  // measure 31
1000
0000
0001
0000
,  // measure 32
0100
0100
0000
1000
,  // measure 33
0000
0010
0000
0001
,  // measure 34
0001
0001
0000
1000
,  // measure 35
0000
0100
0000
0001
,  // measure 36
0000
0100
0000
1000
,  // measure 37
0000
0010
0000
0001
,  // measure 38
0001
0001
0000
0100
,  // measure 39
0000
0010
0000
1000
,  // measure 40
1000
1000
0000
0100
,  // measure 41
0000
0010
0000
0001
,  // measure 42
0001
0001
0000
0010
,  // measure 43
0000
1000
0000
0100
,  // measure 44
0100
0100
0000
0010
,  // measure 45
0000
0001
0000
1000
,  // measure 46
1000
1000
0000
0010
,  // measure 47
0000
0100
0000
0001
,  // measure 48
0001
0001
0000
0010
,  // measure 49
0000
0100
0000
1000
,  // measure 50
1000
1000
0000
0001
,  // measure 51
0000
0100
0000
0010
,  // measure 52
0000
1000
0000
0010
,  // measure 53
0000
0001
0000
0010
,  // measure 54
0000
1000
0000
0100
,  // measure 55
0000
0010
0000
0000
;
