#VERSION:0.83;
#TITLE:It's Alright, It's OK;
#SUBTITLE:;
#ARTIST:Ashley Tisdale;
#TITLETRANSLIT:;
#SUBTITLETRANSLIT:;
#ARTISTTRANSLIT:;
#GENRE:Guilty Pleasure;
#ORIGIN:;
#CREDIT:;
#BANNER:It's Alright It's OK-bn.png;
#BACKGROUND:It's Alright It's OK-bg.png;
#PREVIEWVID:It's Alright It's OK-preview.avi;
#JACKET:It's Alright It's OK-jacket.png;
#CDIMAGE:;
#DISCIMAGE:;
#LYRICSPATH:;
#CDTITLE:;
#MUSIC:It's Alright It's OK.mp3;
#OFFSET:-0.020000;
#SAMPLESTART:28.923077;
#SAMPLELENGTH:15.384613;
#SELECTABLE:YES;
#BPMS:0.000=130.000;
#STOPS:;
#DELAYS:;
#WARPS:;
#TIMESIGNATURES:0.000=4=4;
#TICKCOUNTS:0.000=2;
#COMBOS:0.000=1;
#SPEEDS:0.000=1.000=0.000=0;
#SCROLLS:0.000=1.000;
#FAKES:;
#LABELS:0.000=Song Start;
#LASTSECONDHINT:113.096916;
#BGCHANGES:0.000=It's Alright It's OK-vid.avi=1.000=0=0=0=StretchNoLoop====,
244.987=It's Alright It's OK-bg.png=1.000=0=0=1=Centered====,
99999=-nosongbg-=1.000=0=0=0 // don't automatically add -songbackground-
;
#KEYSOUNDS:;
#ATTACKS:
;

//---------------dance-single - ----------------
#NOTEDATA:;
#CHARTNAME:[Ness];
#STEPSTYPE:dance-single;
#DESCRIPTION:;
#CHARTSTYLE:;
#DIFFICULTY:Hard;
#METER:7;
#RADARVALUES:0.414174,0.441618,0.316434,0.205255,0.466099,339.000000,302.000000,37.000000,24.000000,0.000000,0.000000,0.000000,0.000000,0.000000,0.414174,0.441618,0.316434,0.205255,0.466099,339.000000,302.000000,37.000000,24.000000,0.000000,0.000000,0.000000,0.000000,0.000000;
#CREDIT:;
#NOTES:
0000
0000
0000
0000
,
0000
0000
0000
0000
,
0000
0000
0000
0000
,
0000
0000
0000
0000
,
0010
0000
0010
1000
0000
0001
0000
0000
1000
0000
0000
0000
,
0100
0000
0000
0100
0000
0001
0000
0000
0001
0000
0000
0000
,
0010
0000
0000
0001
0000
1000
0000
0000
0100
0000
0000
1000
,
0000
0000
0000
0001
0000
0100
0000
0000
0001
0000
0000
1000
,
0010
0000
0000
0001
0000
0100
0001
0000
0100
0001
0000
0100
,
0001
0000
0000
1000
0000
0100
1000
0000
0100
1000
0000
0100
,
1000
0000
0000
0001
0000
1000
0001
0000
1000
0001
0000
0000
,
0010
0001
1000
0010
,
0100
0000
0000
0001
0000
1000
0100
0000
1000
0001
0000
0000
,
0010
0000
0000
0100
0000
1000
0010
0000
1000
0100
0000
0000
,
2000
0000
3002
0000
,
0103
0000
0000
0000
,
1100
0001
0101
1000
,
0001
0000
0001
0100
0000
0100
0010
0000
0010
1000
0000
1000
,
0001
0000
1000
0001
0000
0000
0010
0000
0001
1000
0000
0000
,
0010
1000
0100
0001
,
1000
0000
1000
0010
0000
0000
0001
0000
0001
0010
0000
0000
,
0100
0110
1001
0110
,
0010
0000
0010
0100
0000
0000
1000
0000
1000
0001
0000
0000
,
0100
0000
0000
0010
0000
0000
1000
0100
1000
0100
0000
1000
,
0001
0210
0310
0120
,
0130
1002
1003
2001
,
3001
0000
0001
0010
0000
0010
0100
0000
0100
1000
0000
1000
,
0010
0000
0010
0100
0000
0100
0001
0000
0000
1001
0000
0000
,
0101
1000
1100
0001
,
1000
0000
1000
0100
0000
0100
0010
0000
0010
0001
0000
0001
,
1000
0000
0001
1000
0000
0000
0010
0000
0010
0100
0000
0000
,
2002
0000
0000
3003
,
0110
0000
0000
0010
0000
0000
1000
0001
1000
0100
0000
0000
,
0010
0000
0000
0001
0000
0000
1000
0001
0100
0001
0000
0000
,
1000
0000
0000
0010
0000
0000
0100
0001
0010
0100
0000
0000
,
1000
0001
1000
0100
0000
0000
0010
0001
0010
0100
0000
0000
,
2000
0000
0000
3010
0000
0000
0100
0001
0100
0001
0000
0000
,
0020
0000
0000
0130
0000
0000
1000
0001
1000
0100
0000
0000
,
0020
0000
0000
0031
0000
0000
1000
0010
1000
0010
0000
0000
,
0100
0001
1000
0100
0000
0000
0100
1000
0001
0100
0000
0001
,
0100
0000
0000
0010
0000
1010
0000
0000
1010
0000
0000
1000
,
0001
0000
0000
0100
0000
0110
0000
0000
0110
0000
0000
0001
,
2000
0000
3002
0000
,
0103
0000
0000
0000
0000
0000
1001
0000
1000
0010
0000
0010
,
0000
0000
0000
1010
0000
0011
0000
0000
0000
0110
0000
0000
,
0001
0000
0001
0010
0000
0010
1000
0000
1000
0010
0000
0010
,
0001
0000
1000
0001
0000
0000
1000
0000
0010
1000
0000
0000
,
0100
0000
0000
1100
0000
0000
0001
0000
0000
0101
0000
0001
,
0010
0000
0000
0011
0000
1010
0000
0000
0000
1001
0000
0001
,
1000
0000
0000
1100
0000
0000
0001
0000
0100
0001
0000
1000
,
0010
0000
1000
0001
0000
1000
0100
0000
0000
1001
0000
0000
,
1000
0000
0001
1000
0000
0000
0001
0010
0100
1000
0000
0001
,
1000
2100
3001
0012
,
1003
2010
3001
0102
,
1003
0000
1000
0010
0000
0010
0100
0000
0100
0001
0000
0001
,
0010
0000
0010
0100
0000
0100
1000
0000
0000
0001
0000
2002
,
0000
0000
3003
0100
0000
2002
0000
0000
3003
0110
0000
0000
,
0001
0000
0001
0010
0000
0010
1000
0000
1000
0100
0000
0100
,
0001
0000
1000
0001
0000
0000
0010
0000
0001
0100
0000
0000
,
2200
0000
0000
0300
,
0002
0000
0000
3003
;

//---------------dance-single - ----------------
#NOTEDATA:;
#CHARTNAME:[Ness];
#STEPSTYPE:dance-single;
#DESCRIPTION:;
#CHARTSTYLE:;
#DIFFICULTY:Medium;
#METER:5;
#RADARVALUES:0.271229,0.337708,0.230911,0.213807,0.128284,222.000000,195.000000,27.000000,25.000000,0.000000,0.000000,0.000000,0.000000,0.000000,0.271229,0.337708,0.230911,0.213807,0.128284,222.000000,195.000000,27.000000,25.000000,0.000000,0.000000,0.000000,0.000000,0.000000;
#CREDIT:;
#NOTES:
0000
0000
0000
0000
,
0000
0000
0000
0000
,
0000
0000
0000
0000
,
0000
0000
0000
0000
,
0010
0000
1000
0100
,
0010
0000
0001
0100
,
0010
0000
1000
0001
,
1000
0000
0010
0000
,
0100
0000
0010
1000
,
0001
0000
0010
0001
,
1000
0000
0100
0000
,
0010
0010
0001
1000
,
0001
0000
0000
0000
0000
0000
0100
0000
0100
0010
0000
0000
,
1000
0000
0000
0000
0000
0000
0100
0000
0100
0010
0000
0000
,
0002
0000
2003
0000
,
3100
0000
0000
0000
,
0110
1000
0110
0001
,
1000
0000
0000
0010
0000
0000
0100
0000
0010
0100
0000
0010
,
0000
0000
0200
0000
0000
0000
0300
0000
0000
0000
0000
0000
,
1000
0100
0010
0001
,
1001
0100
1001
1000
,
0001
0000
0000
0100
0000
0000
0010
0000
1000
0010
0000
1000
,
0000
0000
0010
0000
0000
0000
0000
0000
0000
0000
0000
0000
,
0100
0000
0000
0100
0000
0001
0000
0000
0001
0000
0000
1000
,
0000
0202
0303
2200
,
3300
2002
3003
0110
,
0020
0000
0230
0000
,
0301
0010
0100
1000
,
1001
1000
1001
0001
,
1000
0010
0100
0001
,
1000
0000
0001
1000
0000
0000
0010
0000
0000
0100
0000
0000
,
2002
0000
0000
3003
,
1000
0100
0010
0010
,
0001
0100
0010
0010
,
1000
0100
0001
0100
,
1000
0000
0000
0010
0000
0000
0100
0000
0100
0010
0000
0000
,
1000
0100
0010
0010
,
0001
0010
0100
0100
,
0010
0001
1000
0010
,
0100
0000
0000
0001
0000
0000
0010
0000
0010
0100
0000
0000
,
1001
0000
0000
1000
0000
0001
0000
0000
0001
0000
0000
0000
,
1001
0000
0000
0001
0000
1000
0000
0000
1000
0000
0000
0000
,
0020
0000
0230
0000
,
0301
0000
0000
0000
,
1001
0010
1001
0100
,
1000
0000
0000
0001
0000
0000
0100
0000
0010
0100
0000
0010
,
0000
0000
0220
0000
0000
0000
0330
0000
0000
0000
0000
0000
,
1000
0001
0100
0010
,
1010
0010
0011
0010
,
0001
0000
0000
1000
0000
0000
0010
0000
0100
0010
0000
0100
,
0000
0000
0010
0000
0000
0100
0000
0000
0000
0000
0000
0010
,
1000
0000
0000
0100
0000
0010
0000
0000
0010
0000
0000
1001
,
0000
0210
0310
1020
,
1030
2001
3001
1001
,
0002
0000
2003
0000
,
3010
1000
0100
0010
,
1001
0010
1001
0010
,
0100
0001
1000
0100
,
0010
0000
0001
1000
0000
0000
0010
0000
0000
0110
0000
0000
,
2002
0000
0000
3003
,
0200
0000
0000
0300
;

//---------------dance-single - ----------------
#NOTEDATA:;
#CHARTNAME:[Ness];
#STEPSTYPE:dance-single;
#DESCRIPTION:;
#CHARTSTYLE:;
#DIFFICULTY:Easy;
#METER:3;
#RADARVALUES:0.161271,0.207820,0.051314,0.094075,0.000000,132.000000,126.000000,6.000000,11.000000,0.000000,0.000000,0.000000,0.000000,0.000000,0.161271,0.207820,0.051314,0.094075,0.000000,132.000000,126.000000,6.000000,11.000000,0.000000,0.000000,0.000000,0.000000,0.000000;
#CREDIT:;
#NOTES:
0000
0000
0000
0000
,
0000
0000
0000
0000
,
0000
0000
0000
0000
,
0000
0000
0000
0000
,
0010
0000
0000
0000
,
0100
0000
0000
0000
,
0001
0000
0000
0000
,
1000
0000
0000
0000
,
0100
0000
0010
0000
,
0001
0000
0100
0000
,
0010
0000
1000
0000
,
0001
0000
0010
0000
,
0100
0000
1000
0001
,
1000
0000
0001
1000
,
0010
0000
0010
0000
,
0100
0000
0000
0000
,
1001
0000
0010
0000
,
1000
0001
1000
0001
,
0010
0000
0100
0000
,
1000
0000
0001
0000
,
1001
0000
0010
0000
,
0001
1000
0001
1000
,
0010
0000
0100
0000
,
0001
0000
1000
0000
,
0010
0020
0030
0020
,
0030
0200
0300
0100
,
0001
1000
0001
0000
,
0010
0000
0100
0000
,
1000
0000
0001
0000
,
0010
0100
0010
0100
,
1000
0000
0001
0000
,
2002
0000
3003
0000
,
0010
0000
1000
0000
,
0001
0000
0100
0000
,
0010
0000
1000
0000
,
0100
0000
0010
0010
,
0001
0000
1000
0000
,
0001
0000
1000
0000
,
0010
0000
1000
0000
,
0100
0000
0001
0001
,
0010
0000
1000
0000
,
0010
0000
0001
0000
,
1000
0000
1000
0000
,
0001
0000
0000
0000
,
1001
0000
0001
0000
,
1000
0010
0100
0001
,
1000
0000
0001
0000
,
0010
0000
0100
0000
,
1001
0000
0100
0000
,
0001
0100
0010
1000
,
0001
0000
1000
0000
,
0001
0000
0010
0010
,
0100
2000
3000
0002
,
0003
2000
3000
0001
,
0010
0000
0100
0000
,
1000
0000
0001
1000
,
0010
0000
0100
0000
,
0001
0010
0100
1000
,
0001
0000
1000
0000
,
2002
0000
3003
0000
,
0020
0000
0000
0030
;

//---------------dance-single - ----------------
#NOTEDATA:;
#CHARTNAME:[Ness];
#STEPSTYPE:dance-single;
#DESCRIPTION:;
#CHARTSTYLE:;
#DIFFICULTY:Beginner;
#METER:1;
#RADARVALUES:0.080636,0.128284,0.025657,0.000000,0.000000,66.000000,63.000000,3.000000,0.000000,0.000000,0.000000,0.000000,0.000000,0.000000,0.080636,0.128284,0.025657,0.000000,0.000000,66.000000,63.000000,3.000000,0.000000,0.000000,0.000000,0.000000,0.000000,0.000000;
#CREDIT:;
#NOTES:
0000
0000
0000
0000
,
0000
0000
0000
0000
,
0000
0000
0000
0000
,
0000
0000
0000
0000
,
0010
0000
0000
0000
,
0100
0000
0000
0000
,
0001
0000
0000
0000
,
1000
0000
0000
0000
,
0100
0000
0000
0000
,
0010
0000
0000
0000
,
0001
0000
0000
0000
,
1000
0000
0000
0000
,
0001
0000
0000
0000
,
1000
0000
0000
0000
,
0010
0000
0000
0000
,
0000
0000
0000
0000
,
0110
0000
0000
0000
,
1000
0000
1000
0000
,
1000
0000
0000
0000
,
0010
0000
0000
0000
,
0100
0000
0000
0000
,
0001
0000
0001
0000
,
0001
0000
0000
0000
,
0010
0000
0000
0000
,
0100
0000
0000
0000
,
0010
0000
0000
0000
,
0100
0000
0000
0000
,
1000
0000
0000
0000
,
0001
0000
0000
0000
,
0010
0000
0010
0000
,
0100
0000
0000
0000
,
1000
0000
0000
0000
,
0010
0000
0000
0000
,
0001
0000
0000
0000
,
0010
0000
0000
0000
,
0100
0000
0000
0000
,
0001
0000
0000
0000
,
1000
0000
0000
0000
,
0010
0000
0000
0000
,
0100
0000
0000
0000
,
0010
0000
0000
0000
,
0100
0000
0000
0000
,
1000
0000
0000
0000
,
0001
0000
0000
0000
,
1001
0000
0000
0000
,
0010
0000
0100
0000
,
0010
0000
0000
0000
,
0001
0000
0000
0000
,
1000
0000
0000
0000
,
0100
0000
0100
0000
,
0010
0000
0000
0000
,
0001
0000
1000
0000
,
0010
0000
0000
0000
,
0100
0000
0000
0000
,
0001
0000
0000
0000
,
0010
0000
0000
0000
,
0100
0000
0000
0000
,
1000
0000
1000
0000
,
0010
0000
0000
0000
,
0100
0000
0000
0000
,
1001
0000
0000
0000
;

//---------------dance-double - ----------------
#NOTEDATA:;
#CHARTNAME:[Ness];
#STEPSTYPE:dance-double;
#DESCRIPTION:;
#CHARTSTYLE:;
#DIFFICULTY:Hard;
#METER:7;
#RADARVALUES:0.412953,0.441618,0.256568,0.239464,0.483203,338.000000,308.000000,30.000000,28.000000,0.000000,0.000000,0.000000,0.000000,0.000000,0.412953,0.441618,0.256568,0.239464,0.483203,338.000000,308.000000,30.000000,28.000000,0.000000,0.000000,0.000000,0.000000,0.000000;
#CREDIT:;
#NOTES:
// measure 0
00000000
00000000
00000000
00000000
,  // measure 1
00000000
00000000
00000000
00000000
,  // measure 2
00000000
00000000
00000000
00000000
,  // measure 3
00000000
00000000
00000000
00000000
,  // measure 4
00100000
00000000
00100000
01000000
00000000
10000000
00000000
00000000
00010000
00000000
00000000
00000000
,  // measure 5
01000000
00000000
01000000
00010000
00000000
00100000
00000000
00000000
00001000
00000000
00000000
00000000
,  // measure 6
01000000
00000000
00000000
00001000
00000000
00010000
00000000
00000000
00000010
00000000
00000000
00000100
,  // measure 7
00000001
00000000
00000000
00000010
00000000
00000100
00010000
00000000
00000000
00001000
00000000
00000000
,  // measure 8
00000100
00000000
00000000
00000100
00000000
00000001
00000100
00000000
00000001
00000100
00000000
00000001
,  // measure 9
00000010
00000000
00000000
00000100
00000000
00010000
00000100
00000000
00010000
00000100
00000000
00010000
,  // measure 10
00001000
00000000
00000000
01000000
00000000
00010000
01000000
00000000
00010000
10000000
00000000
00010000
,  // measure 11
10000000
00000000
00000000
00100000
00000000
00000000
10000000
00000000
01000000
00100000
00000000
00000000
,  // measure 12
00001000
00000000
00000000
00010000
00000000
00001000
00100000
00000000
00001000
00010000
00000000
00000000
,  // measure 13
00000100
00000000
00000000
00000010
00000000
00000100
00001000
00000000
00000100
00000010
00000000
00000000
,  // measure 14
00000002
00000000
00002003
00000000
,  // measure 15
00013000
00000000
00000000
00000000
,  // measure 16
00110000
00001000
00001010
00010000
,  // measure 17
00001000
00000000
00001000
00010000
00000000
00010000
00100000
00000000
00100000
10000000
00000000
10000000
,  // measure 18
00010000
00000000
01000000
00010000
00000000
00000000
10000000
00000000
01000000
10000000
00000000
00000000
,  // measure 19
00100000
00010000
00001000
00000100
,  // measure 20
00001100
00010000
01010000
00001000
,  // measure 21
00010000
00000000
00010000
00001000
00000000
00001000
00000010
00000000
00000010
00000001
00000000
00000001
,  // measure 22
00001000
00000000
00000001
00001000
00000000
00000000
00000001
00000000
00000100
00000001
00000000
00000000
,  // measure 23
00000010
00000000
00000000
00000100
00000000
00000000
00010000
00001000
00010000
00001000
00000000
00000000
,  // measure 24
00011000
02000000
03100000
00002000
,  // measure 25
00013000
00000200
00000310
00020000
,  // measure 26
00031000
00000000
00001000
01000000
00000000
01000000
00100000
00000000
00100000
10000000
00000000
10000000
,  // measure 27
01000000
00000000
01000000
00100000
00000000
00100000
00001000
00000000
00001000
00000010
00000000
00000000
,  // measure 28
00000110
00010000
01100000
00001000
,  // measure 29
00010000
00000000
00010000
00001000
00000000
00001000
01000000
00000000
01000000
00010000
00000000
00010000
,  // measure 30
00100000
00000000
00001000
00100000
00000000
00000000
00001000
00000000
00010000
00001000
00000000
00000000
,  // measure 31
00022000
00000000
00000000
00033000
,  // measure 32
00000100
00000000
00000000
00001000
00000000
00000000
00000010
00010000
00000010
00010000
00000000
00000000
,  // measure 33
00001000
00000000
00000000
00100000
00000000
00000000
01000000
10000000
01000000
00100000
00000000
00000000
,  // measure 34
00010000
00000000
00000000
01000000
00000000
00000000
00001000
00010000
00001000
00010000
00000000
00000000
,  // measure 35
00000010
00001000
00000010
00000100
00000000
00000000
00000001
00001000
00000001
00001000
00000000
00000000
,  // measure 36
00000100
00000000
00000000
00010000
00000000
00000000
00001000
01000000
00001000
01000000
00000000
00000000
,  // measure 37
00100000
00000000
00000000
10000000
00000000
00000000
00010000
00100000
01000000
10000000
00000000
00000000
,  // measure 38
00100000
00000000
00000000
01000000
00000000
00000000
00001000
00010000
00001000
00000100
00000000
00000000
,  // measure 39
00000001
00000100
00000001
00000010
00000000
00000000
00000100
00010000
00001000
00010000
00000000
00001000
,  // measure 40
01000000
00000000
00000000
00100000
00000000
01010000
00000000
00000000
02020000
00000000
00000000
03030000
,  // measure 41
00100000
00000000
00000000
00001000
00000000
00010000
00000000
00000000
00000010
00000100
00000000
00000000
,  // measure 42
00002002
00003000
00000020
00000003
,  // measure 43
00000130
00000000
00000000
00000000
00000000
00000000
00011000
00000000
00001000
00100000
00000000
00202000
,  // measure 44
00000000
00000000
00303000
00011000
00000000
00020020
00000000
00000000
00030030
00000110
00000000
00000000
,  // measure 45
00000010
00000000
00000010
00001000
00000000
00001000
00000001
00000000
00000001
00000010
00000000
00000010
,  // measure 46
00000100
00000000
00010000
00000100
00000000
00000000
00001000
00000000
01000000
00001000
00000000
00000000
,  // measure 47
00100000
00000000
00000000
00110000
00000000
00000000
01000000
00000000
00000000
00011000
00000000
00022000
,  // measure 48
00000000
00000000
00033000
00000110
00000000
00002002
00000000
00000000
00003003
00000010
00000000
00000000
,  // measure 49
00010000
00000000
00010000
00001000
00000000
00001000
01000000
00000000
01000000
00100000
00000000
01000000
,  // measure 50
00000000
00000000
00001000
00000000
00000000
00010000
00000000
00000000
00000010
00000100
00000000
00000100
,  // measure 51
00000001
00000000
00000001
00000010
00000000
00000010
00000001
00000010
00000100
00010000
00000000
00001000
,  // measure 52
00010000
00201000
00310000
00010020
,  // measure 53
00001030
00001200
00010300
02010000
,  // measure 54
03001000
00000000
00001000
00010000
00000000
00010000
00100000
00000000
00100000
01000000
00000000
01000000
,  // measure 55
00010000
00000000
00010000
00100000
00000000
00100000
00001000
00000000
00001000
00010000
00000000
00000000
,  // measure 56
00011000
00110000
00011000
00001010
,  // measure 57
00000010
00000000
00000010
00000100
00000000
00000100
00000001
00000000
00000001
00000010
00000000
00000010
,  // measure 58
00000100
00000000
00010000
00001000
00000000
00000000
01000000
00000000
00010000
10000000
00000000
00000000
,  // measure 59
20020000
00000000
00000000
30000000
,  // measure 60
00002000
00000000
00000000
00033000
;

//---------------dance-double - ----------------
#NOTEDATA:;
#CHARTNAME:[Ness];
#STEPSTYPE:dance-double;
#DESCRIPTION:;
#CHARTSTYLE:;
#DIFFICULTY:Medium;
#METER:5;
#RADARVALUES:0.271229,0.311730,0.145389,0.102627,0.047037,222.000000,205.000000,17.000000,12.000000,0.000000,0.000000,0.000000,0.000000,0.000000,0.271229,0.311730,0.145389,0.102627,0.047037,222.000000,205.000000,17.000000,12.000000,0.000000,0.000000,0.000000,0.000000,0.000000;
#CREDIT:;
#NOTES:
00000000
00000000
00000000
00000000
,
00000000
00000000
00000000
00000000
,
00000000
00000000
00000000
00000000
,
00000000
00000000
00000000
00000000
,
00000010
00000000
00000100
00000001
,
00000100
00000000
00000010
00010000
,
00000010
00000000
00010000
00001000
,
00010000
00000000
00001000
00000000
,
01000000
01000000
00100000
10000000
,
01000000
01000000
00100000
00001000
,
00020000
00000000
00031000
00000000
,
00010000
00000100
00001000
00000010
,
00000100
00000100
00000001
00000010
,
00000100
00000100
00010000
00001000
,
00022000
00030000
00200000
00003000
,
00310000
00000000
00000000
00000000
,
01000000
01000000
00100000
00100000
,
00001000
00010000
00001000
00010000
,
00000010
00001000
00000100
00000001
,
00000100
00000010
00000001
00000000
,
00000100
00000100
00000010
00000010
,
00010000
00001000
00010000
00001000
,
00100000
00010000
01000000
10000000
,
01000000
00000000
00000000
00100000
00000000
00000000
10000000
00000000
10000000
00010000
00000000
00000000
,
10010000
00010000
00100000
00100000
,
00001000
00010000
00001000
00010000
,
00000100
00000010
00000100
00000010
,
00000001
00000100
00000010
00010000
,
00011000
00010000
00011000
00001000
,
00010000
00000100
00001000
00010000
,
00100000
01000000
10000000
00010000
,
20020000
00000000
00000000
30030000
,
00100000
00001000
00010000
00010000
,
00000010
00000000
00000000
00000100
00000000
00000000
00000001
00000000
00000100
00000001
00000000
00000000
,
00000010
00000100
00010000
00001000
,
00100000
00000000
00000000
00010000
00000000
00000000
10000000
00000000
00010000
10000000
00000000
00000000
,
00100000
01000000
00001000
00010000
,
00000010
00000000
00000000
00001000
00000000
00000000
00000100
00000000
00000010
00000100
00000000
00000000
,
00000010
00000001
00000100
00000010
,
00010000
00000000
00000000
00001000
00000000
00000000
01000000
00000000
00010000
01000000
00000000
00000000
,
00010000
00000000
00000000
00000000
00000000
01100000
00000000
00000000
01100000
00000000
00000000
00000000
,
00100000
00000000
00000000
00000000
00000000
00011000
00000000
00000000
00011000
00000000
00000000
00000000
,
00000200
00000000
00020300
00000000
,
00031000
00000000
00000000
00000000
,
00011000
00001000
00100000
00100000
,
00001000
00010000
00001000
00010000
,
00000010
00000000
00000000
00001000
00000000
00000000
00000001
00000000
00001000
00000001
00000000
00000000
,
00000100
00000010
00001001
00000000
,
00000110
00000100
00000001
00000001
,
00001000
00000100
00010000
00001000
,
00100000
01000000
10000000
00100000
,
01000000
00000000
00000000
00100000
00000000
00000000
10000000
00000000
10000000
00010000
00000000
00000000
,
10010000
00010000
00100000
00100000
,
00001000
00010000
00001000
00010000
,
00000100
00000010
00000100
00000010
,
00000001
00000100
00000010
00010000
,
00011000
00001000
00011000
00010000
,
00001000
01000000
00010000
00001000
,
00000010
00000100
00000001
00001000
,
00002002
00000000
00000000
00003003
,
00020200
00000000
00000000
00030300
;

//---------------dance-double - ----------------
#NOTEDATA:;
#CHARTNAME:[Ness];
#STEPSTYPE:dance-double;
#DESCRIPTION:;
#CHARTSTYLE:;
#DIFFICULTY:Easy;
#METER:2;
#RADARVALUES:0.144167,0.207820,0.059866,0.034209,0.000000,118.000000,111.000000,7.000000,4.000000,0.000000,0.000000,0.000000,0.000000,0.000000,0.144167,0.207820,0.059866,0.034209,0.000000,118.000000,111.000000,7.000000,4.000000,0.000000,0.000000,0.000000,0.000000,0.000000;
#CREDIT:;
#NOTES:
00000000
00000000
00000000
00000000
,
00000000
00000000
00000000
00000000
,
00000000
00000000
00000000
00000000
,
00000000
00000000
00000000
00000000
,
01000000
00000000
00000000
00000000
,
10000000
00000000
00000000
00000000
,
00100000
00000000
00000000
00000000
,
01000000
00000000
00000000
00000000
,
00001000
00000000
00001000
00000000
,
00010000
00000000
00000000
00000000
,
00000100
00000000
00000100
00000000
,
00000010
00000000
00000000
00000000
,
00000001
00000000
00000001
00000000
,
00000100
00000000
00000000
00000000
,
00000010
00000000
00000010
00000000
,
00010000
00000000
00000000
00000000
,
00011000
00000000
00100000
00000000
,
00010000
00010000
01000000
01000000
,
00100000
00000000
10000000
00000000
,
01000000
00000000
00100000
00000000
,
00001000
00000000
00010000
00000000
,
00000100
00000100
00000010
00000010
,
00000001
00000000
00000100
00000000
,
00000010
00000000
00000010
00000000
,
00010000
00000000
00001000
00000000
,
00010000
00000000
00001000
00000000
,
01000000
00000000
00100000
00000000
,
10000000
00000000
00100000
00000000
,
01000000
00000000
00010000
00000000
,
00100000
00100000
00001000
00001000
,
00010000
00000000
00001000
00000000
,
00011000
00000000
00000000
00000000
,
00000100
00000000
00000100
00000000
,
00000010
00000000
00000010
00000000
,
00000001
00000000
00000100
00000000
,
00000001
00000000
00000000
00000000
,
00001000
00000000
00001000
00000000
,
00000100
00000000
00000100
00000000
,
00010000
00000000
00001000
00000000
,
01000000
00000000
00010000
00000000
,
01000000
00000000
00000000
00000000
,
00100000
00000000
00000000
00000000
,
10000000
00000000
10000000
00000000
,
00010000
00000000
00000000
00000000
,
10010000
00000000
00100000
00000000
,
00001000
00010000
00001000
00010000
,
00001000
00000000
00010000
00000000
,
00000100
00000000
00000010
00000000
,
00000001
00000000
00000100
00000000
,
00000010
00000100
00000010
00000100
,
00000010
00000000
00010000
00000000
,
00001000
00000000
01000000
00000000
,
01100000
00000000
01000000
00000000
,
00100000
00000000
00100000
00000000
,
10000000
00000000
01000000
00000000
,
00100000
00000000
00001000
00000000
,
00011000
00000000
00010000
00000000
,
00001000
00001000
00010000
00010000
,
00000100
00000000
00000010
00000000
,
00000220
00000000
00000330
00000000
,
00002002
00000000
00000000
00003003
;
