#VERSION:0.83;
#TITLE:It Ain't Me;
#SUBTITLE:;
#ARTIST:Kygo feat. Selena Gomez;
#TITLETRANSLIT:;
#SUBTITLETRANSLIT:;
#ARTISTTRANSLIT:;
#GENRE:It Ain't Me;
#ORIGIN:;
#CREDIT:;
#BANNER:It Ain't Me-bn.png;
#BACKGROUND:It Ain't Me-bg.png;
#PREVIEWVID:It Ain't Me-preview.avi;
#JACKET:It Ain't Me-jacket.png;
#CDIMAGE:;
#DISCIMAGE:;
#LYRICSPATH:;
#CDTITLE:;
#MUSIC:It Ain't Me.mp3;
#OFFSET:-0.100530;
#SAMPLESTART:66.680206;
#SAMPLELENGTH:19.200005;
#SELECTABLE:YES;
#BPMS:0.000=100.000;
#STOPS:;
#DELAYS:;
#WARPS:;
#TIMESIGNATURES:0.000=4=4;
#TICKCOUNTS:0.000=4;
#COMBOS:0.000=1;
#SPEEDS:0.000=1.000=0.000=0;
#SCROLLS:0.000=1.000;
#FAKES:;
#LABELS:0.000=Song Start;
#LASTSECONDHINT:108.140198;
#BGCHANGES:0.000=It Ain't Me-video.avi=1.000=1=0=0=StretchNoLoop==CrossFade==,
99999=-nosongbg-=1.000=0=0=0 // don't automatically add -songbackground-
;
#KEYSOUNDS:;
#ATTACKS:
;

//---------------dance-single - ----------------
#NOTEDATA:;
#CHARTNAME:;
#STEPSTYPE:dance-single;
#DESCRIPTION:;
#CHARTSTYLE:;
#DIFFICULTY:Hard;
#METER:8;
#RADARVALUES:0.346741,0.399577,0.024767,0.107325,0.404531,294.000000,291.000000,3.000000,13.000000,0.000000,0.000000,0.000000,0.000000,0.000000,0.346741,0.399577,0.024767,0.107325,0.404531,294.000000,291.000000,3.000000,13.000000,0.000000,0.000000,0.000000,0.000000,0.000000;
#CREDIT:;
#NOTES:
0000
0000
0000
0000
,
0000
0000
0000
0000
,
0000
0000
0000
0000
,
0000
0000
0000
0000
,
0002
0000
0203
0000
,
0320
2030
3200
0000
,
0320
0230
2300
3002
,
0203
0000
0000
0000
0020
0000
0000
0000
0330
0000
0000
0000
0001
1000
0000
0000
,
0002
0000
0000
0000
1003
0000
0100
2000
0000
0000
0000
0000
3010
0000
0100
0001
,
0000
0000
0100
0000
0010
0000
1000
0100
0000
0000
1000
0000
0001
1000
0000
0100
,
0000
0000
0010
0000
0001
0000
0100
0010
0000
0000
0000
1000
0010
0000
1000
0100
,
0000
0010
0000
0001
0000
0000
0000
0000
0000
0000
1000
0000
0100
0000
1000
0001
,
0000
0000
1000
0000
0100
0000
1000
0001
0000
0000
0100
0000
0001
0000
1000
0010
,
0000
0000
0100
0000
0000
0000
0000
0000
0000
0000
0001
0000
0100
0000
0001
1000
,
0000
0000
0001
0000
0100
0000
0001
1000
0000
0000
0100
0000
1000
0000
0010
0100
,
0000
0000
0000
0000
0000
0000
0000
0000
0000
0000
0010
0000
1000
0000
0001
0010
,
0000
0000
0000
0010
0001
0000
1000
0010
0000
0000
0000
0000
1000
0000
0001
0100
,
0000
0000
0001
0000
1000
0000
0001
0100
0000
0000
0010
0000
1000
0000
0001
1000
,
0000
0000
0100
0000
0010
0000
0001
1000
0000
0000
0010
0000
0100
0000
0001
1000
,
0000
0000
0100
0000
0000
0000
0000
0000
0000
0000
0000
0000
1000
0001
0000
0000
,
0100
0000
0001
0000
0000
0001
0000
1000
0000
1000
0100
0000
1000
0000
0001
1000
,
0000
0000
0010
0000
0000
0010
0000
0010
0000
0010
0100
0000
0001
0000
0001
1000
,
0000
0000
1000
0100
0000
0000
0010
0000
0000
0000
0001
0000
1000
0000
0100
0000
,
0000
0000
0001
0100
0000
0000
0010
0000
0000
0000
0001
0000
1000
0100
0000
0000
,
0010
0000
0001
0000
0000
0100
0000
0010
0000
0010
1000
0000
0100
0000
1000
0001
,
0000
0000
1000
0000
0000
0100
0000
0100
0000
0100
0010
0000
0001
0000
0001
0100
,
0000
0000
1000
0001
0000
0000
0100
0000
0000
0000
0001
0000
1000
0000
0100
0000
,
0000
0000
0001
1000
0000
0000
0010
0000
0000
0000
0100
0000
0001
1000
0000
0000
,
0100
0000
0010
0000
0001
0100
0000
0010
0000
0010
1000
0000
0100
0000
0010
0001
,
0000
0000
1000
0000
0010
0100
0000
0100
0000
0001
1000
0000
0100
0000
0010
0001
,
0000
0000
1000
0100
0000
1000
0001
0000
0000
0000
0010
0000
0001
0000
0100
0000
,
0000
0000
0001
1000
0000
0001
0100
0000
0000
0000
0010
0000
1000
0001
0000
0000
,
1000
0000
0100
0000
0000
0010
0000
0010
0000
0001
1000
0000
0010
0000
0100
0001
,
0000
0000
0010
0000
0100
1000
0000
1000
0000
0001
0100
0000
0010
0000
1000
0001
,
0000
0000
1000
0010
0000
0100
0001
0000
0000
0000
0010
0000
0100
0000
1001
0000
,
0000
0000
0001
0010
0000
0100
1000
0000
0000
0000
0100
0000
0010
0001
0000
0000
,
1000
0000
0001
0000
1000
0100
0000
1000
0000
0001
0100
0000
0001
0000
1000
0010
,
1000
0000
0001
0000
0100
0010
0000
1000
0000
0001
0010
0000
0100
0000
1000
0001
,
1000
0000
0010
1000
0010
0000
0100
0000
0001
0000
1000
0000
0100
0000
0010
0000
,
0001
0000
0100
0001
1000
0000
0010
0000
1000
0000
0100
0000
0010
0001
0000
0000
,
1000
0000
0001
0000
0100
0010
0000
0010
0000
1000
0100
0000
0110
0000
0001
0010
,
0000
0000
0001
0000
0100
0010
0000
1000
0000
1000
0100
0000
0110
0000
0001
1000
,
0000
0000
0010
1000
0000
1000
0100
0000
1000
0000
0001
0000
0100
0000
0010
0000
,
1000
0000
0100
0010
0000
0010
0100
0000
1000
0000
0001
0000
0100
0010
0000
0000
,
1000
0000
0000
0000
;

//---------------dance-single - ----------------
#NOTEDATA:;
#CHARTNAME:;
#STEPSTYPE:dance-single;
#DESCRIPTION:;
#CHARTSTYLE:;
#DIFFICULTY:Medium;
#METER:5;
#RADARVALUES:0.241775,0.326927,0.214649,0.288951,0.000000,205.000000,179.000000,26.000000,35.000000,0.000000,0.000000,0.000000,0.000000,0.000000,0.241775,0.326927,0.214649,0.288951,0.000000,205.000000,179.000000,26.000000,35.000000,0.000000,0.000000,0.000000,0.000000,0.000000;
#CREDIT:;
#NOTES:
0000
0000
0000
0000
,
0000
0000
0000
0000
,
0000
0000
0000
0000
,
0000
0000
0000
0000
,
0002
0000
0203
0000
,
0320
2030
3200
0000
,
0320
0230
2300
3002
,
0203
0020
0330
1000
,
0100
0000
0010
0001
0100
0000
0001
1000
,
0010
0000
1000
0001
0100
0000
0001
0010
,
0001
0000
1000
0100
1000
0000
0010
1000
,
0100
0000
0010
0000
0001
1000
0001
0000
,
0202
0303
2002
3003
,
2200
0000
0000
3300
,
0220
0330
2002
3003
,
0220
0000
0000
0330
,
2002
3003
0220
0330
,
1010
0011
2002
3003
,
2200
3300
0202
0303
,
2002
0000
3003
0010
,
1000
0000
0100
0000
0100
0000
1000
0001
,
0100
0000
0010
0000
0010
0000
1000
0001
,
0100
0000
1000
0001
0100
0000
1000
0001
,
1000
0000
1000
0001
0100
0000
0010
0000
,
1000
0000
0100
0000
0010
0000
0001
1000
,
0100
0000
0010
0000
0100
0000
0010
0001
,
0100
0000
0001
1000
0100
0000
0001
1000
,
0100
0000
0001
1000
0100
0000
0010
0000
,
1001
0000
1001
0000
1001
0000
0010
0001
,
0100
0000
0010
0000
1000
0100
0010
0000
,
0001
1000
0100
0000
0010
0001
0100
0000
,
0010
1000
0010
0000
1000
0100
0010
0000
,
1001
0000
0100
0000
0010
1000
0001
0100
,
0010
0000
0100
0000
0010
1000
0100
1000
,
0010
0100
0010
0100
,
0001
0010
0100
1000
,
1001
0000
0011
0000
0010
0001
0010
0100
,
1000
0000
0100
0000
1000
0010
1000
0001
,
0100
0000
0010
0000
1000
0001
0100
0000
,
0010
0000
0100
0000
0001
1000
0100
0000
,
1100
0000
0101
0000
1000
0010
0100
0001
,
0101
0000
1001
0000
1000
0010
0100
0001
,
0101
0010
0100
0010
,
0100
1000
0001
0000
0010
0100
1000
0000
,
1001
0000
0000
0000
;

//---------------dance-single - ----------------
#NOTEDATA:;
#CHARTNAME:;
#STEPSTYPE:dance-single;
#DESCRIPTION:;
#CHARTSTYLE:;
#DIFFICULTY:Easy;
#METER:3;
#RADARVALUES:0.162756,0.181626,0.008256,0.222905,0.000000,138.000000,137.000000,1.000000,27.000000,0.000000,0.000000,0.000000,0.000000,0.000000,0.162756,0.181626,0.008256,0.222905,0.000000,138.000000,137.000000,1.000000,27.000000,0.000000,0.000000,0.000000,0.000000,0.000000;
#CREDIT:;
#NOTES:
// measure 0
0000
0000
0000
0000
,  // measure 1
0000
0000
0000
0000
,  // measure 2
0000
0000
0000
0000
,  // measure 3
0000
0000
0000
0000
,  // measure 4
0002
0000
0203
0000
,  // measure 5
0320
2030
3200
0000
,  // measure 6
0320
0230
2300
3002
,  // measure 7
0203
0020
0330
1000
,  // measure 8
0100
0100
0010
0010
,  // measure 9
0001
0100
0010
1000
,  // measure 10
0100
0010
0100
0010
,  // measure 11
0001
2000
0000
0000
,  // measure 12
3100
0000
0010
0000
,  // measure 13
0002
0000
0000
0003
,  // measure 14
0100
0000
0010
0000
,  // measure 15
2000
0000
0000
3000
,  // measure 16
0001
0000
1000
0000
,  // measure 17
0100
0010
0200
0300
,  // measure 18
0010
0000
0001
0000
,  // measure 19
0200
0000
0000
0310
,  // measure 20
2000
0100
3100
1000
,  // measure 21
0002
0100
0103
0001
,  // measure 22
1000
0001
0100
0010
,  // measure 23
1000
0100
0010
0001
,  // measure 24
0200
0010
0310
0100
,  // measure 25
0002
1000
1003
0001
,  // measure 26
0100
0010
1000
0100
,  // measure 27
0010
0001
0100
0010
,  // measure 28
1001
0100
0100
0010
,  // measure 29
2000
0001
0100
3001
,  // measure 30
1000
0010
0100
0001
,  // measure 31
0010
0100
0010
0001
,  // measure 32
0002
0100
1000
0103
,  // measure 33
2000
0010
0001
3010
,  // measure 34
1000
0100
0010
0001
,  // measure 35
0100
0010
1000
0000
,  // measure 36
0002
0010
1000
0103
,  // measure 37
0002
0100
1000
0103
,  // measure 38
0001
0010
0100
1000
,  // measure 39
0010
0100
0010
0100
,  // measure 40
2000
0100
0001
3010
,  // measure 41
2000
0010
0001
3100
,  // measure 42
1000
0001
0100
0010
,  // measure 43
1000
0100
0010
0001
,  // measure 44
1000
0000
0000
0000
;

//---------------dance-single - ----------------
#NOTEDATA:;
#CHARTNAME:;
#STEPSTYPE:dance-single;
#DESCRIPTION:;
#CHARTSTYLE:;
#DIFFICULTY:Beginner;
#METER:1;
#RADARVALUES:0.107325,0.127138,0.008256,0.000000,0.000000,91.000000,90.000000,1.000000,0.000000,0.000000,0.000000,0.000000,0.000000,0.000000,0.107325,0.127138,0.008256,0.000000,0.000000,91.000000,90.000000,1.000000,0.000000,0.000000,0.000000,0.000000,0.000000,0.000000;
#CREDIT:;
#NOTES:
// measure 0
0000
0000
0000
0000
,  // measure 1
0000
0000
0000
0000
,  // measure 2
0000
0000
0000
0000
,  // measure 3
0000
0000
0000
0000
,  // measure 4
0001
0000
1000
0000
,  // measure 5
0010
0000
0100
0000
,  // measure 6
0001
0000
1000
0000
,  // measure 7
0100
0000
0010
0000
,  // measure 8
0001
0001
0001
0000
,  // measure 9
1000
1000
1000
0000
,  // measure 10
0100
0000
0010
0000
,  // measure 11
0001
0000
1000
0000
,  // measure 12
1001
0000
0010
0000
,  // measure 13
0001
0000
0000
0000
,  // measure 14
1000
0000
0100
0000
,  // measure 15
1000
0000
0000
0000
,  // measure 16
0010
0000
0100
0000
,  // measure 17
0010
0010
0010
0000
,  // measure 18
1000
0000
0100
0000
,  // measure 19
0010
0000
0000
0001
,  // measure 20
0001
0000
0000
1000
,  // measure 21
1000
0000
0000
0100
,  // measure 22
0100
0000
0010
0000
,  // measure 23
0100
0000
0010
0000
,  // measure 24
0001
0000
0000
0100
,  // measure 25
0100
0000
0000
0010
,  // measure 26
0010
0000
1000
0000
,  // measure 27
0100
0000
0010
0000
,  // measure 28
0001
0001
0001
0001
,  // measure 29
0001
0000
0100
0000
,  // measure 30
1000
0000
0100
0000
,  // measure 31
1000
0000
0100
0000
,  // measure 32
1000
1000
1000
1000
,  // measure 33
1000
0000
0100
0000
,  // measure 34
0001
0000
0100
0000
,  // measure 35
0001
0000
0100
0000
,  // measure 36
0010
0010
0000
1000
,  // measure 37
1000
0000
0100
0100
,  // measure 38
0000
0010
0000
0100
,  // measure 39
0000
0010
0000
0001
,  // measure 40
0001
0001
0000
1000
,  // measure 41
1000
0000
0010
0010
,  // measure 42
0000
0100
0000
0010
,  // measure 43
0000
1000
0000
0100
,  // measure 44
0100
0000
0000
0000
;
