#VERSION:0.83;
#TITLE:Irresistible;
#SUBTITLE:;
#ARTIST:Fall Out Boy ft. Demi Lovato;
#TITLETRANSLIT:;
#SUBTITLETRANSLIT:;
#ARTISTTRANSLIT:;
#GENRE:American Beauty/American Psycho;
#ORIGIN:;
#CREDIT:;
#BANNER:Irresistible-bn.png;
#BACKGROUND:Black.png;
#PREVIEWVID:Irresistible-preview.avi;
#JACKET:Irresistible-jacket.png;
#CDIMAGE:;
#DISCIMAGE:;
#LYRICSPATH:;
#CDTITLE:;
#MUSIC:Irresistible.mp3;
#OFFSET:-0.000000;
#SAMPLESTART:51.855827;
#SAMPLELENGTH:23.818184;
#SELECTABLE:YES;
#DISPLAYBPM:83.000000:165.000000;
#BPMS:0.000=82.500,
30.000=165.000,
96.000=82.500,
104.000=330.000,
104.500=165.000,
119.000=330.000,
119.500=165.000,
166.000=82.500,
170.000=165.000,
234.000=82.500,
242.000=330.000,
242.500=165.000,
257.000=330.000,
257.500=165.000;
#STOPS:30.000=0.727,
104.000=0.273,
104.500=0.182,
119.000=0.273,
119.500=0.182,
242.000=0.273,
242.500=0.182,
257.000=0.273,
257.500=0.182;
#DELAYS:;
#WARPS:;
#TIMESIGNATURES:0.000=4=4;
#TICKCOUNTS:0.000=2;
#COMBOS:0.000=1;
#SPEEDS:0.000=1.000=0.000=0;
#SCROLLS:0.000=1.000;
#FAKES:;
#LABELS:0.000=Song Start;
#LASTSECONDHINT:136.764923;
#BGCHANGES:0.000=Irresistible-video.avi=1.000=0=0=1=====,
99999=-nosongbg-=1.000=0=0=0 // don't automatically add -songbackground-
;
#KEYSOUNDS:;
#ATTACKS:
;

//---------------dance-single - ----------------
#NOTEDATA:;
#CHARTNAME:;
#STEPSTYPE:dance-single;
#DESCRIPTION:;
#CHARTSTYLE:;
#DIFFICULTY:Challenge;
#METER:9;
#RADARVALUES:0.522879,0.887839,0.432302,0.468327,0.144101,508.000000,448.000000,60.000000,65.000000,0.000000,0.000000,0.000000,0.000000,0.000000,0.522879,0.887839,0.432302,0.468327,0.144101,508.000000,448.000000,60.000000,65.000000,0.000000,0.000000,0.000000,0.000000,0.000000;
#CREDIT:;
#DISPLAYBPM:83.000000:165.000000;
#NOTES:
0000
0000
0000
0000
,
0000
0000
0000
0000
,
0001
0100
0010
0100
0010
0000
0000
0000
0000
0100
0001
0100
0001
0000
0000
0000
,
1000
0010
0100
0010
0100
0000
0000
0000
0000
0001
0010
0100
1000
0000
1000
0010
,
0100
0001
0100
0010
0000
0000
1000
0001
1000
0100
0010
0001
1000
0000
0010
1000
,
0001
0100
0010
1000
0000
0001
0100
0010
0100
0001
1000
0010
0100
0001
1000
0010
,
0100
0010
1000
0001
0000
0011
0000
1001
0000
0001
0100
0001
0000
0000
1000
0010
,
0100
0001
0000
0001
1000
0000
1000
0010
1010
0000
0001
0000
0100
0000
0010
0000
,
1001
0100
0010
1000
0000
0000
0001
0010
,
0100
1000
0100
0010
0001
1000
0100
0010
,
0001
1000
0100
0010
0000
0010
0100
1000
,
0010
1000
0100
0010
0001
1000
0001
0100
,
0010
1000
0001
0100
0010
0000
1000
0100
,
0010
0001
0100
0010
0000
1000
0001
0100
,
0010
1000
0010
0100
0001
0000
1000
0010
,
0100
0001
1000
0010
0000
1010
0000
2002
,
0000
3003
0100
0001
1000
0000
1000
0020
,
0000
0030
0100
0001
1000
0000
0010
2000
,
0000
0000
3001
0000
1100
0000
0010
0002
,
0000
0000
1003
0000
0101
0000
1000
0020
,
0000
0000
1030
0100
0001
0000
0001
0020
,
0000
0000
0031
0100
1000
0000
0010
2000
,
0000
0000
3001
0000
1100
0000
0010
0002
,
0000
1003
0101
1000
,
0020
0000
0000
0100
0130
0000
0001
2000
,
0000
0000
0002
0000
0000
0000
0000
0000
3003
0000
0000
0000
0000
0001
0100
0010
,
1010
1001
2200
0000
3300
0001
0200
0000
,
0300
1000
0200
0000
0310
0000
1000
0000
,
0001
0010
0200
0000
1300
0001
0010
0100
,
0010
0000
0011
0000
1100
0000
0101
1001
,
0022
0000
0033
1000
0200
0000
0300
0001
,
0020
0000
0130
0000
1000
0000
0001
0010
,
0200
0000
1300
0010
0001
0010
1000
0000
,
0101
0000
1010
0000
0001
0100
0010
1000
,
0202
0000
0303
0000
1000
0010
0100
0001
,
2020
0000
3030
0000
0001
0010
0100
1000
,
0011
0000
1100
0000
0110
0001
0100
0000
,
0110
1000
0010
0000
0001
0100
0010
1000
,
0101
0000
1010
0000
0100
0001
1000
0010
,
1100
0000
0011
0000
1000
0010
0100
0001
,
1010
0000
0101
0000
0110
1000
0100
0000
,
0110
0001
2000
0000
0000
0000
3100
0000
,
0000
0000
0000
1000
0010
0100
0001
0000
2002
0000
0000
0000
3003
0000
0000
0000
,
0001
0100
0010
0000
2002
0000
3003
0001
,
0010
0000
0000
0100
0000
0000
1000
0000
0000
0000
0001
0000
0010
0000
0100
0000
,
1000
0000
0010
0000
0100
0000
0001
1000
,
0010
0100
0001
0020
0000
0000
0000
0000
,
0130
0000
1000
0001
0000
0000
0001
1000
,
0010
0100
0001
0010
0000
0100
1000
0001
,
0100
0000
0010
2000
0000
0000
0000
0000
,
3001
0100
0010
0000
0202
0000
0303
0000
,
1010
1000
0100
0000
2200
0000
3300
0000
,
0010
0100
0000
0101
0000
1010
0000
0001
,
1000
0000
0110
0000
2002
0000
3003
0001
,
0010
1000
0010
0002
0000
0000
0000
0000
,
1003
0000
0010
0200
0000
0000
0300
0001
,
0010
0100
1000
0010
0000
1000
0100
0000
,
1100
0011
2002
3003
,
0100
0000
0001
0000
2000
0000
0000
0010
,
3010
0000
0100
0002
0000
2000
0000
0000
,
3003
0000
0000
0000
0000
1000
0100
0010
0011
0000
1100
0000
2002
0000
0000
0000
,
3003
0010
2000
0000
3000
0100
0002
0000
,
1003
0000
0010
1000
0100
0010
0200
0000
,
1300
0010
0001
0010
1000
0010
0100
0000
,
0001
0000
0110
1001
0022
0000
0033
1000
,
0200
0000
0300
0001
0020
0000
0130
1000
,
0020
0000
1030
0100
0002
0000
0003
0001
,
0100
1000
0010
0000
0101
0000
1010
0000
,
0001
0100
0010
1000
2002
0000
3003
0000
,
1000
0010
0100
0001
2002
0000
3003
0000
,
1000
0100
0010
0001
1100
0000
0011
0000
,
1001
0100
0010
0000
1010
0100
0010
0000
,
1000
0100
0001
0100
1000
0010
0001
0010
,
1000
0100
0001
0100
1000
0010
0001
0010
,
1000
0100
0001
0100
1000
0010
0100
0001
,
0010
1000
0010
0001
0100
1000
0100
0001
,
0020
0000
0001
0000
0130
0000
0000
2000
,
0000
0000
3010
0001
0100
0000
1000
0020
,
0000
0000
1000
0000
0130
0000
0001
0020
,
0000
1000
0130
0000
;

//---------------dance-single - ----------------
#NOTEDATA:;
#CHARTNAME:;
#STEPSTYPE:dance-single;
#DESCRIPTION:;
#CHARTSTYLE:;
#DIFFICULTY:Hard;
#METER:8;
#RADARVALUES:0.461122,0.544160,0.475532,0.540377,0.054038,448.000000,382.000000,66.000000,75.000000,0.000000,0.000000,0.000000,0.000000,0.000000,0.461122,0.544160,0.475532,0.540377,0.054038,448.000000,382.000000,66.000000,75.000000,0.000000,0.000000,0.000000,0.000000,0.000000;
#CREDIT:;
#DISPLAYBPM:83.000000:165.000000;
#NOTES:
// measure 0
0000
0000
0000
0000
,  // measure 1
0000
0000
0000
0000
,  // measure 2
0001
1000
0010
0000
1010
0000
0000
0000
0000
0000
0001
0100
0001
0000
0000
0000
,  // measure 3
1000
0010
0100
0000
0101
0000
0000
0000
0000
0001
0010
0100
1000
0000
1000
0000
,  // measure 4
0010
0000
1000
0100
0000
0000
1000
0000
0001
0000
0100
0001
0000
0000
0010
0000
,  // measure 5
0100
0000
1000
0001
0000
0000
1000
0000
0010
0000
1000
0100
0000
0000
0010
0000
,  // measure 6
0001
0000
0100
0001
0000
0000
0010
0000
0100
0000
1000
0001
0000
0000
1000
0000
,  // measure 7
0010
1000
0000
0010
1000
0000
0001
0000
1001
0000
0000
0000
0000
0000
0000
0000
,  // measure 8
0100
0001
1000
0001
0100
0000
0010
0000
,  // measure 9
0010
1000
0001
1000
0100
0000
0010
0000
,  // measure 10
0001
0100
0010
0100
0010
0000
1000
0000
,  // measure 11
0001
0010
0100
1000
0001
0000
1000
0000
,  // measure 12
0100
1000
0001
1000
0100
0000
0010
0000
,  // measure 13
0010
0001
0100
0001
0010
0000
0100
0000
,  // measure 14
0100
1000
0010
0100
0001
0000
0001
0000
,  // measure 15
1000
0010
0100
0001
0000
0001
0000
0022
,  // measure 16
0000
0033
1000
0001
0100
0000
0000
0022
,  // measure 17
0000
0033
1000
0001
0100
0000
0010
2000
,  // measure 18
0000
0000
3001
0000
1100
0000
0010
0002
,  // measure 19
0000
0000
1003
0000
0101
0000
1000
0020
,  // measure 20
0000
0000
1030
0100
0001
0000
0001
0020
,  // measure 21
0000
0000
0031
0100
1000
0000
0010
2000
,  // measure 22
0000
0000
3001
0000
1100
0000
0010
0002
,  // measure 23
0000
1003
0101
1000
,  // measure 24
0020
0000
0000
0100
0130
0000
0001
2000
,  // measure 25
0000
0002
0000
0000
3003
0000
0000
0000
,  // measure 26
1100
1100
0022
0000
0033
0001
0200
0000
,  // measure 27
0300
1000
0200
0000
0300
0000
0010
0000
,  // measure 28
1000
0001
0200
0000
0300
0001
0010
0100
,  // measure 29
0010
0000
1100
0000
0011
0000
0101
0101
,  // measure 30
2020
0000
3030
1000
0200
0000
0300
0001
,  // measure 31
0200
0000
0300
0000
0010
0000
1000
0100
,  // measure 32
0020
0000
0031
0100
0010
1000
0100
0000
,  // measure 33
1100
0000
0011
0000
0001
0100
0010
1000
,  // measure 34
2020
0000
3030
0000
1000
0010
0100
0001
,  // measure 35
0202
0000
0303
0000
0001
0010
0100
1000
,  // measure 36
1100
0011
1001
0101
,  // measure 37
1001
0000
1010
0000
0001
0100
0010
1000
,  // measure 38
2020
0000
3030
0000
0100
0001
0010
0100
,  // measure 39
0220
0000
0330
0000
1000
0010
0100
0001
,  // measure 40
1001
0101
0110
1010
,  // measure 41
0110
0202
0000
0303
,  // measure 42
0000
0000
0000
0000
0010
0100
0010
0000
2002
0000
0000
0000
3003
0000
0000
0000
,  // measure 43
0001
0100
0010
0000
2002
0000
3003
0001
,  // measure 44
0010
0000
0000
0100
0000
0000
1000
0000
0000
0000
0001
0000
0010
0000
0100
0000
,  // measure 45
1000
0000
0010
0000
0100
0000
0001
1000
,  // measure 46
0010
0100
0001
0020
0000
0000
0000
0000
,  // measure 47
0130
0000
1000
0001
0000
0000
0001
1000
,  // measure 48
0010
0100
0001
0010
0000
0100
1000
0001
,  // measure 49
0100
0000
0010
2000
0000
0000
0000
0000
,  // measure 50
3001
0100
0010
0000
0202
0000
0303
0000
,  // measure 51
0010
1000
0100
0000
2200
0000
3300
0000
,  // measure 52
0010
0100
0000
0110
0000
0110
0000
0100
,  // measure 53
0010
0000
0001
0000
2000
0000
3000
0001
,  // measure 54
0100
0010
0100
0002
0000
0000
0000
0000
,  // measure 55
1003
0000
0010
0200
0000
0000
0300
0001
,  // measure 56
0010
0100
1000
0010
0000
1000
0100
0000
,  // measure 57
1100
0011
2002
3003
,  // measure 58
0100
0000
0001
0000
2000
0000
0000
0010
,  // measure 59
3010
0000
0100
0002
0000
2000
0000
0000
,  // measure 60
3003
0000
0000
0000
0110
0110
2002
0000
,  // measure 61
3003
0010
2000
0000
3000
0100
0002
0000
,  // measure 62
0003
0000
0010
0100
1000
0010
2000
0000
,  // measure 63
3000
0001
0010
0100
1000
0000
0001
0000
,  // measure 64
1000
0000
0110
0110
2020
0000
3030
1000
,  // measure 65
0200
0000
0300
0010
0002
0000
0103
0010
,  // measure 66
0200
0000
0310
1000
0002
0000
0003
0010
,  // measure 67
0100
1000
0010
0000
0200
0000
0301
0000
,  // measure 68
1000
0010
0100
0001
0202
0000
0303
0000
,  // measure 69
0001
0010
0100
1000
2200
0000
3300
0000
,  // measure 70
0010
0100
1000
0001
1001
0000
1010
0000
,  // measure 71
1001
1100
0011
1100
,  // measure 72
1000
0100
0010
0100
0220
0000
0330
0000
,  // measure 73
0010
0001
0100
0001
0202
0000
0303
0000
,  // measure 74
0010
1000
0001
0100
0101
0000
0110
0000
,  // measure 75
1001
0110
1010
0011
,  // measure 76
0020
0000
0001
0000
0130
0000
0000
2000
,  // measure 77
0000
0000
3010
0100
0001
0000
1000
0020
,  // measure 78
0000
0000
1000
0000
0130
0000
0001
0020
,  // measure 79
0000
1000
0130
0000
;

//---------------dance-single - ----------------
#NOTEDATA:;
#CHARTNAME:;
#STEPSTYPE:dance-single;
#DESCRIPTION:;
#CHARTSTYLE:;
#DIFFICULTY:Medium;
#METER:6;
#RADARVALUES:0.327314,0.400960,0.216151,0.489942,0.000000,318.000000,288.000000,30.000000,68.000000,0.000000,0.000000,0.000000,0.000000,0.000000,0.327314,0.400960,0.216151,0.489942,0.000000,318.000000,288.000000,30.000000,68.000000,0.000000,0.000000,0.000000,0.000000,0.000000;
#CREDIT:;
#DISPLAYBPM:83.000000:165.000000;
#NOTES:
0000
0000
0000
0000
,
0000
0000
0000
0000
,
0001
0010
0100
0000
0000
1000
1000
0000
,
0010
0100
0001
0000
0000
0010
0010
0000
,
0100
0000
1000
0000
0001
1000
0100
0000
,
0010
0001
0100
0000
0100
0001
1000
0000
,
0010
0000
0100
0000
0010
1000
0100
0000
,
0010
0001
0101
0000
,
1001
0000
0100
0001
,
1000
0010
0100
0010
,
1000
0100
0010
0000
0100
0000
0000
0000
,
1000
0100
0010
0001
,
1000
0001
0100
0000
0010
0000
0000
0000
,
1000
0001
0100
0000
0010
0000
0000
0000
,
1000
0010
0100
0001
,
1000
0010
1000
1000
,
2020
0030
0002
3003
,
0022
0030
1003
0010
,
1000
0001
0202
0303
,
0001
1000
2200
3300
,
0022
0030
2000
3003
,
2020
0030
3001
0010
,
0001
1000
2200
3300
,
1000
0001
0202
0303
,
2002
3003
2020
3030
,
0220
0330
0000
0000
,
0001
0001
0020
0000
0000
0000
1000
0000
,
0000
0031
0000
0100
,
1000
0010
2000
0000
0000
0000
3001
0000
,
0010
0000
0100
0000
1000
0000
0010
0010
,
0200
0000
1000
0000
,
0010
0000
0000
0000
0301
0000
1000
0001
,
0200
0000
0010
0001
,
0010
0000
0310
0000
1000
0010
1000
0010
,
2000
0000
0000
0000
3001
0100
0001
0100
,
0002
0000
0000
0000
1003
0100
1000
0100
,
1000
0001
0100
0010
,
0110
0000
0110
0000
0001
1000
0001
1000
,
0002
0000
0000
0000
0013
0100
0010
0100
,
0020
0000
0000
0000
0130
1000
0100
1000
,
0100
0010
0001
1000
,
1001
2002
0000
3003
,
0000
0001
0202
0303
,
0001
0100
0001
0000
0202
0000
0303
0000
,
1000
0010
0100
0001
,
1000
0010
0100
0001
,
1000
0010
2020
3030
,
1000
0010
1000
0000
2020
0000
3030
0000
,
1000
0100
0001
0100
,
1000
0010
0100
0001
,
1000
0010
0220
0330
,
0010
0100
0010
0000
0220
0000
0330
0000
,
1000
0100
0001
0100
,
1000
0010
2000
0000
,
3001
0010
0200
0000
,
1300
0001
0200
0000
,
0310
1000
0001
0010
,
0100
1000
0001
0010
,
0100
0010
0022
0033
,
2002
3003
0202
0303
,
0000
0000
0000
0000
1000
1000
0020
0000
,
0000
0001
0000
1030
,
0000
0000
0100
0000
0001
0010
0002
0000
,
0000
1003
0010
0100
,
0001
0000
0010
0010
0200
0000
0000
0000
,
0001
0000
0010
0000
,
1300
0000
0001
1000
0200
0000
0000
0000
,
0010
1000
0010
0310
,
0001
0010
0100
0010
0002
0000
0000
0000
,
1003
0100
0010
0100
2000
0000
0000
0000
,
3001
0100
0010
0100
0001
0000
1000
0000
,
0100
0010
0110
0110
,
1000
0001
0100
0001
2000
0000
0000
0000
,
3010
0100
0001
0100
0020
0000
0000
0000
,
0130
0001
1000
0001
0100
0000
0010
0000
,
1000
0001
1001
2002
,
0000
0000
0000
0000
3003
0000
0000
0020
,
0000
0000
1030
0000
0001
0000
0000
0200
,
0000
0000
0310
0000
0100
0000
0000
0020
,
0000
0130
0010
0000
;

//---------------dance-single - ----------------
#NOTEDATA:;
#CHARTNAME:;
#STEPSTYPE:dance-single;
#DESCRIPTION:;
#CHARTSTYLE:;
#DIFFICULTY:Easy;
#METER:4;
#RADARVALUES:0.240854,0.343680,0.194536,0.569197,0.000000,234.000000,207.000000,27.000000,79.000000,0.000000,0.000000,0.000000,0.000000,0.000000,0.240854,0.343680,0.194536,0.569197,0.000000,234.000000,207.000000,27.000000,79.000000,0.000000,0.000000,0.000000,0.000000,0.000000;
#CREDIT:;
#DISPLAYBPM:83.000000:165.000000;
#NOTES:
0000
0000
0000
0000
,
0000
0000
0000
0000
,
0002
0003
2000
3000
,
0200
0300
0020
0030
,
0001
1000
0010
0100
,
0001
0100
1000
1000
,
0100
1000
0010
0100
,
0010
0010
0110
0000
,
0001
0010
1000
0000
,
1000
0100
0010
0100
,
1000
0100
0001
0000
,
0001
0100
0010
0100
,
0010
1000
0001
0000
,
0010
0100
1000
0000
,
0001
0010
0100
0000
,
0010
0001
1000
0000
,
0020
0000
0130
0000
,
0002
0000
1003
0010
,
2000
0000
3100
0000
,
0002
0000
1003
0000
,
0200
0000
0310
0000
,
0002
0000
0103
0010
,
2000
0000
3100
0000
,
0020
0000
0031
1000
,
0002
0003
2000
3000
,
0200
0300
0000
0000
,
0000
2002
3003
0020
,
0030
2000
3000
0000
,
0001
0020
0030
0100
,
1000
0001
0100
0000
,
0220
0330
2002
3003
,
0220
0330
0000
1010
,
2002
3003
1010
1010
,
2002
3003
0000
0001
,
2000
3000
0000
0010
,
0200
0300
0000
0001
,
0010
0100
1000
0000
,
0001
0000
0000
0100
,
0020
0030
0000
1000
,
0200
0300
0000
0001
,
0010
0100
1000
0010
,
0100
0001
2000
3010
,
0000
0000
0202
0303
,
0001
0100
0202
0303
,
0001
0100
0001
0100
,
1000
0100
0001
0001
,
0100
0001
0202
0303
,
0001
1000
0002
0000
,
0103
0001
1000
0001
,
0100
0001
0202
0303
,
1000
0010
2020
3030
,
1000
0010
2020
3030
,
1000
0010
1000
0010
,
0001
0010
1000
1000
,
0010
1000
2020
3030
,
1000
0001
2000
0000
,
3010
1000
0001
1000
,
0010
1000
2020
3030
,
0001
1000
0002
0003
,
0020
0030
0200
0300
,
0000
0000
0000
2002
,
3003
0020
0030
2000
,
3000
0000
0001
0020
,
0030
0100
1000
0001
,
0100
0000
0220
0330
,
2002
3003
0220
0330
,
0000
0101
2002
3003
,
0101
0101
2002
3003
,
0000
0001
2000
3000
,
0000
0010
0200
0300
,
0000
0001
0010
0100
,
1000
0000
0001
0000
,
0000
0100
0020
0030
,
0000
1000
0200
0300
,
0000
0001
0010
0100
,
1000
0010
0100
0002
,
0000
0000
1003
0000
,
0020
0000
0130
0000
,
0002
0000
1003
0000
,
2000
0000
3001
0000
;

//---------------dance-single - ----------------
#NOTEDATA:;
#CHARTNAME:;
#STEPSTYPE:dance-single;
#DESCRIPTION:;
#CHARTSTYLE:;
#DIFFICULTY:Beginner;
#METER:2;
#RADARVALUES:0.159540,0.220474,0.144101,0.403481,0.000000,155.000000,135.000000,20.000000,56.000000,0.000000,0.000000,0.000000,0.000000,0.000000,0.159540,0.220474,0.144101,0.403481,0.000000,155.000000,135.000000,20.000000,56.000000,0.000000,0.000000,0.000000,0.000000,0.000000;
#CREDIT:;
#DISPLAYBPM:83.000000:165.000000;
#NOTES:
0000
0000
0000
0000
,
0000
0000
0000
0000
,
0001
0000
0010
0000
,
0100
0000
1000
0000
,
0010
0010
0010
0000
,
0100
0100
0100
0000
,
0001
0001
0001
0000
,
1000
1000
1000
0000
,
0010
0000
0010
0000
,
0010
0000
0010
0000
,
0100
0000
0100
0000
,
0100
0000
0100
0000
,
0001
0000
0001
0000
,
0001
0000
0001
0000
,
1000
0000
1000
0000
,
1000
0000
1000
0000
,
0010
0000
0001
0000
,
0010
0000
1000
0000
,
0100
0000
0001
0000
,
0100
0000
1000
0000
,
0010
0000
0001
0000
,
0010
0000
1000
0000
,
0100
0000
0001
0000
,
0100
0000
1000
0000
,
0010
0000
0100
0000
,
0001
0000
0000
0000
,
0000
0020
0030
0010
,
0000
0010
0000
0000
,
0100
0100
0000
0100
,
0000
0100
0000
0000
,
2000
3000
1000
0000
,
1000
0000
0000
0001
,
0001
0000
0001
0000
,
0001
0000
0000
0000
,
2002
3003
0000
0000
,
0220
0330
0000
0000
,
2002
3003
0220
0330
,
2002
3003
0000
0000
,
2002
3003
0000
0000
,
0220
0330
0000
0000
,
2002
3003
0220
0330
,
2002
3003
0000
0000
,
0000
0000
0020
0030
,
0010
0000
2000
3000
,
1000
0000
0200
0300
,
0100
0000
0002
0003
,
0001
0000
2000
3000
,
1000
0000
0200
0300
,
0100
0000
0020
0030
,
0010
0000
0002
0003
,
0001
0000
0200
0300
,
0100
0000
2000
3000
,
1000
0000
0001
0000
,
0010
0000
0100
0000
,
1000
0000
0002
0003
,
0001
0000
0020
0030
,
0010
0000
0100
0000
,
1000
0000
0001
0000
,
0010
0000
0100
0000
,
1000
0000
0001
0000
,
0000
0000
0000
0020
,
0030
0010
0000
0100
,
0000
0000
1000
1000
,
0000
0001
0000
0100
,
0000
0000
0020
0030
,
0010
0000
0100
0000
,
1000
1000
1000
0000
,
0001
0000
0010
0000
,
0000
0000
2002
3003
,
0000
0000
0220
0330
,
0000
0000
2002
3003
,
0220
0330
2002
3003
,
0000
0000
2002
3003
,
0000
0000
0220
0330
,
0000
0000
2002
3003
,
0220
0330
2002
0000
,
0000
0000
3003
0000
;
