#TITLE:In The Dark;
#SUBTITLE:;
#ARTIST:Dev feat. The Cataracs;
#TITLETRANSLIT:;
#SUBTITLETRANSLIT:;
#ARTISTTRANSLIT:;
#GENRE:The Night the Sun Came Up;
#CREDIT:;
#BANNER:In The Dark-bn.png;
#BACKGROUND:Black.png;
#LYRICSPATH:;
#CDTITLE:;
#MUSIC:In The Dark.mp3;
#OFFSET:-0.339000;
#SAMPLESTART:121.238998;
#SAMPLELENGTH:15.360000;
#LASTBEATHINT:296.000000;
#SELECTABLE:YES;
#DISPLAYBPM:125.000000;
#BPMS:0.000000=124.999992
;
#STOPS:
;
#BGCHANGES:-0.500=In The Dark-vid.avi=1.000=0=0=0=StretchNoLoop====,
99999=-nosongbg-=1.000=0=0=0 // don't automatically add -songbackground-
;
#KEYSOUNDS:;
#ATTACKS:;

//---------------dance-single - Blank----------------
#NOTES:
     dance-single:
     :
     Hard:
     8:
     0.433284,0.561550,0.261346,0.089408,0.247591,441.000000,403.000000,38.000000,13.000000,0.000000,0.000000,0.433284,0.561550,0.261346,0.089408,0.247591,441.000000,403.000000,38.000000,13.000000,0.000000,0.000000:
// measure 0
0000
0000
0000
0000
,  // measure 1
0000
0000
0000
0000
,  // measure 2
0000
0000
0000
0000
,  // measure 3
0000
0000
0000
0000
,  // measure 4
1000
1000
0010
0010
,  // measure 5
0100
0100
0001
0001
,  // measure 6
1000
1000
0010
0010
,  // measure 7
0100
0100
0001
0001
,  // measure 8
1000
1100
0001
0101
,  // measure 9
0010
1000
0100
0001
,  // measure 10
0010
0011
1000
1010
,  // measure 11
0001
0100
1000
0010
,  // measure 12
0100
0101
0010
1010
,  // measure 13
1000
0100
0001
0010
,  // measure 14
1100
0000
0101
0000
1100
0101
0000
1100
,  // measure 15
0000
0001
1000
0001
1000
0000
1000
0000
,  // measure 16
1000
1000
1000
1000
,  // measure 17
1000
0000
0000
0000
1000
0000
0000
0000
1000
0000
0000
1000
0000
0000
1000
0000
,  // measure 18
0010
0000
1000
0000
0001
0000
0100
0000
0010
0000
0100
0001
0000
0100
0001
0000
,  // measure 19
0010
0000
0100
0000
1000
0000
0001
0000
0010
0000
0100
0010
0000
0000
0100
0000
,  // measure 20
1000
0000
0010
0000
1000
0000
0100
0000
0010
0000
0001
0010
0000
0001
0010
0000
,  // measure 21
0001
0000
0100
0000
0010
0000
1000
0000
0001
0000
0000
1000
0010
1000
0010
0000
,  // measure 22
1000
0000
0010
0000
0100
0000
0001
0000
1000
0000
0001
0100
0000
0001
1000
0000
,  // measure 23
0010
0000
0100
0000
0001
0000
0010
0000
0100
0000
1000
0100
0000
0010
0001
0000
,  // measure 24
1000
0000
0010
0000
0100
0000
0001
0000
1000
0000
0001
0010
0000
0001
1000
0000
,  // measure 25
0100
0000
0010
0000
0001
0000
1000
0000
0010
0000
0000
1000
0100
1000
0100
0000
,  // measure 26
0010
0000
0001
0000
0200
0000
0000
0000
0301
0000
0000
1000
0000
0000
0010
0000
,  // measure 27
1000
0100
0001
0100
1000
0100
0001
0100
,  // measure 28
0010
0000
0001
0000
0200
0000
0000
0000
0310
0000
0100
0010
0000
0100
0010
0000
,  // measure 29
1000
0100
0010
0001
1000
0001
0100
0010
,  // measure 30
2010
0000
3001
0000
0012
0000
1003
0001
,  // measure 31
0100
0010
1000
0100
2100
0000
3001
0000
,  // measure 32
0010
0000
0001
0100
0010
1000
0100
0010
,  // measure 33
0000
0000
0011
0000
0000
1010
0000
0000
0011
0000
1000
0010
0000
0100
0001
0100
,  // measure 34
0000
0000
0101
0000
0000
1100
0000
0000
0101
0000
0100
0001
0000
0000
0000
0000
,  // measure 35
0110
0000
0110
0000
0010
1000
0000
0010
0100
0000
0010
1000
0000
0000
0000
0000
,  // measure 36
1100
0000
1100
0000
0100
0010
0000
0100
1000
0000
0100
0010
0000
0001
0010
0001
,  // measure 37
0000
0000
0101
0000
0000
1100
0000
0000
0101
0000
1000
0100
0000
0000
0000
0000
,  // measure 38
0020
0000
0031
0100
0020
0000
1030
0000
,  // measure 39
0001
1000
0020
0000
0130
0000
1001
0000
,  // measure 40
0010
0000
1000
0100
0010
0001
0010
0100
,  // measure 41
1000
0001
2000
0000
3010
0000
0100
0000
,  // measure 42
0004
0000
0013
0100
1000
0000
0001
0000
,  // measure 43
0100
0010
0200
0000
0301
0000
1001
0000
,  // measure 44
0101
0000
1100
0000
0101
1100
0000
0101
,  // measure 45
0000
1000
0001
1000
0004
0000
0000
0000
,  // measure 46
0000
0000
0000
0000
,  // measure 47
0000
0000
0000
0000
0000
0000
0013
0000
0100
0000
0000
1000
0000
0000
0000
0000
,  // measure 48
0010
0000
0000
0000
0010
0000
0100
0000
0001
0000
0000
0100
0000
0000
0000
0000
,  // measure 49
0001
0000
0000
0000
0010
0000
0100
0000
1000
0000
0000
0001
0000
0000
0000
0000
,  // measure 50
1000
0000
0000
0000
0010
0000
0100
0000
0001
0000
0000
1000
0000
0000
0000
0000
,  // measure 51
0010
0000
1000
0001
1000
0001
0000
0000
,  // measure 52
1000
0010
0210
0000
1000
0000
0010
0000
,  // measure 53
0301
0000
0000
0000
1000
0000
0001
0000
0100
0000
0000
0010
0000
0000
2010
0000
,  // measure 54
0000
0001
3010
1000
2010
0000
3001
0000
,  // measure 55
0010
0000
0001
0010
0000
0000
0010
0100
0000
0000
0100
1000
0000
0000
1000
0100
,  // measure 56
0000
0000
0100
0010
0000
0000
0010
0001
0000
0000
0001
1000
0000
0000
1000
0010
,  // measure 57
0000
0000
0010
0100
0000
0000
0100
0001
0000
0000
0001
1000
0000
0000
1000
0001
,  // measure 58
0000
0000
0001
0010
0000
0000
0010
0100
0000
0000
0100
1000
0000
0000
1000
0010
,  // measure 59
0000
0000
0000
0000
,  // measure 60
0000
0000
0000
0000
,  // measure 61
0000
0000
0000
0000
,  // measure 62
0000
0000
0000
0000
,  // measure 63
1001
0000
1000
0000
0100
0000
0010
0000
0001
0000
1000
0010
0000
0100
0010
0000
,  // measure 64
1000
0000
0001
0000
0100
0000
0010
0000
0100
0000
0001
1000
0000
0001
0010
0000
,  // measure 65
0100
0000
0010
0000
0001
0000
1000
0000
0100
0000
0010
0100
0000
1000
0100
0000
,  // measure 66
1000
0000
0010
0000
0100
0000
0001
0000
1000
0000
0001
0100
0001
0100
0001
0000
,  // measure 67
0100
0000
0010
0000
1000
0000
0001
0000
0100
0000
0010
0100
0000
0001
0100
0000
,  // measure 68
0010
0000
1000
0000
0100
0000
0010
0000
0001
0000
0010
0100
0000
0010
0100
0000
,  // measure 69
1000
0000
0001
0000
0100
0000
0010
0000
1000
0000
0010
1000
0000
0010
1000
0000
,  // measure 70
0100
0000
0010
0000
0001
0000
1000
0000
0001
0000
0100
0010
0100
0010
0100
0000
,  // measure 71
0010
0000
0000
0000
;

//---------------dance-single - Blank----------------
#NOTES:
     dance-single:
     :
     Medium:
     6:
     0.280014,0.341813,0.096285,0.027510,0.044704,285.000000,271.000000,14.000000,4.000000,0.000000,0.000000,0.280014,0.341813,0.096285,0.027510,0.044704,285.000000,271.000000,14.000000,4.000000,0.000000,0.000000:
0000
0000
0000
0000
,
0000
0000
0000
0000
,
0000
0000
0000
0000
,
0000
0000
0000
0000
,
1000
1000
0010
0010
,
0100
0100
0001
0001
,
1000
1000
0010
0010
,
0100
0100
0001
0001
,
1000
0100
0010
0100
,
0001
0100
0010
0100
,
1000
0010
0100
0010
,
0001
0010
0100
0010
,
1000
0001
0100
0010
,
0100
0001
1000
0010
,
0100
0000
0100
0000
0100
0001
0000
1000
,
0000
0001
1000
0001
1000
0000
1000
0000
,
1000
1000
1000
1000
,
1000
0000
0000
0000
1000
0000
0000
0000
1000
0000
0000
1000
0000
0000
1000
0000
,
0010
0000
0000
0000
0100
0000
0000
0000
0001
0000
0000
0100
0000
0000
0001
0000
,
0100
0000
0000
0000
0010
0000
0000
0000
1000
0000
0000
0001
0000
0000
1000
0000
,
0001
0000
0000
0000
0010
0000
0000
0000
0100
0000
0000
1000
0000
0000
0100
0000
,
1000
0000
0010
0000
1000
0100
0010
0001
,
1000
0000
0000
0000
0001
0000
0000
0000
0100
0000
0000
0010
0000
0000
0100
0000
,
0001
0000
0000
0000
0010
0000
0000
0000
0100
0000
0000
1000
0000
0000
0010
0000
,
1000
0000
0000
0000
0100
0000
0000
0000
0010
0000
0000
0001
0000
0000
0100
0000
,
0010
0000
1000
0000
0001
0100
0010
1000
,
0001
0010
0100
0110
,
0100
1000
0001
0000
1000
0001
0100
0000
,
0010
0100
0002
0000
1003
0000
0001
0000
,
0010
0100
1000
0000
0100
0010
0001
0000
,
0110
0100
0110
0100
,
0010
0001
0100
0000
0101
0000
0100
0000
,
0010
1000
0100
0010
,
0001
0000
1000
0000
0010
0100
1001
0000
,
0100
0010
0000
0010
0000
1000
0000
0101
,
0000
0100
0000
0001
0000
0010
0000
1100
,
0000
0100
0000
0010
0000
0100
0000
1001
,
0000
1000
0000
0010
0200
0000
0000
0000
,
0301
0001
0010
0010
,
0100
1000
0100
0001
,
1000
1000
0010
0010
,
0100
1000
0001
0100
,
0010
0010
0001
0001
,
1000
0100
0010
0100
,
0001
0000
1000
0000
0010
1000
0000
0001
,
0000
1000
0001
1000
0001
0000
0000
0000
,
0000
0000
0000
0000
,
0000
0000
0010
0100
,
1000
0000
0010
0100
,
0001
0000
1000
0001
,
0100
0000
0010
1000
,
0100
0010
0100
0000
,
0010
0001
2002
0000
,
3003
0000
0001
1000
,
0010
0000
0100
0010
,
1000
0110
0001
0110
,
0010
0100
0001
1000
,
0010
1001
0100
1001
,
0010
0100
0001
1000
,
0001
0000
0000
0000
,
0000
0000
0000
0000
,
0000
0000
0000
0000
,
0000
0000
0000
0000
,
1001
0000
0000
0000
0010
0000
0000
0000
1000
0000
0000
0100
0000
0000
0010
0000
,
0100
0000
0000
0000
0010
0000
0000
0000
0001
0000
0000
0100
0000
0000
0001
0000
,
1000
0000
0000
0000
0010
0000
0000
0000
1000
0000
0000
0100
0000
0000
0010
0000
,
0100
0000
1000
0000
0001
1000
0010
0100
,
0001
0000
0000
0000
1000
0000
0000
0000
0100
0000
0000
0010
0000
0000
0100
0000
,
1000
0000
0000
0000
0001
0000
0000
0000
0100
0000
0000
0010
0000
0000
0100
0000
,
0001
0000
0000
0000
0010
0000
0000
0000
0100
0000
0000
1000
0000
0000
0001
0000
,
1000
0000
0010
0000
0100
0010
1000
0001
,
0100
0000
0000
0000
;

//---------------dance-single - Blank----------------
#NOTES:
     dance-single:
     :
     Easy:
     4:
     0.224011,0.244152,0.055020,0.048143,0.000000,228.000000,220.000000,8.000000,7.000000,0.000000,0.000000,0.224011,0.244152,0.055020,0.048143,0.000000,228.000000,220.000000,8.000000,7.000000,0.000000,0.000000:
0000
0000
0000
0000
,
0000
0000
0000
0000
,
0000
0000
0000
0000
,
0000
0000
0000
0000
,
1000
1000
0010
0010
,
0100
0100
0001
0001
,
1000
1000
0010
0010
,
0100
0100
0001
0001
,
1000
0100
1000
0100
,
0010
0001
0010
0001
,
1000
0001
1000
0001
,
0100
0010
0100
0010
,
1000
0100
0010
0001
,
1000
0001
0100
0010
,
0100
0000
0100
0000
0100
0100
0000
0100
,
0000
0000
0010
0000
,
0010
0000
0010
0000
,
0010
0000
0010
0000
,
1001
1000
0100
1000
,
0001
0100
0001
1000
,
0100
1000
0001
0100
,
0001
1000
0010
1000
,
0100
0010
0001
1000
,
0001
0010
0001
1000
,
0100
1000
0010
1000
,
0001
0100
0001
0010
,
0100
0200
0300
1000
,
0001
0100
0010
0100
,
0001
2000
3000
0001
,
0010
0100
1000
0010
,
0200
0310
0200
0310
,
1000
0001
0200
0310
,
0000
0000
1000
0001
,
0100
0000
0000
0000
,
0101
1000
0100
0000
,
1100
0001
0100
0000
,
0101
1000
0100
0000
,
1100
0001
0100
0000
,
0010
0010
0100
0100
,
0001
0001
1000
1000
,
0010
0010
0100
0100
,
0001
0001
1000
1000
,
0010
0010
1000
1000
,
0100
0100
0010
0010
,
0100
0000
0100
0000
0100
0100
0000
0100
,
0000
0000
0000
0000
,
0000
0000
0000
0000
,
0000
0000
0010
0100
,
1000
0000
0010
0100
,
0001
0000
1000
0001
,
0100
0000
0010
1000
,
0100
0010
0100
0000
,
0010
0001
2002
0000
,
3003
0000
0001
1000
,
0010
0000
0100
0010
,
1000
1000
0001
0001
,
0010
0010
0100
0100
,
0010
0100
0010
1001
,
1000
0001
1000
0001
,
1000
0000
0000
0000
,
0000
0000
0000
0000
,
0000
0000
0000
0000
,
0000
0000
0000
0000
,
1001
1000
0100
1000
,
0001
0100
0001
1000
,
0010
1000
0001
0010
,
0001
0100
0010
0100
,
0001
1000
0001
0010
,
0100
0010
0100
1000
,
0100
1000
0001
1000
,
0100
0001
0100
1000
,
0010
0000
0000
0000
;

//---------------dance-single - Blank----------------
#NOTES:
     dance-single:
     :
     Beginner:
     1:
     0.110041,0.195322,0.041265,0.013755,0.000000,112.000000,106.000000,6.000000,2.000000,0.000000,0.000000,0.110041,0.195322,0.041265,0.013755,0.000000,112.000000,106.000000,6.000000,2.000000,0.000000,0.000000:
0000
0000
0000
0000
,
0000
0000
0000
0000
,
0000
0000
0000
0000
,
0000
0000
0000
0000
,
1000
0000
0010
0000
,
0100
0000
0001
0000
,
1000
0000
0010
0000
,
0100
0000
0001
0000
,
1000
0000
0100
0000
,
0001
0000
0100
0000
,
1000
0000
0100
0000
,
0001
0000
0100
0000
,
1000
0000
0010
0000
,
0001
0000
0010
0000
,
1000
0000
1000
0000
,
0000
0000
0000
0000
,
0000
0000
0000
0000
,
0000
0000
0000
0000
,
1001
0000
0100
0000
,
0001
0000
0100
0000
,
1000
0000
0100
0000
,
0001
0000
0100
0000
,
0010
0000
1000
0000
,
0100
0000
0010
0000
,
0001
0000
0100
0000
,
0010
0000
1000
0000
,
0002
0000
0003
0000
,
0010
0000
0100
0000
,
2000
0000
3000
0000
,
0010
0000
0100
0000
,
0001
0000
1000
0000
,
0001
0000
1000
0000
,
0010
0000
0100
0000
,
0001
0000
0000
0000
,
0010
0000
1001
0000
,
0100
0000
1001
0000
,
0100
0000
1001
0000
,
0010
0000
1001
0000
,
0001
0000
0100
0000
,
0010
0000
1000
0000
,
0001
0000
0100
0000
,
0010
0000
1000
0000
,
1000
0000
0010
0000
,
0100
0000
0001
0000
,
1000
0000
1000
0000
,
0000
0000
0000
0000
,
0000
0000
0000
0000
,
0000
0000
0010
0000
,
0000
0000
0100
0000
,
0000
0000
0001
0000
,
0000
0000
1000
0000
,
0000
0001
0001
0000
,
0010
0010
0000
0000
,
0000
0000
0100
0000
,
0000
0000
1000
0000
,
0000
0010
0010
0000
,
0100
0100
0000
0000
,
0000
0000
0001
0000
,
0000
0000
1000
0000
,
0000
0000
0000
0000
,
0000
0000
0000
0000
,
0000
0000
0000
0000
,
0000
0000
0000
0000
,
1001
0000
0100
0000
,
0010
0000
1000
0000
,
0100
0000
0010
0000
,
0001
0000
1000
0000
,
0010
0000
0100
0000
,
0001
0000
1000
0000
,
0100
0000
0010
0000
,
0100
0000
1000
0000
,
0001
0000
0000
0000
;
