#VERSION:0.83;
#TITLE:In The Blood;
#SUBTITLE:;
#ARTIST:Darren Korb feat. Ashley Barrett;
#TITLETRANSLIT:;
#SUBTITLETRANSLIT:;
#ARTISTTRANSLIT:;
#GENRE:Hades;
#ORIGIN:;
#CREDIT:;
#BANNER:In The Blood-bn.png;
#BACKGROUND:In The Blood-bg.png;
#PREVIEWVID:;
#JACKET:In The Blood-jacket.png;
#CDIMAGE:;
#DISCIMAGE:;
#LYRICSPATH:;
#CDTITLE:;
#MUSIC:In The Blood.mp3;
#OFFSET:-1.542006;
#SAMPLESTART:53.380573;
#SAMPLELENGTH:12.077919;
#SELECTABLE:YES;
#BPMS:0.000=154.000;
#STOPS:;
#DELAYS:;
#WARPS:;
#TIMESIGNATURES:0.000=4=4;
#TICKCOUNTS:0.000=2;
#COMBOS:0.000=1;
#SPEEDS:0.000=1.000=0.000=0;
#SCROLLS:0.000=1.000;
#FAKES:;
#LABELS:0.000=Song Start;
#LASTSECONDHINT:120.023949;
#BGCHANGES:;
#KEYSOUNDS:;
#ATTACKS:
;

//---------------dance-single - ----------------
#NOTEDATA:;
#CHARTNAME:;
#STEPSTYPE:dance-single;
#DESCRIPTION:;
#CHARTSTYLE:;
#DIFFICULTY:Hard;
#METER:7;
#RADARVALUES:0.519038,0.544990,0.646460,0.106379,0.000000,444.000000,365.000000,79.000000,13.000000,0.000000,0.000000,0.000000,0.000000,0.000000,0.519038,0.544990,0.646460,0.106379,0.000000,444.000000,365.000000,79.000000,13.000000,0.000000,0.000000,0.000000,0.000000,0.000000;
#CREDIT:;
#NOTES:
0000
0000
0000
0000
,
0000
0000
0000
0000
,
0000
0000
0000
0000
,
0000
0000
0000
0000
,
0101
0100
0101
0100
,
0101
0100
0101
0100
,
1010
0010
1010
0100
,
1100
0100
1100
0001
,
1001
0001
1001
0001
,
1000
0001
1000
0001
1000
0001
1000
0001
,
1000
0010
0110
0010
,
0001
0100
0110
1000
,
0001
1000
0110
0010
,
1000
0001
1001
0010
,
0100
0010
1001
0100
,
0010
0100
1001
0100
,
0001
0010
0100
0000
0110
0000
1000
0100
,
0010
0000
0100
0000
0110
0100
0010
0000
,
0001
0000
1000
0001
0100
0000
0001
0000
,
1000
0010
1001
0100
,
0010
1000
0100
0000
1100
0000
0100
0001
,
0100
1000
1100
0001
,
1000
0010
0100
0000
0110
0000
0001
0100
,
0001
1000
0101
1000
,
0010
0100
1001
0100
,
0010
0100
1001
0100
,
0001
0010
1000
0000
0110
0000
1000
0100
,
0001
0000
0100
0000
0110
0100
0010
0000
,
0001
0100
0010
0000
1010
0000
0001
0100
,
0010
0100
0101
0101
,
2001
3100
1002
0103
,
2001
3010
1002
1003
,
0210
0310
0120
1030
,
0210
0000
0301
0000
1000
0010
0001
0010
,
1000
1000
0101
0101
,
0010
0010
1100
1100
,
0100
0100
1001
1001
,
0010
0000
0100
0001
0010
0100
1000
0010
,
0100
0010
1001
0100
,
0010
0000
0100
0000
1001
0000
0100
0001
,
0010
0100
1000
0000
1001
0000
0100
0000
,
0001
0000
1000
0000
0010
0010
0100
0100
,
0101
0100
1001
0100
,
1100
0100
1001
0100
,
0001
0100
1000
0000
1000
0100
0001
0000
,
1001
0010
0110
1001
,
0010
0001
0100
0000
1000
0100
1000
0000
,
0010
1000
0100
0000
0001
0100
0001
0000
,
1010
0110
1001
0110
,
0100
0001
1000
1000
0100
1000
0001
0100
,
0100
0010
2010
3001
,
0012
0103
0201
1300
,
2001
3100
1200
0310
,
0001
0100
0010
1000
1100
0000
1001
0000
,
0100
0001
1000
0000
0010
0001
0100
0000
,
1000
0100
1000
0010
0100
0000
0010
1000
,
0100
1000
0010
0000
0100
0000
0001
0000
,
2000
0000
3100
0000
0001
1000
0100
0010
,
0001
0001
0101
0101
,
1001
1001
1100
1100
,
0110
0110
0011
0011
,
1001
0000
0010
0001
0100
1000
0110
0000
,
1001
0000
0010
1000
0100
0000
0010
0001
,
0010
0000
1000
0100
0001
1000
0010
0001
,
0100
0010
0100
0000
0101
0000
1000
0000
,
0010
0100
0001
0010
0100
1000
0001
0100
,
0010
1000
0010
1000
0100
0001
0100
0001
,
1000
0100
1000
0100
0001
0010
0001
0010
,
0100
1000
0100
1000
0010
0100
0010
0100
,
0001
0010
0100
1000
0001
0000
1001
0000
,
0100
1000
0100
0000
0100
0001
0100
0000
,
0010
1000
0010
0000
0010
0001
0010
0000
,
0100
0001
0010
0001
0010
1000
0001
0100
,
1000
0100
1000
0010
1000
0010
0001
0010
,
0100
0000
0000
0000
;

//---------------dance-single - ----------------
#NOTEDATA:;
#CHARTNAME:;
#STEPSTYPE:dance-single;
#DESCRIPTION:;
#CHARTSTYLE:;
#DIFFICULTY:Medium;
#METER:5;
#RADARVALUES:0.372913,0.423881,0.433701,0.351871,0.000000,319.000000,266.000000,53.000000,43.000000,0.000000,0.000000,0.000000,0.000000,0.000000,0.372913,0.423881,0.433701,0.351871,0.000000,319.000000,266.000000,53.000000,43.000000,0.000000,0.000000,0.000000,0.000000,0.000000;
#CREDIT:;
#NOTES:
0000
0000
0000
0000
,
0000
0000
0000
0000
,
0000
0000
0000
0000
,
0000
0000
0000
0000
,
1001
1000
0001
1000
,
0010
1000
0001
1000
,
0101
0100
0010
0110
,
0010
1000
0100
1001
,
0000
0100
0010
0100
,
0010
0001
0100
0000
,
1002
0000
0103
0000
,
2001
0000
3010
0000
,
1001
1000
0010
0220
,
0330
0100
0001
0011
,
0000
1000
0010
0100
,
0001
0010
0100
1000
,
0101
1000
0001
2200
,
3300
0000
1001
2002
,
3003
0010
1000
0100
,
0010
0001
0100
0010
,
0110
0001
0100
0010
,
1000
0100
0010
0001
,
1001
1000
0010
2020
,
3030
0001
1000
2002
,
3003
0100
0010
0100
,
0001
0010
0100
1000
,
2200
3300
0010
0220
,
0330
0001
1000
2002
,
3003
0001
0010
0100
,
1000
0000
0010
0000
0100
0010
0100
0000
,
1001
0010
0100
0001
,
0010
0100
0110
0110
,
2000
0000
3002
0000
,
0203
0000
0000
0000
0320
0000
0030
1000
,
0001
0010
0001
1000
,
0010
0100
1001
0100
,
0010
1000
0100
0010
,
0100
0000
1000
0000
1001
0000
0010
0100
,
0010
1000
0001
0010
,
0100
0000
1000
0000
0001
0000
0100
0010
,
0100
0010
1000
0100
,
0010
0000
0001
0000
1001
0000
0100
0001
,
0100
0010
1001
0010
,
0100
0010
1001
0010
,
0001
0100
0010
2002
,
3003
0010
1000
2200
,
3300
0001
0010
0100
,
1000
0000
0001
0000
0100
0010
0100
0000
,
0010
1000
0100
0010
,
0100
1000
0001
0010
,
0220
0330
2002
3003
,
2020
3030
2002
3003
,
0022
0033
2002
3003
,
2020
0000
3030
0000
0110
0000
0100
0010
,
0100
0001
0010
0100
,
1000
0000
0010
0000
1000
0000
0001
0010
,
0100
1000
0001
0100
,
0010
1000
0010
0000
0100
0001
1000
0010
,
0200
0300
0110
0100
,
1001
0100
1001
0100
,
0110
0010
0110
0100
,
1001
0100
1001
0100
,
0110
0001
0010
0001
,
0110
1000
0100
1000
,
0001
0010
0100
0000
1000
0010
0100
0000
,
0001
0000
1000
0000
0100
0000
0010
0100
,
0010
0001
1001
0100
,
0010
0100
1001
0100
,
0010
1000
1100
0100
,
0010
0001
0011
2002
,
3003
1001
0010
0100
,
0001
0000
0010
0000
0100
1000
0100
0000
,
0010
0000
0001
0000
1000
0001
1000
0000
,
0010
0100
0001
1000
,
0100
0000
0000
0000
;

//---------------dance-single - ----------------
#NOTEDATA:;
#CHARTNAME:;
#STEPSTYPE:dance-single;
#DESCRIPTION:;
#CHARTSTYLE:;
#DIFFICULTY:Easy;
#METER:3;
#RADARVALUES:0.226787,0.272495,0.163661,0.294589,0.000000,194.000000,174.000000,20.000000,36.000000,0.000000,0.000000,0.000000,0.000000,0.000000,0.226787,0.272495,0.163661,0.294589,0.000000,194.000000,174.000000,20.000000,36.000000,0.000000,0.000000,0.000000,0.000000,0.000000;
#CREDIT:;
#NOTES:
// measure 0
0000
0000
0000
0000
,  // measure 1
0000
0000
0000
0000
,  // measure 2
0000
0000
0000
0000
,  // measure 3
0000
0000
0000
0000
,  // measure 4
1000
0000
0100
0000
,  // measure 5
0001
0000
1000
0000
,  // measure 6
0100
0000
0010
0000
,  // measure 7
0100
0000
1000
0000
,  // measure 8
0001
0010
0001
0000
,  // measure 9
1000
0010
1000
0000
,  // measure 10
1001
0000
0010
0000
,  // measure 11
1000
0100
0001
0000
,  // measure 12
0010
0100
0010
0001
,  // measure 13
0000
1000
0001
1000
,  // measure 14
0000
0010
1000
0010
,  // measure 15
0000
0100
0010
0000
,  // measure 16
1000
0100
0010
0001
,  // measure 17
0000
0000
1001
1001
,  // measure 18
0000
0010
1000
0100
,  // measure 19
0010
0000
0010
0000
,  // measure 20
1001
0000
0010
0000
,  // measure 21
0001
0100
1000
0000
,  // measure 22
0010
0100
0010
1000
,  // measure 23
0000
0001
1000
0001
,  // measure 24
0000
0010
0001
0010
,  // measure 25
0000
0100
0010
0000
,  // measure 26
0001
0100
0010
1000
,  // measure 27
0000
0000
1001
1001
,  // measure 28
0000
0010
0001
0100
,  // measure 29
0010
0000
0010
0000
,  // measure 30
1001
0000
0010
0000
,  // measure 31
1000
0100
0001
0100
,  // measure 32
0000
0000
0010
0000
,  // measure 33
1000
0100
0010
0000
,  // measure 34
2002
0000
0000
0000
,  // measure 35
0000
0000
3003
0000
,  // measure 36
0010
0000
0001
0000
,  // measure 37
1000
0001
0100
0010
,  // measure 38
0220
0000
0000
0000
,  // measure 39
0000
0000
0330
0000
,  // measure 40
1000
0000
0100
0000
,  // measure 41
0010
0001
1000
0100
,  // measure 42
2002
0000
0000
0000
,  // measure 43
3003
0000
0010
0010
,  // measure 44
0100
0001
0010
0000
,  // measure 45
0100
1000
0001
0200
,  // measure 46
0300
0100
0010
0000
,  // measure 47
1000
0001
0010
0000
,  // measure 48
0100
0000
0010
0000
,  // measure 49
0001
0100
0010
1000
,  // measure 50
2002
0000
0000
0000
,  // measure 51
3003
0000
0020
0030
,  // measure 52
2000
3000
0002
0003
,  // measure 53
0010
0100
0010
2002
,  // measure 54
0000
3003
0010
0000
,  // measure 55
0001
0000
1000
0001
,  // measure 56
0100
0000
0010
0000
,  // measure 57
1000
0100
0010
0001
,  // measure 58
2002
3003
0020
0030
,  // measure 59
0002
0003
0020
0030
,  // measure 60
2000
3000
0002
0003
,  // measure 61
0200
0300
0010
0220
,  // measure 62
0000
0330
0001
0000
,  // measure 63
0010
0100
0010
0000
,  // measure 64
0001
1000
0100
0000
,  // measure 65
1000
0001
0100
0000
,  // measure 66
0202
0303
2002
3003
,  // measure 67
2200
3300
2002
3003
,  // measure 68
0010
0000
0001
0000
,  // measure 69
1000
0001
0100
0220
,  // measure 70
0000
0330
2002
3003
,  // measure 71
0010
1000
0100
0000
,  // measure 72
0010
0001
1000
0000
,  // measure 73
0010
0100
0001
1000
,  // measure 74
0100
0000
0000
0000
;

//---------------dance-single - ----------------
#NOTEDATA:;
#CHARTNAME:;
#STEPSTYPE:dance-single;
#DESCRIPTION:;
#CHARTSTYLE:;
#DIFFICULTY:Beginner;
#METER:1;
#RADARVALUES:0.134436,0.242218,0.098196,0.000000,0.000000,115.000000,103.000000,12.000000,0.000000,0.000000,0.000000,0.000000,0.000000,0.000000,0.134436,0.242218,0.098196,0.000000,0.000000,115.000000,103.000000,12.000000,0.000000,0.000000,0.000000,0.000000,0.000000,0.000000;
#CREDIT:;
#NOTES:
// measure 0
0000
0000
0000
0000
,  // measure 1
0000
0000
0000
0000
,  // measure 2
0000
0000
0000
0000
,  // measure 3
0000
0000
0000
0000
,  // measure 4
1000
0000
0000
0000
,  // measure 5
0001
0000
0000
0000
,  // measure 6
0100
0000
0000
0000
,  // measure 7
0010
0000
0000
0000
,  // measure 8
1000
0000
0000
0000
,  // measure 9
0100
0000
0000
0000
,  // measure 10
0010
0000
0000
0000
,  // measure 11
0000
0000
0000
0000
,  // measure 12
0001
0000
0000
1000
,  // measure 13
0000
0000
0000
0010
,  // measure 14
0000
0000
0000
0000
,  // measure 15
0000
0000
0000
0000
,  // measure 16
0100
0000
0000
0001
,  // measure 17
0000
0000
1000
1000
,  // measure 18
0000
0000
0010
0000
,  // measure 19
0000
0000
0100
0000
,  // measure 20
0001
0000
0000
0000
,  // measure 21
0000
0000
0000
0000
,  // measure 22
0010
0000
0000
0100
,  // measure 23
0000
0000
0000
1000
,  // measure 24
0000
0000
0000
0000
,  // measure 25
0000
0000
0000
0000
,  // measure 26
0001
0000
0000
1000
,  // measure 27
0000
0000
0010
0010
,  // measure 28
0000
0000
0100
0000
,  // measure 29
0000
0000
0001
0000
,  // measure 30
1000
0000
0100
0000
,  // measure 31
0000
0000
0010
0010
,  // measure 32
0000
0000
0001
0000
,  // measure 33
1000
0000
0010
0000
,  // measure 34
1001
0000
0010
0000
,  // measure 35
0100
0000
0000
0000
,  // measure 36
0001
0000
0100
0000
,  // measure 37
0001
0000
0000
0000
,  // measure 38
1000
0000
0010
0000
,  // measure 39
1000
0000
0000
0000
,  // measure 40
0001
0000
0010
0000
,  // measure 41
0100
0000
1000
0000
,  // measure 42
1001
0000
0000
0000
,  // measure 43
0000
0000
0000
0000
,  // measure 44
0001
0000
1000
0000
,  // measure 45
0010
0000
0100
0000
,  // measure 46
1001
0000
0000
0000
,  // measure 47
0100
0000
0010
0000
,  // measure 48
0100
0000
0000
0000
,  // measure 49
0001
0000
1000
0000
,  // measure 50
1001
0000
0010
0000
,  // measure 51
1000
0000
0010
0000
,  // measure 52
0001
0000
0010
0000
,  // measure 53
1000
0000
0000
1001
,  // measure 54
0000
0000
0010
0000
,  // measure 55
0100
0000
0010
0000
,  // measure 56
1000
0000
0100
0000
,  // measure 57
0010
0000
0001
0000
,  // measure 58
1001
0000
0010
0000
,  // measure 59
0001
0000
0001
0000
,  // measure 60
1000
0000
0010
0000
,  // measure 61
1000
0000
0000
1001
,  // measure 62
0000
0000
0100
0000
,  // measure 63
0010
0000
0001
0000
,  // measure 64
1000
0000
0001
0000
,  // measure 65
0100
0000
0010
0000
,  // measure 66
0110
0000
1000
0000
,  // measure 67
0110
0000
0001
0000
,  // measure 68
0110
0000
1000
0000
,  // measure 69
0110
0000
0000
1001
,  // measure 70
0000
0000
0001
0000
,  // measure 71
1000
0000
0001
0000
,  // measure 72
1000
0000
0010
0000
,  // measure 73
0100
0000
0010
0000
,  // measure 74
0100
0000
0000
0000
;
