#VERSION:0.83;
#TITLE:Immigrants;
#SUBTITLE:;
#ARTIST:The M Machine;
#TITLETRANSLIT:;
#SUBTITLETRANSLIT:;
#ARTISTTRANSLIT:;
#GENRE:Metropolis Part I;
#ORIGIN:;
#CREDIT:;
#BANNER:Immigrants-bn.png;
#BACKGROUND:Immigrants-bg.png;
#PREVIEWVID:;
#JACKET:Immigrants-jacket.png;
#CDIMAGE:;
#DISCIMAGE:;
#LYRICSPATH:;
#CDTITLE:;
#MUSIC:Immigrants.mp3;
#OFFSET:-0.056000;
#SAMPLESTART:18.312691;
#SAMPLELENGTH:16.269806;
#SELECTABLE:YES;
#DISPLAYBPM:118.000000;
#BPMS:0.000=118.010;
#STOPS:;
#DELAYS:;
#WARPS:195.938=8.000,
204.938=8.000,
213.938=8.000,
222.938=8.000,
231.938=8.000,
240.938=8.000,
249.938=8.000,
258.938=8.000,
267.938=8.000,
283.938=8.000,
292.938=8.000,
301.938=8.000,
310.938=8.000,
319.938=8.000,
328.938=8.000,
337.938=8.000,
346.938=8.000,
355.938=8.000,
371.938=8.000,
380.938=8.000,
389.938=8.000,
398.938=8.000,
407.938=8.000,
416.938=8.000,
425.938=8.000,
434.938=8.000,
443.938=8.000,
459.938=8.000,
468.938=8.000,
477.938=8.000,
486.938=8.000,
495.938=8.000,
504.938=8.000,
513.938=8.000,
522.938=8.000,
531.938=8.000,
547.938=16.000;
#TIMESIGNATURES:0.000=4=4;
#TICKCOUNTS:0.000=2;
#COMBOS:0.000=1;
#SPEEDS:0.000=1.000=0.000=0;
#SCROLLS:0.000=1.000;
#FAKES:;
#LABELS:0.000=Song Start;
#LASTSECONDHINT:134.315063;
#BGCHANGES:32.000=BGChange 1 Black.png=1.000=0=0=1=====,
36.000=BGChange 2.png=1.000=0=0=1=====,
92.000=BGChange 5.png=1.000=1=0=1===CrossFade==,
131.000=BGChange 1.png=1.000=1=0=1===CrossFade==,
164.000=BGChange 4.png=1.000=1=0=1===CrossFade==,
195.000=BGChange 1 Black.png=1.000=0=0=1=====,
204.000=BGChange 6.png=1.000=0=0=1=====,
213.000=BGChange 1.png=1.000=0=0=1===CrossFade_Fastest==,
222.000=BGChange 2.png=1.000=0=0=1===CrossFade_Fastest==,
231.000=BGChange 4.png=1.000=0=0=1===CrossFade_Fastest==,
240.000=BGChange 5.png=1.000=0=0=1===CrossFade_Fastest==,
249.000=Immigrants-bg.png=1.000=0=0=1===CrossFade_Fastest==,
258.000=BGChange 1.png=1.000=0=0=1===CrossFade_Fastest==,
267.000=BGChange 2.png=1.000=0=0=1===CrossFade_Fastest==,
276.000=BGChange 6.png=1.000=0=0=1===CrossFade_Fastest==,
292.000=BGChange 5.png=1.000=0=0=1===CrossFade_Fastest==,
301.000=BGChange 4.png=1.000=0=0=1===CrossFade_Fastest==,
310.000=BGChange 2.png=1.000=0=0=1===CrossFade_Fastest==,
319.000=BGChange 1.png=1.000=0=0=1===CrossFade_Fastest==,
328.000=Immigrants-bg.png=1.000=0=0=1===CrossFade_Fastest==,
337.000=BGChange 6.png=1.000=0=0=1===CrossFade_Fastest==,
346.000=BGChange 5.png=1.000=0=0=1===CrossFade_Fastest==,
355.000=BGChange 4.png=1.000=0=0=1===CrossFade_Fastest==,
364.000=Immigrants-bg.png=1.000=0=0=1===CrossFade_Fastest==,
380.000=BGChange 1.png=1.000=0=0=1===CrossFade_Fastest==,
389.000=BGChange 2.png=1.000=0=0=1===CrossFade_Fastest==,
398.000=BGChange 4.png=1.000=0=0=1===CrossFade_Fastest==,
407.000=BGChange 5.png=1.000=0=0=1===CrossFade_Fastest==,
416.000=BGChange 6.png=1.000=0=0=1===CrossFade_Fastest==,
425.000=Immigrants-bg.png=1.000=0=0=1===CrossFade_Fastest==,
434.000=BGChange 1.png=1.000=0=0=1===CrossFade_Fastest==,
443.000=BGChange 2.png=1.000=0=0=1===CrossFade_Fastest==,
452.000=BGChange 5.png=1.000=0=0=1===CrossFade_Fastest==,
468.000=Immigrants-bg.png=1.000=0=0=1===CrossFade_Fastest==,
477.000=BGChange 6.png=1.000=0=0=1===CrossFade_Fastest==,
486.000=BGChange 5.png=1.000=0=0=1===CrossFade_Fastest==,
495.000=BGChange 4.png=1.000=0=0=1===CrossFade_Fastest==,
504.000=BGChange 2.png=1.000=0=0=1===CrossFade_Fastest==,
513.000=BGChange 1.png=1.000=0=0=1===CrossFade_Fastest==,
522.000=Immigrants-bg.png=1.000=0=0=1===CrossFade_Fastest==,
531.000=BGChange 5.png=1.000=0=0=1===CrossFade_Fastest==,
540.000=BGChange 6.png=1.000=0=0=1===CrossFade_Fastest==,
564.000=BGChange 1 Black.png=1.000=0=0=1=====,
99999=-nosongbg-=1.000=0=0=0 // don't automatically add -songbackground-
;
#KEYSOUNDS:;
#ATTACKS:
;

//---------------dance-single - ----------------
#NOTEDATA:;
#CHARTNAME:;
#STEPSTYPE:dance-single;
#DESCRIPTION:;
#CHARTSTYLE:;
#DIFFICULTY:Challenge;
#METER:12;
#RADARVALUES:0.656211,1.407214,0.398151,0.199075,1.035929,623.000000,569.000000,54.000000,27.000000,37.000000,0.000000,0.000000,24.000000,78.000000,0.656211,1.407214,0.398151,0.199075,1.035929,623.000000,569.000000,54.000000,27.000000,37.000000,0.000000,0.000000,24.000000,78.000000;
#CREDIT:;
#DISPLAYBPM:118.000000;
#NOTES:
0000
0000
0000
0000
,
0000
0000
0000
0000
,
0000
0000
0000
0000
,
0000
0000
0000
0000
,
1000
0010
1000
0000
2200
0000
3300
0001
0000
1000
0000
0000
0202
0000
0303
0000
,
0100
0001
0100
0000
2200
0000
3300
0010
0000
0100
0000
0000
0022
0000
0033
0000
,
1000
0001
1000
0000
0220
0000
0330
0001
0000
1000
0000
0000
2002
0000
3003
0000
,
0100
1000
0100
0000
0220
0000
0330
0001
0000
1000
0000
0000
1001
0000
0010
0000
,
0100
0000
0000
0000
,
0001
0010
0100
1000
0010
0100
0001
1000
0000
0100
0000
0010
0000
0001
0100
0010
,
1000
0100
0010
0001
1000
0010
0100
0001
0000
1000
0000
0001
0000
0100
0010
1000
,
0001
0010
0100
1000
0010
0100
0001
1000
0000
0100
0000
0010
0000
0001
1000
0010
,
1000
0010
0100
0001
1000
0001
0100
0010
0000
0001
0000
0010
0000
1000
0001
1000
,
0100
0010
0001
1000
0010
0100
0001
1000
0000
0100
0000
0010
0000
0100
1000
0010
,
0100
0010
0001
0010
0100
0010
1000
0001
0000
1000
0000
0100
0000
1000
0010
1000
,
0100
0010
0001
0010
0100
0010
0001
1000
0000
0010
0000
0100
0000
0001
1000
0010
,
0100
0010
0001
0010
1000
0100
0010
0001
0000
1000
0000
0100
0000
0010
0001
1000
,
0001
0100
0010
1000
0001
0100
0010
1000
0000
0001
0000
0100
0000
0010
1000
0001
,
0100
0010
1000
0001
0100
0010
1000
0001
0000
0100
0000
0010
0000
1000
0001
0100
,
0010
1000
0100
1000
0010
1000
0001
0010
0000
0100
0000
0010
0000
0001
0100
0001
,
0010
0100
0010
0001
0100
0010
1000
0001
0000
1000
0000
0010
0000
0100
0010
1000
,
0100
0010
0001
1000
0010
0100
0001
1000
0000
0001
0000
0010
0000
0100
1000
0001
,
0100
0010
1000
0100
0010
0001
1000
0010
0000
0100
0000
0001
0000
0010
0100
0010
,
0001
0100
0010
0100
0001
0100
0010
0100
0000
0001
0000
0100
0000
0010
0100
0001
,
0100
0010
0100
0001
0100
0010
0100
0001
0000
0100
0000
0010
0000
0100
0001
0100
,
0010
1000
0010
0100
0010
1000
0010
0100
0000
0010
0000
1000
0000
0010
0100
0010
,
1000
0010
0100
0010
1000
0010
0100
0010
0000
1000
0000
0010
0000
0100
0010
1000
,
0100
0010
0100
1000
0100
0010
0100
1000
0000
0100
0000
0010
0000
0100
1000
0100
,
0010
0100
1000
0100
0010
0100
1000
0100
0000
0010
0000
0100
0000
1000
0100
0010
,
0001
0010
0100
0010
0001
0010
0100
0010
0000
0001
0000
0010
0000
0100
0010
0001
,
0010
0100
0010
0001
0010
0100
0010
0001
0000
0010
0000
0100
0000
0010
0001
0010
,
0100
1000
0001
1000
0100
1000
0001
1000
0000
0100
0000
1000
0000
0001
1000
0100
,
1000
0001
1000
0100
1000
0001
1000
0100
0000
1000
0000
0001
0000
1000
0100
1000
,
0002
0000
0003
0101
1001
0000
0000
0000
,
0020
0000
0000
0000
0030
0000
1001
0000
0110
0000
0000
0000
1001
0000
0001
0100
,
0002
0000
0003
1010
1100
0000
0000
0000
,
2002
0000
0000
0000
3003
0000
0101
0000
1100
0000
0000
0000
0110
0000
0010
0001
,
0020
0000
0130
1100
0101
0000
1000
0000
,
0120
0000
0000
0000
1030
0000
0011
0000
1001
0000
0000
0000
0110
0000
0001
1000
,
0001
0001
0010
0010
1000
1000
0010
0010
,
0100
0010
0100
0010
1000
0001
1000
0001
0100
0001
0100
0001
1000
0010
1000
0010
,
2000
0000
0000
0M0M
0MMM
0M0M
0M0M
0000
,
3002
0000
0000
M0M0
MMM0
M0M0
M0M0
0000
,
0023
0000
0000
M00M
MM0M
M00M
M00M
0000
,
0000
0000
0000
M00M
MM0M
M00M
M00M
0000
,
0230
1000
1000
1300
,
0002
0100
0100
0103
,
0010
1000
0001
0100
0010
1000
0001
0100
,
0010
1000
0010
1000
0001
0100
0001
0100
0001
1000
0001
1000
0001
0000
0000
0000
,
F00F
0000
0000
0000
,
0000
0000
0000
0000
,
1001
0F0F
0000
0000
,
0000
0000
0000
0000
,
0000
0101
FF00
0000
,
0000
0000
0000
0000
,
0000
0000
1100
00FF
,
0000
0000
0000
0000
,
0000
0000
0000
0011
,
0FF0
0000
0000
0000
,
0000
0000
0000
0000
,
0110
F0F0
0000
0000
,
0000
0000
0000
0000
,
0000
1010
F00F
0000
,
0000
0000
0000
0000
,
0000
0000
1001
0F0F
,
0000
0000
0000
0000
,
0000
0000
0000
0101
,
F00F
0001
0000
0000
0000
0000
0000
0000
,
0000
0000
0000
0000
,
1001
0000
0001
0010
0100
1000
0010
0100
0000
0010
0000
1000
0000
0001
0100
0010
,
1000
0001
0010
0100
0010
0001
1000
0010
0000
0100
0000
0001
0000
1000
0100
0010
,
0001
0000
0000
0000
,
0000
0000
0000
0000
,
0001
1010
0000
0000
,
0000
0000
0000
0000
,
0000
1010
0101
0000
,
0000
0000
0000
0000
,
0000
0000
0101
1100
,
0000
0000
0000
0000
,
0000
0000
0000
1100
,
0110
0000
0000
0000
,
0000
0000
0000
0000
,
0110
0011
0000
0000
,
0000
0000
0000
0000
,
0000
0011
1001
0000
,
0000
0000
0000
0000
,
0000
0000
1001
0110
,
0000
0000
0000
0000
,
0000
0000
0000
0110
,
1001
1000
0000
0000
0000
0000
0000
0000
,
0000
0000
0000
0000
,
1001
0000
1000
0010
0100
0001
1000
0010
0000
0100
0000
0001
0000
1000
0010
1000
,
0001
0010
0100
1000
0001
0010
0100
0010
0000
0001
0000
1000
0000
0100
1000
0010
,
0100
0L00
0000
0000
0000
0000
0000
0000
,
0000
0000
0000
0000
,
0100
0L00
0001
000L
0000
0000
0000
0000
,
0000
0000
0000
0000
,
0000
0000
0001
000L
1100
LL00
0000
0000
,
0000
0000
0000
0000
,
0000
0000
0000
0000
1100
LL00
0101
0L0L
,
0000
0000
0000
0000
,
0000
0000
0000
0000
0000
0000
0101
0L0L
,
0010
00L0
0000
0000
0000
0000
0000
0000
,
0000
0000
0000
0000
,
0010
00L0
1000
L000
0000
0000
0000
0000
,
0000
0000
0000
0000
,
0000
0000
1000
L000
0101
0L0L
0000
0000
,
0000
0000
0000
0000
,
0000
0000
0000
0000
0101
0L0L
1001
L00L
,
0000
0000
0000
0000
,
0000
0000
0000
0000
0000
0000
1001
L00L
,
0010
0001
0000
0000
0000
0000
0000
0000
,
0000
0000
0000
0000
,
0010
0000
0001
1000
0001
0100
0001
1000
0000
0001
0000
0010
0000
0001
1000
0001
,
0010
0100
1000
0100
0010
0001
0100
0010
0000
1000
0000
0001
0000
0010
0001
1000
,
0000
00L0
0000
0000
0000
0000
0000
0000
,
0000
0000
0000
0000
,
0000
00L0
0000
L000
0000
0000
0000
0000
,
0000
0000
0000
0000
,
0000
0000
0000
L000
0000
000L
0000
0000
,
0000
0000
0000
0000
,
0000
0000
0000
0000
0000
000L
0000
0L00
,
0000
0000
0000
0000
,
0000
0000
0000
0000
0000
0000
0000
0L00
,
0000
0LL0
0000
0000
0000
0000
0000
0000
,
0000
0000
0000
0000
,
0000
0LL0
0000
L00L
0000
0000
0000
0000
,
0000
0000
0000
0000
,
0000
0000
0000
L00L
0000
0LL0
0000
0000
,
0000
0000
0000
0000
,
0000
0000
0000
0000
0000
0LL0
0000
L00L
,
0000
0000
0000
0000
,
0000
0000
0000
0000
0000
0000
0000
L00L
,
0010
0100
0000
0000
0000
0000
0000
0000
,
0000
0000
0000
0000
,
0010
0000
0100
0001
0100
0001
0100
0001
0000
0100
0000
0001
0000
1000
0010
1000
,
0010
1000
0010
1000
0010
1000
0010
1000
0000
0010
0000
1000
0000
0001
0100
0001
,
0200
0000
0000
0000
,
0300
0000
0000
0000
,
0000
0000
0000
0000
,
0000
0000
0000
0000
,
0200
0000
0300
0M00
0000
0000
0000
0000
;

//---------------dance-single - ----------------
#NOTEDATA:;
#CHARTNAME:;
#STEPSTYPE:dance-single;
#DESCRIPTION:;
#CHARTSTYLE:;
#DIFFICULTY:Hard;
#METER:9;
#RADARVALUES:0.440283,1.043303,0.494002,0.117971,0.361285,418.000000,351.000000,67.000000,16.000000,16.000000,0.000000,0.000000,0.000000,139.000000,0.440283,1.043303,0.494002,0.117971,0.361285,418.000000,351.000000,67.000000,16.000000,16.000000,0.000000,0.000000,0.000000,139.000000;
#CREDIT:;
#DISPLAYBPM:118.000000;
#NOTES:
0000
0000
0000
0000
,
0000
0000
0000
0000
,
0000
0000
0000
0000
,
0000
0000
0000
0000
,
1000
0000
0000
0000
1001
0000
0000
0010
0000
0100
0000
0000
1001
0000
0000
0000
,
0001
0000
0000
0000
1001
0000
0000
0010
0000
0100
0000
0000
1001
0000
0000
0000
,
1000
0000
0000
0000
0101
0000
0000
1000
0000
0001
0000
0000
1100
0000
0000
0000
,
0100
0000
0000
0000
0011
0000
0000
1000
0000
0001
0000
0000
1010
0000
0000
0000
,
0101
0000
0000
0000
,
1001
0000
0001
0100
0001
0000
0000
1000
0000
0001
0000
0100
0000
0000
0010
0000
,
1000
0000
0010
0100
0010
0000
0000
1000
0000
0001
0000
1000
0000
0000
0100
0000
,
0010
0000
0001
0010
0001
0000
0000
0100
0000
0001
0000
1000
0000
0000
0010
0000
,
1000
0000
0001
0010
0001
0000
0000
0010
0000
0100
0000
1000
0000
0000
0001
0000
,
0100
0000
0010
1000
0010
0000
0000
0100
0000
0001
0000
1000
0000
0000
0001
0000
,
0010
0000
0100
1000
0100
0000
0000
0010
0000
0001
0000
0100
0000
0000
0010
0000
,
1000
0000
0001
1000
0001
0000
0000
0010
0000
0001
0000
1000
0000
0000
0001
0000
,
0100
0000
0001
1000
0001
0000
0000
1000
0000
0010
0000
0100
0000
0000
0001
0000
,
0010
0000
0100
1000
0100
0000
0000
0010
0000
0001
0000
1000
0000
0000
0010
0000
,
0100
0000
0001
0100
0001
0000
0000
1000
0000
0010
0000
0100
0000
0000
0001
0000
,
0010
0000
0100
1000
0001
0000
0000
0100
0000
0010
0000
1000
0000
0000
0001
0000
,
0010
0000
0100
1000
0001
0000
0000
0100
0000
0010
0000
1000
0000
0000
0001
0000
,
0010
0000
0001
0100
0010
0000
0000
1000
0000
0100
0000
0001
0000
0000
0100
0000
,
0010
0000
0001
1000
0010
0000
0000
0100
0000
1000
0000
0100
0000
0000
0001
0000
,
0010
0000
0000
0000
0001
0000
0000
1000
0000
0001
0000
1000
0000
0000
0100
0000
,
0010
0000
0000
0000
0100
0000
0000
1000
0000
0001
0000
1000
0000
0000
0010
0000
,
0100
0000
0000
0000
0001
0000
0000
0010
0000
0100
0000
0010
0000
0000
0001
0000
,
1000
0000
0000
0000
0010
0000
0000
0100
0000
0001
0000
1000
0000
0000
0100
0000
,
0010
0000
0000
0000
0001
0000
0000
1000
0000
0001
0000
0100
0000
0000
0010
0000
,
1000
0000
0000
0000
0100
0000
0000
0010
0000
0100
0000
1000
0000
0000
0100
0000
,
0010
0000
0000
0000
0001
0000
0000
0100
0000
0001
0000
1000
0000
0000
0001
0000
,
0010
0000
0000
0000
0100
0000
0000
1000
0000
0010
0000
1000
0000
0000
0100
0000
,
0010
0000
0000
0000
0001
0000
0000
0100
0000
0001
0000
1000
0000
0000
0001
0000
,
0010
0000
0000
0000
0100
0000
0000
0000
1000
0000
0000
0000
0110
0000
0001
1000
,
0002
0000
0003
0101
1001
0000
0000
0000
,
0020
0000
0000
0000
0030
0000
1001
0000
0110
0000
0000
0000
1001
0000
0001
0100
,
0002
0000
0003
1010
1100
0000
0000
0000
,
2002
0000
0000
0000
3003
0000
0101
0000
1100
0000
0000
0000
0110
0000
0010
0001
,
0020
0000
0130
1100
0101
0000
1000
0000
,
0120
0000
1030
0011
1001
0000
0110
0000
,
1001
0011
1010
0110
,
0001
0000
0001
0000
0100
0000
0100
0000
0010
0100
0010
0000
1000
0001
1000
0000
,
2200
0000
0000
000M
000M
000M
0300
0000
,
0002
0000
0000
00M0
00M0
00M0
3000
0000
,
0200
0000
0000
M000
M000
M000
0000
0000
,
0000
0000
0000
M0M0
M0M0
M0M0
0303
0000
,
2000
0010
0001
3010
,
0002
0100
1000
0103
,
0020
1030
0200
0310
,
0001
0000
0001
0000
0100
0000
0100
0000
1000
0001
1000
0001
1000
0000
0000
0000
,
0101
1100
0000
0000
,
0000
0000
0000
0000
,
0101
1100
0110
0000
,
0000
0000
0000
0000
,
0000
1100
0110
0011
,
0000
0000
0000
0000
,
0000
0000
0110
0011
,
1001
0000
0000
0000
,
0000
0000
0000
0011
,
1001
0101
0000
0000
,
0000
0000
0000
0000
,
1001
0101
1100
0000
,
0000
0000
0000
0000
,
0000
0101
1100
0110
,
0000
0000
0000
0000
,
0000
0000
1100
0110
,
0011
0000
0000
0000
,
0000
0000
0000
0110
,
0011
0001
0000
0000
,
0000
0000
0000
0000
,
0011
0000
0001
0100
1000
0100
0001
0100
,
0010
0000
1000
0100
0001
0100
1000
0100
,
0010
1001
0000
0000
,
0000
0000
0000
0000
,
0010
1001
0110
0000
,
0000
0000
0000
0000
,
0000
1001
0110
0101
,
0000
0000
0000
0000
,
0000
0000
0110
0101
,
1100
0000
0000
0000
,
0000
0000
0000
0101
,
1100
0110
0000
0000
,
0000
0000
0000
0000
,
1100
0110
0011
0000
,
0000
0000
0000
0000
,
0000
0110
0011
1001
,
0000
0000
0000
0000
,
0000
0000
0011
1001
,
1010
0000
0000
0000
,
0000
0000
0000
1001
,
1010
0100
0000
0000
,
0000
0000
0000
0000
,
1010
0000
0100
0001
0100
1000
0100
0001
,
0010
0100
0010
1000
0010
0001
1000
0001
,
0101
1100
0000
0000
,
0000
0000
0000
0000
,
0101
1100
0110
0000
,
0000
0000
0000
0000
,
0000
1100
0110
0011
,
0000
0000
0000
0000
,
0000
0000
0110
0011
,
1001
0000
0000
0000
,
0000
0000
0000
0011
,
1001
0101
0000
0000
,
0000
0000
0000
0000
,
1001
0101
1010
0000
,
0000
0000
0000
0000
,
0000
0101
1010
1100
,
0000
0000
0000
0000
,
0000
0000
1010
1100
,
0011
0000
0000
0000
,
0000
0000
0000
1100
,
0011
1000
0000
0000
,
0000
0000
0000
0000
,
0011
0000
1000
0010
1000
0001
1000
0100
,
1000
0001
0010
0001
1000
0001
0100
0001
,
1000
0101
0000
0000
,
0000
0000
0000
0000
,
1000
0101
1100
0000
,
0000
0000
0000
0000
,
0000
0101
1100
1001
,
0000
0000
0000
0000
,
0000
0000
1100
1001
,
0101
0000
0000
0000
,
0000
0000
0000
1001
,
0101
1010
0000
0000
,
0000
0000
0000
0000
,
0101
1010
0011
0000
,
0000
0000
0000
0000
,
0000
1010
0011
0110
,
0000
0000
0000
0000
,
0000
0000
0011
0110
,
1100
0000
0000
0000
,
0000
0000
0000
0110
,
1100
0001
0000
0000
,
0000
0000
0000
0000
,
1100
0000
0001
0010
0001
0100
0001
0010
,
0100
1000
0010
1000
0100
1000
0001
1000
,
0200
0000
0000
0000
,
0300
0000
0000
0000
,
0000
0000
0000
0000
,
0000
0000
0000
0000
,
0200
0300
0M00
0000
;

//---------------dance-single - ----------------
#NOTEDATA:;
#CHARTNAME:;
#STEPSTYPE:dance-single;
#DESCRIPTION:;
#CHARTSTYLE:;
#DIFFICULTY:Medium;
#METER:7;
#RADARVALUES:0.320206,0.783859,0.088478,0.088478,0.022119,304.000000,292.000000,12.000000,12.000000,11.000000,0.000000,0.000000,0.000000,109.000000,0.320206,0.783859,0.088478,0.088478,0.022119,304.000000,292.000000,12.000000,12.000000,11.000000,0.000000,0.000000,0.000000,109.000000;
#CREDIT:;
#DISPLAYBPM:118.000000;
#NOTES:
0000
0000
0000
0000
,
0000
0000
0000
0000
,
0000
0000
0000
0000
,
0000
0000
0000
0000
,
0010
0000
1000
0000
0100
1000
0001
0000
,
0010
0000
0001
0000
0100
0001
1000
0000
,
0100
0000
0010
0000
0001
1000
0010
0000
,
0100
0000
0001
0000
1000
0010
0100
0000
,
1001
0000
0000
0000
,
1001
0000
0001
0000
0001
0010
0100
1000
,
0001
0000
0001
0000
0001
0010
0100
1000
,
0001
0000
0001
0000
0001
0010
0100
1000
,
0001
0000
0001
0000
0001
0010
0100
1000
,
0001
0000
0001
0000
0001
0100
1000
0100
,
0001
0000
0001
0000
0001
0100
1000
0100
,
0001
0000
0001
0000
0001
0100
1000
0100
,
0001
0000
0001
0000
0001
0100
1000
0100
,
0001
0000
0001
0000
0001
0100
0010
1000
,
0001
0000
0001
0000
0001
0100
0010
1000
,
0001
0000
0001
0000
0001
0100
0010
1000
,
0001
0000
0001
0000
0001
0100
0010
1000
,
0001
0000
0001
0000
0001
0100
1000
0010
,
0001
0000
0001
0000
0001
0100
1000
0010
,
0001
0000
0010
0000
1000
0100
0100
0000
,
0001
0000
0010
0000
1000
0100
0100
0000
,
1000
0000
0010
0000
0001
0100
0100
0000
,
1000
0000
0010
0000
0001
0100
0100
0000
,
0010
0000
1000
0000
0100
0001
0001
0000
,
0010
0000
1000
0000
0100
0001
0001
0000
,
0010
0000
0001
0000
0100
1000
1000
0000
,
0010
0000
0001
0000
0100
1000
1000
0000
,
0010
0000
0100
0000
1000
0001
0001
0000
,
0010
0000
0100
0000
0001
1000
1000
0000
,
0200
0000
0300
0100
0110
0000
0000
0000
,
0020
0000
0030
0010
0110
0000
1001
0000
,
0002
0000
0003
0001
0101
0000
0000
0000
,
2000
0000
3000
1000
1100
0000
1001
0000
,
0010
0000
1000
0001
1001
0000
0100
0000
,
0010
0000
0100
0001
1001
0000
0010
0000
,
1000
0000
0100
0010
0001
0000
1000
0000
,
0010
0000
0100
0001
1000
0000
0101
0000
,
2002
0000
0000
0000
0000
0000
0000
0000
0003
0000
0000
0M00
00M0
000M
0000
0000
,
0200
0000
0000
0000
0000
0000
0000
0000
0300
0000
0000
000M
00M0
0M00
0000
0000
,
0002
0000
0000
0000
0000
0000
0000
0000
0000
0000
0000
0000
00M0
0M00
0000
0000
,
0000
0000
0000
0000
0000
0000
0000
0000
0000
0000
00M0
0M00
3003
0000
0000
0000
,
0020
0001
0001
0031
,
2000
0100
0100
3100
,
0002
1000
1000
1003
,
0001
1000
0001
1000
0001
1000
0001
0000
,
0010
0100
0001
0000
,
0000
0000
0000
0000
,
0010
0100
0001
1000
,
0000
0000
0000
0000
,
0000
0100
0001
1000
,
0100
0000
0000
0000
,
0000
0000
0001
1000
,
0100
0010
0000
0000
,
0000
0000
0000
1000
,
0100
0010
0001
0000
,
0000
0000
0000
0000
,
0100
0010
0001
1000
,
0000
0000
0000
0000
,
0000
0010
0001
1000
,
0010
0000
0000
0000
,
0000
0000
0001
1000
,
0010
0100
0000
0000
,
0000
0000
0000
1000
,
0010
0100
0001
0000
,
0000
0000
0000
0000
,
0010
0000
0100
0000
0001
0100
1000
0100
,
0001
0000
0010
0000
0001
0100
1000
0100
,
0001
1000
0100
0000
,
0000
0000
0000
0000
,
0001
1000
0100
0010
,
0000
0000
0000
0000
,
0000
1000
0100
0010
,
1000
0000
0000
0000
,
0000
0000
0100
0010
,
1000
0001
0000
0000
,
0000
0000
0000
0010
,
1000
0001
0100
0000
,
0000
0000
0000
0000
,
1000
0001
0100
0010
,
0000
0000
0000
0000
,
0000
0001
0100
0010
,
0001
0000
0000
0000
,
0000
0000
0100
0010
,
0001
1000
0000
0000
,
0000
0000
0000
0010
,
0001
1000
0100
0000
,
0000
0000
0000
0000
,
0001
0000
1000
0000
0100
1000
0010
1000
,
0100
0000
0001
0000
0100
1000
0010
1000
,
0100
0010
1000
0000
,
0000
0000
0000
0000
,
0100
0010
1000
0001
,
0000
0000
0000
0000
,
0000
0010
1000
0001
,
0010
0000
0000
0000
,
0000
0000
1000
0001
,
0010
0100
0000
0000
,
0000
0000
0000
0001
,
0010
0100
1000
0000
,
0000
0000
0000
0000
,
0010
0100
1000
0001
,
0000
0000
0000
0000
,
0000
0100
1000
0001
,
0100
0000
0000
0000
,
0000
0000
1000
0001
,
0100
0010
0000
0000
,
0000
0000
0000
0001
,
0100
0010
1000
0000
,
0000
0000
0000
0000
,
0100
0000
0010
0000
1000
0010
0001
0010
,
1000
0000
0100
0000
1000
0010
0001
0010
,
1000
0001
0010
0000
,
0000
0000
0000
0000
,
1000
0001
0010
0100
,
0000
0000
0000
0000
,
0000
0001
0010
0100
,
0001
0000
0000
0000
,
0000
0000
0010
0100
,
0001
1000
0000
0000
,
0000
0000
0000
0100
,
0001
1000
0010
0000
,
0000
0000
0000
0000
,
0001
1000
0010
0100
,
0000
0000
0000
0000
,
0000
1000
0010
0100
,
1000
0000
0000
0000
,
0000
0000
0010
0100
,
1000
0001
0000
0000
,
0000
0000
0000
0100
,
1000
0001
0010
0000
,
0000
0000
0000
0000
,
1000
0000
0001
0000
0010
0001
0100
0001
,
0010
0000
1000
0000
0010
0001
0100
0001
,
0020
0000
0000
0000
,
0030
0000
0000
0000
,
0000
0000
0000
0000
,
0000
0000
0000
0000
,
0020
0000
0030
00M0
;

//---------------dance-single - ----------------
#NOTEDATA:;
#CHARTNAME:;
#STEPSTYPE:dance-single;
#DESCRIPTION:;
#CHARTSTYLE:;
#DIFFICULTY:Easy;
#METER:5;
#RADARVALUES:0.241208,0.628193,0.110597,0.125344,0.014746,229.000000,214.000000,15.000000,17.000000,9.000000,0.000000,0.000000,0.000000,145.000000,0.241208,0.628193,0.110597,0.125344,0.014746,229.000000,214.000000,15.000000,17.000000,9.000000,0.000000,0.000000,0.000000,145.000000;
#CREDIT:;
#DISPLAYBPM:118.000000;
#NOTES:
0000
0000
0000
0000
,
0000
0000
0000
0000
,
0000
0000
0000
0000
,
0000
0000
0000
0000
,
1000
0010
0001
0100
,
0001
0100
1000
0010
,
1000
0100
1000
0010
,
0001
0100
0001
0010
,
0100
0000
0000
0000
,
1001
0100
0001
0100
,
1000
0100
0001
0100
,
1001
0100
0010
1000
,
0100
0010
0001
0100
,
1001
0010
1000
0010
,
0001
0010
1000
0010
,
1001
0100
0001
0010
,
0100
1000
0010
0100
,
0101
0100
0010
1000
,
0001
0100
0010
1000
,
1100
0001
1000
0001
,
0100
0001
1000
0001
,
1010
0001
1000
0001
,
0010
0001
1000
0001
,
2010
0001
3010
0000
,
0002
0010
1003
0000
,
0200
1000
0310
0000
,
0002
0100
1003
0000
,
0020
1000
0130
0000
,
2000
0100
3001
0000
,
0200
0001
0310
0000
,
0002
0010
1003
0000
,
0200
0010
0301
0000
,
0020
0100
1030
0000
,
1001
0000
0000
1000
1000
0000
0000
0000
,
1001
0000
0000
1000
1000
0000
1000
0000
,
1001
0000
0000
0001
0001
0000
0000
0000
,
1001
0000
0000
0001
0001
0000
0001
0000
,
1001
0001
1000
1000
,
1001
1000
0001
0001
,
1001
0010
0100
0010
,
0001
0100
0010
1000
,
0002
0000
0000
0000
0000
0000
0000
0000
0M00
0000
0000
M000
0003
0000
0000
0000
,
0020
0000
0000
0000
0000
0000
0000
0000
M000
0000
0000
000M
0030
0000
0000
0000
,
0200
0000
0000
0000
0000
0000
0000
0000
M000
0000
0000
00M0
0000
0000
0000
0000
,
0000
0000
0000
0000
0000
0000
0000
0000
000M
0000
0000
00M0
0300
0000
0000
0000
,
2000
0000
0010
3010
,
0200
0000
0001
0301
,
0020
0000
0100
0130
,
1000
0001
1000
0001
,
0010
0010
0100
0100
,
0000
0000
0000
0000
,
0010
0010
0100
0100
,
1000
0000
0000
0000
,
0000
0010
0100
0100
,
1000
1000
0000
0000
,
0000
0000
0100
0100
,
1000
1000
0001
0000
,
0000
0000
0000
0100
,
1000
1000
0001
0001
,
0000
0000
0000
0000
,
1000
1000
0001
0001
,
0100
0000
0000
0000
,
0000
1000
0001
0001
,
0100
0010
0000
0000
,
0000
0000
0001
0001
,
0100
0010
1000
0000
,
0000
0000
0000
0001
,
0100
0010
1000
0010
,
0000
0000
0000
0000
,
0100
0010
1000
0010
,
0100
0001
0100
0010
,
1000
1000
0001
0001
,
0000
0000
0000
0000
,
1000
1000
0001
0001
,
0100
0000
0000
0000
,
0000
1000
0001
0001
,
0100
0100
0000
0000
,
0000
0000
0001
0001
,
0100
0100
0010
0000
,
0000
0000
0000
0001
,
0100
0100
0010
0010
,
0000
0000
0000
0000
,
0100
0100
0010
0010
,
0001
0000
0000
0000
,
0000
0100
0010
0010
,
0001
1000
0000
0000
,
0000
0000
0010
0010
,
0001
1000
0100
0000
,
0000
0000
0000
0010
,
0001
1000
0100
1000
,
0000
0000
0000
0000
,
0001
1000
0100
1000
,
0001
0010
0001
1000
,
0100
0100
0010
0010
,
0000
0000
0000
0000
,
0100
0100
0010
0010
,
0001
0000
0000
0000
,
0000
0100
0010
0010
,
0001
0001
0000
0000
,
0000
0000
0010
0010
,
0001
0001
1000
0000
,
0000
0000
0000
0010
,
0001
0001
1000
1000
,
0000
0000
0000
0000
,
0001
0001
1000
1000
,
0010
0000
0000
0000
,
0000
0001
1000
1000
,
0010
0100
0000
0000
,
0000
0000
1000
1000
,
0010
0100
0001
0000
,
0000
0000
0000
1000
,
0010
0100
0001
0100
,
0000
0000
0000
0000
,
0010
0100
0001
0100
,
0010
1000
0010
0100
,
0001
0001
1000
1000
,
0000
0000
0000
0000
,
0001
0001
1000
1000
,
0010
0000
0000
0000
,
0000
0001
1000
1000
,
0010
0010
0000
0000
,
0000
0000
1000
1000
,
0010
0010
0100
0000
,
0000
0000
0000
1000
,
0010
0010
0100
0100
,
0000
0000
0000
0000
,
0010
0010
0100
0100
,
1000
0000
0000
0000
,
0000
0010
0100
0100
,
1000
0001
0000
0000
,
0000
0000
0100
0100
,
1000
0001
0010
0000
,
0000
0000
0000
0100
,
1000
0001
0010
0001
,
0000
0000
0000
0000
,
1000
0001
0010
0001
,
1000
0100
1000
0001
,
0020
0000
0000
0000
,
0030
0000
0000
0000
,
0000
0000
0000
0000
,
0000
0000
0000
0000
,
0020
0000
0000
0030
,
00M0
0000
0000
0000
;

//---------------dance-single - ----------------
#NOTEDATA:;
#CHARTNAME:;
#STEPSTYPE:dance-single;
#DESCRIPTION:;
#CHARTSTYLE:;
#DIFFICULTY:Beginner;
#METER:1;
#RADARVALUES:0.125344,0.467827,0.000000,0.081105,0.000000,119.000000,119.000000,0.000000,11.000000,0.000000,0.000000,0.000000,0.000000,129.000000,0.125344,0.467827,0.000000,0.081105,0.000000,119.000000,119.000000,0.000000,11.000000,0.000000,0.000000,0.000000,0.000000,129.000000;
#CREDIT:;
#DISPLAYBPM:118.000000;
#NOTES:
0000
0000
0000
0000
,
0000
0000
0000
0000
,
0000
0000
0000
0000
,
0000
0000
0000
0000
,
1000
0000
1000
0000
,
0100
0000
0100
0000
,
0001
0000
0001
0000
,
0010
0000
0010
0000
,
0100
0000
0000
0000
,
1000
0000
0001
0000
,
0100
0000
0010
0000
,
1000
0000
0100
0000
,
0010
0000
0001
0000
,
1000
0000
0010
0000
,
0001
0000
0100
0000
,
0010
0000
1000
0000
,
0100
0000
0010
0000
,
0001
0000
1000
0000
,
0001
0000
0100
0000
,
1000
0000
0001
0000
,
1000
0000
0100
0000
,
0010
0000
0001
0000
,
0100
0000
1000
0000
,
0100
0000
0000
0000
,
0010
0000
0000
0000
,
0001
0000
0000
0000
,
1000
0000
0000
0000
,
0010
0000
0000
0000
,
0100
0000
0000
0000
,
0001
0000
0000
0000
,
0010
0000
0000
0000
,
0100
0000
0000
0000
,
1000
0000
0000
0000
,
0002
0000
0003
0000
,
2000
0000
3000
0000
,
0020
0000
0030
0000
,
0200
0000
0300
0000
,
0010
0000
1000
0000
,
0010
0000
0001
0000
,
0100
0100
0100
0100
,
0100
0100
0100
0100
,
0200
0000
0000
0300
,
0020
0000
0000
0030
,
0200
0000
0000
0000
,
0000
0000
0300
0000
,
0002
0000
0000
0003
,
2000
0000
0000
3000
,
0002
0000
0000
0003
,
2000
0000
0000
3000
,
0100
0100
0100
0100
,
0000
0000
0000
0000
,
0100
0100
0100
0100
,
0100
0000
0000
0000
,
0000
0100
0100
0100
,
0100
0100
0000
0000
,
0000
0000
0100
0100
,
0100
0100
0100
0000
,
0000
0000
0000
0100
,
0100
0100
0100
0100
,
0000
0000
0000
0000
,
0100
0100
0100
0100
,
0100
0000
0000
0000
,
0000
0100
0100
0100
,
0100
0000
0000
0000
,
0000
0000
0100
0100
,
0100
0000
1000
0000
,
0000
0000
0000
0100
,
0100
0000
1000
0000
,
0000
0000
0000
0000
,
0100
0000
1000
0000
,
0001
0000
0100
0000
,
0001
0001
0001
0001
,
0000
0000
0000
0000
,
0001
0001
0001
0001
,
0001
0000
0000
0000
,
0000
0001
0001
0001
,
0001
0001
0000
0000
,
0000
0000
0001
0001
,
0001
0001
0001
0000
,
0000
0000
0000
0001
,
0001
0001
0001
0001
,
0000
0000
0000
0000
,
0001
0001
0001
0001
,
0001
0000
0000
0000
,
0000
0001
0001
0001
,
0001
0000
0000
0000
,
0000
0000
0001
0001
,
0001
0000
0100
0000
,
0000
0000
0000
0001
,
0001
0000
0100
0000
,
0000
0000
0000
0000
,
0001
0000
0100
0000
,
0010
0000
0001
0000
,
0010
0010
0010
0010
,
0000
0000
0000
0000
,
0010
0010
0010
0010
,
0010
0000
0000
0000
,
0000
0010
0010
0010
,
0010
0010
0000
0000
,
0000
0000
0010
0010
,
0010
0010
0010
0000
,
0000
0000
0000
0010
,
0010
0010
0010
0010
,
0000
0000
0000
0000
,
0010
0010
0010
0010
,
0010
0000
0000
0000
,
0000
0010
0010
0010
,
0010
0000
0000
0000
,
0000
0000
0010
0010
,
0010
0000
0001
0000
,
0000
0000
0000
0010
,
0010
0000
0001
0000
,
0000
0000
0000
0000
,
0010
0000
0001
0000
,
1000
0000
0010
0000
,
1000
1000
1000
1000
,
0000
0000
0000
0000
,
1000
1000
1000
1000
,
1000
0000
0000
0000
,
0000
1000
1000
1000
,
1000
1000
0000
0000
,
0000
0000
1000
1000
,
1000
1000
1000
0000
,
0000
0000
0000
1000
,
1000
1000
1000
1000
,
0000
0000
0000
0000
,
1000
1000
1000
1000
,
1000
0000
0000
0000
,
0000
1000
1000
1000
,
1000
0000
0000
0000
,
0000
0000
1000
1000
,
1000
0000
0010
0000
,
0000
0000
0000
1000
,
1000
0000
0010
0000
,
0000
0000
0000
0000
,
1000
0000
0010
0000
,
0100
0000
1000
0000
,
0100
0000
0000
0000
,
0000
0000
0000
0000
,
0000
0000
0000
0000
,
0000
0000
0000
0000
,
0100
0000
0000
0000
;
