#VERSION:0.83;
#TITLE:If You're Wondering If I Want You To;
#SUBTITLE:;
#ARTIST:Weezer;
#TITLETRANSLIT:;
#SUBTITLETRANSLIT:;
#ARTISTTRANSLIT:;
#GENRE:Raditude;
#ORIGIN:;
#CREDIT:;
#BANNER:If You're Wondering If I Want You To-bn.png;
#BACKGROUND:If You're Wondering If I Want You To-bg.png;
#PREVIEWVID:If You're Wondering If I Want You To-preview.avi;
#JACKET:If You're Wondering If I Want You To-jacket.png;
#CDIMAGE:;
#DISCIMAGE:;
#LYRICSPATH:;
#CDTITLE:;
#MUSIC:If You're Wondering If I Want You To.mp3;
#OFFSET:-0.082000;
#SAMPLESTART:48.081139;
#SAMPLELENGTH:17.454540;
#SELECTABLE:YES;
#BPMS:0.000=220.000;
#STOPS:;
#DELAYS:;
#WARPS:;
#TIMESIGNATURES:0.000=4=4;
#TICKCOUNTS:0.000=2;
#COMBOS:0.000=1;
#SPEEDS:0.000=1.000=0.000=0;
#SCROLLS:0.000=1.000;
#FAKES:;
#LABELS:0.000=Song Start;
#LASTSECONDHINT:145.232056;
#BGCHANGES:0.000=If You're Wondering If I Want You To-video.avi=1.000=0=0=0=StretchNoLoop====,
99999=-nosongbg-=1.000=0=0=0 // don't automatically add -songbackground-
;
#KEYSOUNDS:;
#ATTACKS:
;

//---------------dance-single - ----------------
#NOTEDATA:;
#CHARTNAME:;
#STEPSTYPE:dance-single;
#DESCRIPTION:;
#CHARTSTYLE:;
#DIFFICULTY:Hard;
#METER:9;
#RADARVALUES:0.556312,0.640545,0.295848,0.130723,0.000000,566.000000,523.000000,43.000000,19.000000,0.000000,0.000000,0.000000,0.000000,0.000000,0.556312,0.640545,0.295848,0.130723,0.000000,566.000000,523.000000,43.000000,19.000000,0.000000,0.000000,0.000000,0.000000,0.000000;
#CREDIT:;
#NOTES:
// measure 0
0000
0000
0000
0000
,  // measure 1
0000
0000
0000
0000
,  // measure 2
0000
0000
0000
0000
,  // measure 3
0000
0000
0000
0000
,  // measure 4
1000
0001
0100
0001
,  // measure 5
1000
0010
1000
0001
,  // measure 6
1000
0100
1000
0001
,  // measure 7
0010
0001
1000
0001
,  // measure 8
0100
0010
1000
0010
,  // measure 9
0100
0001
0010
0100
,  // measure 10
0010
0001
1000
0100
,  // measure 11
0010
0001
0100
0010
,  // measure 12
0100
0001
1000
0010
,  // measure 13
0100
0001
1000
0010
,  // measure 14
1000
0100
0010
0001
,  // measure 15
0010
0100
1000
0001
,  // measure 16
0100
0010
0100
0010
,  // measure 17
1000
0100
1000
0100
,  // measure 18
0001
0010
0001
0010
,  // measure 19
0100
1000
0100
1000
,  // measure 20
0010
1000
0010
0001
,  // measure 21
0010
0100
0010
0001
,  // measure 22
1000
0100
0001
0100
,  // measure 23
0010
0100
0010
0001
,  // measure 24
1000
0010
0100
0001
,  // measure 25
1000
0100
1000
0001
,  // measure 26
1000
0010
0100
0001
,  // measure 27
0010
0100
0010
0001
,  // measure 28
1000
0010
0100
0001
,  // measure 29
1000
0100
0001
0100
,  // measure 30
1000
0010
1000
0100
,  // measure 31
0001
0010
0001
0100
,  // measure 32
0010
1000
0001
1000
,  // measure 33
0100
0010
0100
0010
,  // measure 34
0001
1000
0010
0100
,  // measure 35
0001
0000
0010
0100
,  // measure 36
0010
0000
0001
1000
0000
0000
0010
0000
,  // measure 37
0100
0000
0000
0000
0001
1000
0000
0000
,  // measure 38
0100
0010
0001
1000
,  // measure 39
0010
0000
0000
0000
,  // measure 40
1000
0000
0100
0010
0000
0000
0001
1000
,  // measure 41
0000
0000
0010
0100
0000
0000
0001
0000
,  // measure 42
1000
0000
0010
0000
0100
0000
0001
1000
,  // measure 43
0000
0000
0010
0100
0000
0000
0010
0000
,  // measure 44
2002
0000
0000
0000
,  // measure 45
3003
0000
0010
1000
,  // measure 46
0001
0000
1000
0100
0000
0100
0010
0000
,  // measure 47
0001
1000
0010
0100
,  // measure 48
0001
0000
1000
0100
0000
0000
1100
0000
,  // measure 49
0001
0101
1000
1100
,  // measure 50
0001
0000
1000
0100
0000
0000
1100
0000
,  // measure 51
0001
0101
1000
1100
,  // measure 52
0010
0000
0100
0001
0000
0000
0101
0000
,  // measure 53
1000
1100
0001
0101
,  // measure 54
2000
3010
0200
0301
,  // measure 55
0020
0130
0002
1003
,  // measure 56
0100
0010
0001
1000
,  // measure 57
0010
0100
0001
1000
,  // measure 58
0100
0010
0100
0010
,  // measure 59
0001
1000
0010
0100
,  // measure 60
0001
0000
0001
0000
0001
0100
0001
0100
,  // measure 61
0000
0000
0010
0000
1000
0010
1000
0010
,  // measure 62
1000
0000
0100
0000
1000
0100
1000
0100
,  // measure 63
0000
0000
0010
0000
0001
0010
0001
0010
,  // measure 64
0001
0000
1000
0000
0001
1000
0001
1000
,  // measure 65
0000
0000
0010
0000
0100
0010
0100
0010
,  // measure 66
0100
0000
0001
0000
1000
0100
1000
0100
,  // measure 67
0000
0000
0010
0000
0001
1000
0100
1000
,  // measure 68
0001
0000
0100
0000
0010
1000
0010
1000
,  // measure 69
0000
0000
0001
0000
0010
0100
0010
0100
,  // measure 70
0010
0000
0001
0000
1000
0100
1000
0100
,  // measure 71
0000
0000
1000
0000
0001
0100
0010
1000
,  // measure 72
0001
0000
0010
0000
0100
1000
0100
1000
,  // measure 73
0000
0000
0010
0000
0100
0001
0100
0001
,  // measure 74
1000
0000
0010
0000
0100
0010
0100
0010
,  // measure 75
0000
0000
1000
0000
0001
1000
0100
0010
,  // measure 76
0001
0000
0011
0000
1000
0000
0010
0100
,  // measure 77
0000
0110
0001
1001
,  // measure 78
0100
0010
1000
1001
,  // measure 79
0010
0100
0001
1001
,  // measure 80
0001
0000
0010
0000
0100
0000
1000
0010
,  // measure 81
0000
0100
0001
1000
,  // measure 82
0010
0000
1000
0000
0001
0000
1000
0100
,  // measure 83
0000
1100
0010
0110
,  // measure 84
0100
0000
0101
0000
1000
0000
0010
0100
,  // measure 85
0000
0001
0010
0110
,  // measure 86
1000
0100
1000
1001
,  // measure 87
0001
0010
0001
1001
,  // measure 88
0100
0000
0010
0100
0000
0000
0001
0000
,  // measure 89
1000
0010
1000
0100
,  // measure 90
0010
0001
1000
0100
,  // measure 91
0010
0100
0010
0001
,  // measure 92
1000
0000
0010
0100
0000
0000
0001
0000
,  // measure 93
1000
0000
0000
0000
0010
1000
0000
0000
,  // measure 94
0001
0000
0100
0000
0010
0000
1000
0100
,  // measure 95
0000
0000
0000
0010
,  // measure 96
0001
0000
1000
0000
0010
0000
0100
0001
,  // measure 97
0000
0000
1000
0010
0000
0000
1000
0000
,  // measure 98
0100
0000
0010
0000
0001
0000
1000
0100
,  // measure 99
0000
0000
0010
0100
0000
0000
0010
0000
,  // measure 100
2002
0000
0000
0000
,  // measure 101
3003
0000
0010
0001
,  // measure 102
1000
0000
0001
0100
0000
0100
0010
0000
,  // measure 103
1000
0001
0010
0100
,  // measure 104
1000
0000
0001
0100
0000
0000
0101
0000
,  // measure 105
1000
1100
0001
0101
,  // measure 106
1000
0000
0001
0100
0000
0000
0101
0000
,  // measure 107
1000
1100
0001
0101
,  // measure 108
0010
0100
1000
1100
,  // measure 109
0001
0101
1000
1100
,  // measure 110
0002
0013
0200
1300
,  // measure 111
0020
0130
2000
3001
,  // measure 112
0100
0010
1000
1001
,  // measure 113
0010
0100
1000
1001
,  // measure 114
0100
0010
0100
0010
,  // measure 115
1000
0001
0010
0100
,  // measure 116
2002
0000
0000
0000
,  // measure 117
3003
1000
0010
1000
,  // measure 118
0001
0000
1000
0010
0000
0100
0001
0000
,  // measure 119
0010
0100
1000
0001
,  // measure 120
0100
0000
0010
0100
0000
0000
1001
0000
,  // measure 121
0100
1001
0100
1001
,  // measure 122
0001
0000
1000
0100
0000
0000
0110
0000
,  // measure 123
0001
1001
0100
0110
,  // measure 124
0010
0000
0100
0001
0000
0000
0101
0000
,  // measure 125
1000
1100
0001
0101
,  // measure 126
2000
3010
0200
0301
,  // measure 127
0020
0130
0002
1003
,  // measure 128
0100
0010
0001
1000
,  // measure 129
0010
0100
0001
1000
,  // measure 130
0100
0000
0010
0000
0100
0000
0010
0001
,  // measure 131
1000
0001
1000
0010
0100
0010
0100
0001
,  // measure 132
2000
0000
0000
0000
,  // measure 133
3000
0000
0000
0000
;

//---------------dance-single - ----------------
#NOTEDATA:;
#CHARTNAME:;
#STEPSTYPE:dance-single;
#DESCRIPTION:;
#CHARTSTYLE:;
#DIFFICULTY:Medium;
#METER:6;
#RADARVALUES:0.305677,0.320272,0.027521,0.055041,0.000000,311.000000,307.000000,4.000000,8.000000,0.000000,0.000000,0.000000,0.000000,0.000000,0.305677,0.320272,0.027521,0.055041,0.000000,311.000000,307.000000,4.000000,8.000000,0.000000,0.000000,0.000000,0.000000,0.000000;
#CREDIT:;
#NOTES:
// measure 0
0000
0000
0000
0000
,  // measure 1
0000
0000
0000
0000
,  // measure 2
0000
0000
0000
0000
,  // measure 3
0000
0000
0000
0000
,  // measure 4
1000
0100
1000
0000
,  // measure 5
0001
0010
0001
0000
,  // measure 6
1000
0010
1000
0000
,  // measure 7
0001
0100
0001
0000
,  // measure 8
1000
0000
0010
0000
,  // measure 9
0100
0001
1000
0000
,  // measure 10
0010
0000
0100
0000
,  // measure 11
0001
1000
0010
0000
,  // measure 12
1000
0000
0100
0000
,  // measure 13
0001
0010
0100
0000
,  // measure 14
0010
0000
0001
0000
,  // measure 15
1000
0010
0100
0000
,  // measure 16
0010
0000
1000
0000
,  // measure 17
0001
0000
0100
0000
,  // measure 18
0010
0100
0010
0000
,  // measure 19
1000
0001
1000
0000
,  // measure 20
0100
0000
0010
0000
,  // measure 21
0001
1000
0010
0000
,  // measure 22
0100
0001
1000
0000
,  // measure 23
0010
0000
0100
0000
,  // measure 24
0010
1000
0100
0000
,  // measure 25
0010
0001
0100
0000
,  // measure 26
0010
0000
1000
0000
,  // measure 27
0001
0100
0001
0000
,  // measure 28
0010
0100
1000
0000
,  // measure 29
0100
1000
0100
0000
,  // measure 30
0010
0001
1000
0000
,  // measure 31
0010
0100
0010
0000
,  // measure 32
1000
0001
1000
0000
,  // measure 33
0100
0000
0010
0000
,  // measure 34
0001
1000
0001
0000
,  // measure 35
0100
0000
0010
0000
,  // measure 36
1000
0000
0010
0000
,  // measure 37
0001
0000
0010
0000
,  // measure 38
1000
0100
0010
0000
,  // measure 39
0001
0000
0100
0000
,  // measure 40
1000
0000
0010
0000
,  // measure 41
0001
0100
0010
0000
,  // measure 42
1000
0000
0001
0000
,  // measure 43
0100
0000
0000
0000
,  // measure 44
2002
0000
3003
0010
,  // measure 45
0000
1000
0000
0010
,  // measure 46
0000
0001
0000
0010
,  // measure 47
0000
1000
0000
0100
,  // measure 48
0010
0001
0100
0000
,  // measure 49
0010
0000
0100
0000
,  // measure 50
0010
1000
0100
0000
,  // measure 51
0010
0000
0100
0000
,  // measure 52
1000
0000
0001
0000
,  // measure 53
0100
0000
0010
0000
,  // measure 54
1000
0001
0100
0000
,  // measure 55
0010
0000
0100
0000
,  // measure 56
0001
1000
0010
0000
,  // measure 57
0100
0000
0010
0000
,  // measure 58
1000
0000
0100
0000
,  // measure 59
0001
0000
0010
0000
,  // measure 60
0100
0000
0100
0000
,  // measure 61
0100
0000
0100
0000
,  // measure 62
1000
0000
1000
0000
,  // measure 63
0001
0000
0001
0000
,  // measure 64
0100
0000
0010
0000
,  // measure 65
0100
0010
0100
0000
,  // measure 66
0001
0000
1000
0000
,  // measure 67
0001
1000
0001
0000
,  // measure 68
0010
0000
0100
0000
,  // measure 69
0010
0100
0010
0000
,  // measure 70
0001
0000
0010
0000
,  // measure 71
0100
0010
0100
0000
,  // measure 72
1000
0000
0001
0000
,  // measure 73
1000
0001
1000
0000
,  // measure 74
0010
0000
0100
0000
,  // measure 75
0001
0000
1000
0000
,  // measure 76
0010
0000
0100
0000
,  // measure 77
0010
0100
0010
0000
,  // measure 78
1000
0000
0100
0000
,  // measure 79
0010
0000
0001
0000
,  // measure 80
1000
0001
1000
0000
,  // measure 81
0010
0000
0100
0000
,  // measure 82
0001
0000
0010
0000
,  // measure 83
0100
0010
0100
0000
,  // measure 84
1000
0000
0010
0000
,  // measure 85
1000
0010
1000
0000
,  // measure 86
0001
0100
0001
0000
,  // measure 87
1000
0010
1000
0000
,  // measure 88
0001
0000
0100
0000
,  // measure 89
0010
0000
1000
0000
,  // measure 90
0100
0000
0010
0000
,  // measure 91
0001
0000
1000
0000
,  // measure 92
0100
0000
0100
0000
,  // measure 93
0010
0000
0010
0000
,  // measure 94
0001
1000
0001
0000
,  // measure 95
0100
0000
0100
0000
,  // measure 96
0010
0000
0010
0000
,  // measure 97
1000
0000
1000
0000
,  // measure 98
0001
1000
0001
0000
,  // measure 99
0010
0000
0000
0000
,  // measure 100
2002
0000
3003
0010
,  // measure 101
0000
1000
0000
0010
,  // measure 102
0000
0001
0000
0010
,  // measure 103
0000
1000
0000
0100
,  // measure 104
0010
0001
0100
0000
,  // measure 105
0010
0000
0100
0000
,  // measure 106
0010
1000
0100
0000
,  // measure 107
0010
0000
0100
0000
,  // measure 108
1000
0100
1000
0000
,  // measure 109
0001
0000
0010
0000
,  // measure 110
0001
0100
0001
0000
,  // measure 111
1000
0000
0010
0000
,  // measure 112
1000
0100
0001
0000
,  // measure 113
0010
0000
0010
0000
,  // measure 114
0001
0100
1000
0000
,  // measure 115
0010
0000
0010
0000
,  // measure 116
2002
0000
3003
0010
,  // measure 117
0000
0001
0000
0010
,  // measure 118
0000
1000
0000
0010
,  // measure 119
0000
0001
0000
0100
,  // measure 120
0010
1000
0100
0000
,  // measure 121
0010
0000
0100
0000
,  // measure 122
0010
0001
0100
0000
,  // measure 123
0010
0000
0100
0000
,  // measure 124
0001
0100
0001
0000
,  // measure 125
0001
0000
0010
0000
,  // measure 126
1000
0100
1000
0000
,  // measure 127
0001
0000
0010
0000
,  // measure 128
0001
0100
1000
0000
,  // measure 129
0010
0000
0010
0000
,  // measure 130
1000
0100
0001
0000
,  // measure 131
0010
0000
0010
0000
,  // measure 132
2002
0000
0000
0000
,  // measure 133
3003
0000
0000
0000
;

//---------------dance-single - ----------------
#NOTEDATA:;
#CHARTNAME:;
#STEPSTYPE:dance-single;
#DESCRIPTION:;
#CHARTSTYLE:;
#DIFFICULTY:Easy;
#METER:3;
#RADARVALUES:0.232943,0.274519,0.027521,0.068802,0.000000,237.000000,233.000000,4.000000,10.000000,0.000000,0.000000,0.000000,0.000000,0.000000,0.232943,0.274519,0.027521,0.068802,0.000000,237.000000,233.000000,4.000000,10.000000,0.000000,0.000000,0.000000,0.000000,0.000000;
#CREDIT:;
#NOTES:
// measure 0
0000
0000
0000
0000
,  // measure 1
0000
0000
0000
0000
,  // measure 2
0000
0000
0000
0000
,  // measure 3
0000
0000
0000
0000
,  // measure 4
1000
0000
1000
0000
,  // measure 5
1000
0000
0100
0000
,  // measure 6
0001
0000
0100
0000
,  // measure 7
1000
0000
1000
0000
,  // measure 8
0001
0000
0001
0000
,  // measure 9
0001
0000
0100
0000
,  // measure 10
1000
0000
0100
0000
,  // measure 11
0001
0000
0100
0000
,  // measure 12
0010
0000
0010
0000
,  // measure 13
1000
0000
1000
0000
,  // measure 14
0100
0000
0010
0000
,  // measure 15
0001
0000
1000
0000
,  // measure 16
0001
0000
0001
0000
,  // measure 17
0010
0000
0010
0000
,  // measure 18
0100
0000
0100
0000
,  // measure 19
1000
0000
1000
0000
,  // measure 20
0010
0000
1000
0000
,  // measure 21
0100
0000
0100
0000
,  // measure 22
0001
0000
0001
0000
,  // measure 23
0100
0000
0100
0000
,  // measure 24
0010
0000
0001
0000
,  // measure 25
0100
0000
0100
0000
,  // measure 26
1000
0000
0100
0000
,  // measure 27
0001
0000
0001
0000
,  // measure 28
0010
0000
0100
0000
,  // measure 29
0010
0000
0100
0000
,  // measure 30
1000
0000
0100
0000
,  // measure 31
0010
0000
0001
0000
,  // measure 32
1000
0000
0001
0000
,  // measure 33
1000
0000
0001
0000
,  // measure 34
0100
0000
0010
0000
,  // measure 35
0100
0000
0010
0000
,  // measure 36
1000
0000
1000
0000
,  // measure 37
0010
0000
0010
0000
,  // measure 38
0001
0000
0001
0000
,  // measure 39
0010
0000
0010
0000
,  // measure 40
1000
0000
0100
0000
,  // measure 41
0001
0000
0100
0000
,  // measure 42
1000
0000
0100
0000
,  // measure 43
0001
0000
0000
0000
,  // measure 44
2002
0000
0000
0000
,  // measure 45
3003
0000
0100
0000
,  // measure 46
0010
0000
0100
0000
,  // measure 47
0010
0000
1000
0000
,  // measure 48
0100
0000
0010
0000
,  // measure 49
0100
0000
0010
0000
,  // measure 50
0001
0000
0100
0000
,  // measure 51
0010
0000
0100
0000
,  // measure 52
0010
0000
1000
0000
,  // measure 53
0010
0000
0001
0000
,  // measure 54
0010
0000
1000
0000
,  // measure 55
0010
0000
0001
0000
,  // measure 56
0020
0000
0000
0000
,  // measure 57
0000
0000
0000
0000
,  // measure 58
0030
0000
0000
0000
,  // measure 59
0000
0000
0000
0000
,  // measure 60
1000
0000
1000
0000
,  // measure 61
1000
0000
1000
0000
,  // measure 62
0100
0000
0100
0000
,  // measure 63
0010
0000
0010
0000
,  // measure 64
0001
0000
0001
0000
,  // measure 65
0001
0000
0001
0000
,  // measure 66
0100
0000
0100
0000
,  // measure 67
0010
0000
0010
0000
,  // measure 68
1000
0000
0010
0000
,  // measure 69
0001
0000
0010
0000
,  // measure 70
1000
0000
0100
0000
,  // measure 71
0001
0000
0100
0000
,  // measure 72
1000
0000
1000
0000
,  // measure 73
1000
0000
1000
0000
,  // measure 74
0001
0000
0001
0000
,  // measure 75
0001
0000
0001
0000
,  // measure 76
0100
0000
0010
0000
,  // measure 77
0100
0000
0010
0000
,  // measure 78
1000
0000
0001
0000
,  // measure 79
1000
0000
0001
0000
,  // measure 80
0010
0000
0100
0000
,  // measure 81
0010
0000
0100
0000
,  // measure 82
1000
0000
0100
0000
,  // measure 83
0001
0000
0100
0000
,  // measure 84
0010
0000
1000
0000
,  // measure 85
0010
0000
0001
0000
,  // measure 86
0010
0000
0100
0000
,  // measure 87
0010
0000
0100
0000
,  // measure 88
1000
0000
0001
0000
,  // measure 89
1000
0000
0001
0000
,  // measure 90
0100
0000
0010
0000
,  // measure 91
0100
0000
0010
0000
,  // measure 92
1000
0000
1000
0000
,  // measure 93
0100
0000
0000
0000
,  // measure 94
0001
0000
0001
0000
,  // measure 95
0010
0000
0000
0000
,  // measure 96
0100
0000
1000
0000
,  // measure 97
0010
0000
0100
0000
,  // measure 98
0001
0000
0010
0000
,  // measure 99
0100
0000
0000
0000
,  // measure 100
2002
0000
0000
0000
,  // measure 101
3003
0000
0100
0000
,  // measure 102
0010
0000
0100
0000
,  // measure 103
0010
0000
1000
0000
,  // measure 104
0100
0000
0010
0000
,  // measure 105
0100
0000
0010
0000
,  // measure 106
0001
0000
0100
0000
,  // measure 107
0010
0000
0100
0000
,  // measure 108
0010
0000
1000
0000
,  // measure 109
0010
0000
0001
0000
,  // measure 110
0010
0000
1000
0000
,  // measure 111
0010
0000
0001
0000
,  // measure 112
0010
0000
0010
0000
,  // measure 113
0010
0000
0100
0000
,  // measure 114
1000
0000
0100
0000
,  // measure 115
0001
0000
0100
0000
,  // measure 116
2002
0000
0000
0000
,  // measure 117
3003
0000
0100
0000
,  // measure 118
0010
0000
0100
0000
,  // measure 119
0010
0000
0001
0000
,  // measure 120
0100
0000
0010
0000
,  // measure 121
0100
0000
0010
0000
,  // measure 122
1000
0000
0100
0000
,  // measure 123
0010
0000
0100
0000
,  // measure 124
0010
0000
0001
0000
,  // measure 125
0010
0000
1000
0000
,  // measure 126
0010
0000
0001
0000
,  // measure 127
0010
0000
1000
0000
,  // measure 128
0020
0000
0000
0000
,  // measure 129
0000
0000
0000
0000
,  // measure 130
0030
0000
0000
0000
,  // measure 131
0000
0000
0000
0000
,  // measure 132
2002
0000
0000
0000
,  // measure 133
3003
0000
0000
0000
;

//---------------dance-single - ----------------
#NOTEDATA:;
#CHARTNAME:;
#STEPSTYPE:dance-single;
#DESCRIPTION:;
#CHARTSTYLE:;
#DIFFICULTY:Beginner;
#METER:2;
#RADARVALUES:0.133672,0.228766,0.027521,0.055041,0.000000,136.000000,132.000000,4.000000,8.000000,0.000000,0.000000,0.000000,0.000000,0.000000,0.133672,0.228766,0.027521,0.055041,0.000000,136.000000,132.000000,4.000000,8.000000,0.000000,0.000000,0.000000,0.000000,0.000000;
#CREDIT:;
#NOTES:
// measure 0
0000
0000
0000
0000
,  // measure 1
0000
0000
0000
0000
,  // measure 2
0000
0000
0000
0000
,  // measure 3
0000
0000
0000
0000
,  // measure 4
0010
0000
0000
0000
,  // measure 5
0010
0000
0000
0000
,  // measure 6
0100
0000
0000
0000
,  // measure 7
0100
0000
0000
0000
,  // measure 8
0001
0000
0000
0000
,  // measure 9
0001
0000
0000
0000
,  // measure 10
1000
0000
0000
0000
,  // measure 11
1000
0000
0000
0000
,  // measure 12
0010
0000
0000
0000
,  // measure 13
0100
0000
0000
0000
,  // measure 14
0010
0000
0000
0000
,  // measure 15
0100
0000
0000
0000
,  // measure 16
0001
0000
0000
0000
,  // measure 17
0010
0000
0000
0000
,  // measure 18
0100
0000
0000
0000
,  // measure 19
1000
0000
0000
0000
,  // measure 20
0010
0000
0000
0000
,  // measure 21
0010
0000
0000
0000
,  // measure 22
0100
0000
0000
0000
,  // measure 23
0100
0000
0000
0000
,  // measure 24
0001
0000
0000
0000
,  // measure 25
0001
0000
0000
0000
,  // measure 26
1000
0000
0000
0000
,  // measure 27
1000
0000
0000
0000
,  // measure 28
0100
0000
0000
0000
,  // measure 29
0100
0000
0000
0000
,  // measure 30
0010
0000
0000
0000
,  // measure 31
0010
0000
0000
0000
,  // measure 32
0001
0000
0000
0000
,  // measure 33
0000
0000
0000
0000
,  // measure 34
1000
0000
0000
0000
,  // measure 35
0000
0000
0000
0000
,  // measure 36
0010
0000
0000
0000
,  // measure 37
0000
0000
0000
0000
,  // measure 38
0100
0000
0000
0000
,  // measure 39
0000
0000
0000
0000
,  // measure 40
0010
0000
0000
0000
,  // measure 41
0000
0000
0000
0000
,  // measure 42
0100
0000
0000
0000
,  // measure 43
0000
0000
0000
0000
,  // measure 44
2002
0000
0000
0000
,  // measure 45
3003
0000
0000
0000
,  // measure 46
0010
0000
0010
0000
,  // measure 47
0010
0000
0010
0000
,  // measure 48
0100
0000
0000
0000
,  // measure 49
0100
0000
0000
0000
,  // measure 50
0100
0000
0000
0000
,  // measure 51
0100
0000
0000
0000
,  // measure 52
0001
0000
0000
0000
,  // measure 53
0100
0000
0000
0000
,  // measure 54
1000
0000
0000
0000
,  // measure 55
0100
0000
0000
0000
,  // measure 56
0001
0000
0000
0000
,  // measure 57
0010
0000
0000
0000
,  // measure 58
0100
0000
0000
0000
,  // measure 59
1000
0000
0000
0000
,  // measure 60
0010
0000
0000
0000
,  // measure 61
0100
0000
0000
0000
,  // measure 62
0010
0000
0000
0000
,  // measure 63
0100
0000
0000
0000
,  // measure 64
0001
0000
0001
0000
,  // measure 65
0001
0000
0000
0000
,  // measure 66
1000
0000
1000
0000
,  // measure 67
1000
0000
0000
0000
,  // measure 68
0100
0000
0000
0000
,  // measure 69
0010
0000
0000
0000
,  // measure 70
0100
0000
0000
0000
,  // measure 71
0010
0000
0000
0000
,  // measure 72
0001
0000
0000
0000
,  // measure 73
1000
0000
0000
0000
,  // measure 74
0010
0000
0000
0000
,  // measure 75
0100
0000
0000
0000
,  // measure 76
0001
0000
0000
0000
,  // measure 77
1000
0000
0000
0000
,  // measure 78
0001
0000
0000
0000
,  // measure 79
1000
0000
0000
0000
,  // measure 80
0100
0000
0100
0000
,  // measure 81
0100
0000
0000
0000
,  // measure 82
0010
0000
0010
0000
,  // measure 83
0010
0000
0000
0000
,  // measure 84
0001
0000
0000
0000
,  // measure 85
0010
0000
0000
0000
,  // measure 86
0100
0000
0000
0000
,  // measure 87
1000
0000
0000
0000
,  // measure 88
0010
0000
0000
0000
,  // measure 89
0100
0000
0000
0000
,  // measure 90
0010
0000
0000
0000
,  // measure 91
0100
0000
0000
0000
,  // measure 92
0001
0000
0001
0000
,  // measure 93
0001
0000
0000
0000
,  // measure 94
1000
0000
1000
0000
,  // measure 95
1000
0000
0000
0000
,  // measure 96
0100
0000
0000
0000
,  // measure 97
0010
0000
0000
0000
,  // measure 98
0001
0000
0000
0000
,  // measure 99
1000
0000
0000
0000
,  // measure 100
2002
0000
0000
0000
,  // measure 101
3003
0000
0000
0000
,  // measure 102
0010
0000
0010
0000
,  // measure 103
0010
0000
0010
0000
,  // measure 104
0100
0000
0000
0000
,  // measure 105
0100
0000
0000
0000
,  // measure 106
0100
0000
0000
0000
,  // measure 107
0100
0000
0000
0000
,  // measure 108
0001
0000
0000
0000
,  // measure 109
0100
0000
0000
0000
,  // measure 110
1000
0000
0000
0000
,  // measure 111
0100
0000
0000
0000
,  // measure 112
0001
0000
0000
0000
,  // measure 113
0010
0000
0000
0000
,  // measure 114
0100
0000
0000
0000
,  // measure 115
1000
0000
0000
0000
,  // measure 116
2002
0000
0000
0000
,  // measure 117
3003
0000
0000
0000
,  // measure 118
0010
0000
0010
0000
,  // measure 119
0010
0000
0010
0000
,  // measure 120
0100
0000
0000
0000
,  // measure 121
0100
0000
0000
0000
,  // measure 122
0100
0000
0000
0000
,  // measure 123
0100
0000
0000
0000
,  // measure 124
1000
0000
0000
0000
,  // measure 125
0100
0000
0000
0000
,  // measure 126
0001
0000
0000
0000
,  // measure 127
0100
0000
0000
0000
,  // measure 128
1000
0000
0000
0000
,  // measure 129
0010
0000
0000
0000
,  // measure 130
0100
0000
0000
0000
,  // measure 131
0001
0000
0000
0000
,  // measure 132
2002
0000
0000
0000
,  // measure 133
3003
0000
0000
0000
;
