#TITLE:I'd Love To Change The World;
#SUBTITLE:(Mastubs Remix);
#ARTIST:Jetta;
#TITLETRANSLIT:;
#SUBTITLETRANSLIT:;
#ARTISTTRANSLIT:;
#GENRE:I'd Love To Change The World;
#CREDIT:;
#BANNER:I'd Love To Change The World (Mastubs Remix)-bn.png;
#BACKGROUND:Black.png;
#LYRICSPATH:;
#CDTITLE:;
#MUSIC:I'd Love To Change The World (Mastubs Remix).mp3;
#OFFSET:-0.080000;
#SAMPLESTART:42.670853;
#SAMPLELENGTH:15.857143;
#LASTBEATHINT:264.070129;
#SELECTABLE:YES;
#BPMS:0.000000=140.000000
;
#STOPS:96.500000=0.643000,
135.000000=0.429000,
198.000000=0.429000
;
#BGCHANGES:-0.187=I'd Love To Change The World (Mastubs Remix)-video.avi=1.000=0=0=1=====,
99999=-nosongbg-=1.000=0=0=0 // don't automatically add -songbackground-
;
#KEYSOUNDS:;
#ATTACKS:;

//---------------dance-single - ----------------
#NOTES:
     dance-single:
     :
     Hard:
     7:
     0.427324,0.590041,0.855883,0.406328,0.021613,346.000000,247.000000,99.000000,47.000000,0.000000,0.000000,0.427324,0.590041,0.855883,0.406328,0.021613,346.000000,247.000000,99.000000,47.000000,0.000000,0.000000:
// measure 0
0000
0000
0000
0000
,  // measure 1
0000
0000
0000
0000
,  // measure 2
0000
0000
0000
0000
,  // measure 3
0000
0000
0000
0000
,  // measure 4
0000
0000
0000
0000
,  // measure 5
0000
0000
0000
0000
,  // measure 6
0000
0000
0000
0000
,  // measure 7
0000
0000
0000
0000
,  // measure 8
0220
0000
0330
0000
,  // measure 9
2002
0000
3003
0000
,  // measure 10
2020
0000
3030
0000
,  // measure 11
0202
0000
0303
0000
,  // measure 12
2002
0003
0020
0030
,  // measure 13
0002
3000
0020
0030
,  // measure 14
2000
0003
0020
0030
,  // measure 15
0002
3000
0020
0033
,  // measure 16
0110
0100
0100
0100
,  // measure 17
1000
0010
0100
0001
,  // measure 18
1000
1000
1000
1000
,  // measure 19
0100
0010
0001
0100
,  // measure 20
0010
1000
0010
1000
0100
0001
0100
0001
,  // measure 21
1000
0010
1000
0010
0001
0100
0001
0100
,  // measure 22
0010
1000
0100
0010
0001
0100
0010
1000
,  // measure 23
0001
0010
0100
1000
0001
1000
0100
0010
,  // measure 24
0100
0100
0000
0000
1100
0000
0101
0000
,  // measure 25
0011
1010
0110
2002
,  // measure 26
3003
2200
3300
0022
,  // measure 27
0033
0110
1100
0202
,  // measure 28
0303
2020
3030
0101
,  // measure 29
0101
0000
1100
0000
0110
0000
1001
2002
,  // measure 30
3003
0021
0130
1020
,  // measure 31
0130
0110
0101
2001
,  // measure 32
3100
1002
0103
1010
,  // measure 33
1010
0110
0101
1001
,  // measure 34
2001
3010
1020
0130
,  // measure 35
0110
0101
0021
0130
,  // measure 36
0210
1300
1001
1010
,  // measure 37
1001
0101
2001
3100
,  // measure 38
1002
0013
1002
0103
,  // measure 39
0101
1100
0120
0031
,  // measure 40
0210
1300
1001
1010
,  // measure 41
1001
0000
0101
0001
1100
0000
1100
0001
,  // measure 42
1010
0000
1010
0001
1010
0000
0110
0000
,  // measure 43
0101
0000
0101
1000
0101
0000
0011
1000
,  // measure 44
0110
0000
1100
0010
1100
0000
0110
0000
,  // measure 45
0011
0000
1001
0000
0110
0220
0330
0001
,  // measure 46
1001
0000
1001
0010
1100
0000
1100
0000
,  // measure 47
0101
0000
1010
0000
0101
0000
0011
1000
,  // measure 48
0101
0000
1010
0001
1100
0010
0100
0001
,  // measure 49
0000
1000
0000
0010
0110
0000
1001
0000
,  // measure 50
1100
0000
0000
0000
0010
0000
0000
0000
1000
0000
0100
0000
0010
0000
0001
0010
,  // measure 51
0100
0000
0000
0000
0010
0000
0000
0000
0001
0000
1000
0000
0010
0000
1000
0001
,  // measure 52
0100
0202
0303
1100
,  // measure 53
0101
0000
0000
0000
0110
0000
0110
0000
0010
0000
1000
0000
0001
0000
1000
0010
,  // measure 54
0100
0000
0000
0000
0010
0000
0000
0000
1000
0000
0001
0000
0100
0000
0001
1000
,  // measure 55
0010
0000
0000
0000
0100
0000
0000
0000
0010
0000
1000
0000
0100
0000
0010
0001
,  // measure 56
0100
0010
0000
1000
0000
0001
0000
0100
,  // measure 57
0000
0020
0000
0000
0000
0000
1000
0000
,  // measure 58
0130
0001
0100
0010
,  // measure 59
1000
0001
0100
0010
,  // measure 60
1000
0100
0010
0001
,  // measure 61
0001
1000
0100
0000
0110
0000
1001
0000
,  // measure 62
0010
0100
0001
1001
,  // measure 63
0010
0100
1000
1001
,  // measure 64
0100
0010
0001
0101
,  // measure 65
1010
0000
0000
0000
;

//---------------dance-single - ----------------
#NOTES:
     dance-single:
     :
     Medium:
     4:
     0.287764,0.393360,0.544653,0.708913,0.000000,233.000000,170.000000,63.000000,82.000000,0.000000,0.000000,0.287764,0.393360,0.544653,0.708913,0.000000,233.000000,170.000000,63.000000,82.000000,0.000000,0.000000:
0000
0000
0000
0000
,
0000
0000
0000
0000
,
0000
0000
0000
0000
,
0000
0000
0000
0000
,
0000
0000
0000
0000
,
0000
0000
0000
0000
,
0000
0000
0000
0000
,
0000
0000
0000
0000
,
0020
0000
0030
0000
,
2000
0000
3000
0000
,
0002
0000
0003
0000
,
0200
0300
0020
0030
,
2000
0000
3000
0000
,
0200
0000
0300
0000
,
0020
0000
0030
0000
,
0002
0003
2000
3000
,
0100
0100
0100
0100
,
0010
0010
0010
0010
,
0001
0001
0001
0001
,
1000
1000
0010
0010
,
0100
0100
0100
0100
,
0001
0001
0001
0001
,
1000
1000
1000
1000
,
0010
0010
0100
0100
,
0110
0000
1000
0100
,
0001
0010
0100
2002
,
3003
0220
0330
2002
,
3003
0110
1001
0220
,
0330
2002
3003
0010
,
0010
0100
0110
2002
,
3003
0220
0330
2002
,
3003
1010
1001
0202
,
0303
0202
0303
0010
,
0010
0100
0100
1001
,
2002
3003
0220
0330
,
1000
0001
0220
0330
,
2002
3003
1010
1001
,
0101
1001
2020
3030
,
0202
0303
0022
0033
,
0110
1100
0202
0303
,
2200
3300
0110
1001
,
0011
1010
2002
3003
,
2200
3300
2002
3003
,
0101
1001
0202
0303
,
2002
3003
2200
3300
,
1001
0101
0220
0330
,
2002
3003
0220
0330
,
1010
0110
0202
0303
,
0022
0033
0220
0330
,
1100
1001
0101
0010
,
0100
0000
0010
0000
1000
0001
0100
0000
,
0010
0000
0100
0000
0001
1000
0010
0000
,
0100
0010
0000
1100
,
0101
0000
0010
0000
0000
0000
0001
1000
,
0010
0000
0100
0000
0010
1000
0100
0000
,
0100
0000
0010
0000
0001
1000
0010
0000
,
0010
2020
3030
1001
,
0110
2002
3003
0100
,
0010
2000
0000
3100
,
0010
0002
0000
0103
,
0010
2000
0000
3001
,
0010
0001
0100
0020
,
0000
1030
0100
0020
,
0000
0130
1000
0002
,
0000
0103
0010
1000
,
0001
0000
0000
0000
;

//---------------dance-single - ----------------
#NOTES:
     dance-single:
     :
     Easy:
     3:
     0.197606,0.309069,0.077808,0.268004,0.000000,160.000000,151.000000,9.000000,31.000000,0.000000,0.000000,0.197606,0.309069,0.077808,0.268004,0.000000,160.000000,151.000000,9.000000,31.000000,0.000000,0.000000:
0000
0000
0000
0000
,
0000
0000
0000
0000
,
0000
0000
0000
0000
,
0000
0000
0000
0000
,
0000
0000
0000
0000
,
0000
0000
0000
0000
,
0000
0000
0000
0000
,
0000
0000
0000
0000
,
0020
0000
0030
0000
,
0200
0000
0300
0000
,
0020
0000
0030
0000
,
2000
3000
0002
0003
,
0200
0000
0300
0000
,
0020
0000
0030
0000
,
2000
0000
3000
0000
,
0002
0003
0020
0030
,
0200
0000
0000
0300
,
2000
0000
0000
3000
,
0002
0000
0000
0003
,
0010
0010
0100
0100
,
2000
0000
0000
3000
,
0020
0000
0000
0030
,
0200
0000
0000
0300
,
0002
0003
2000
3000
,
1001
0000
0010
1000
,
0100
0010
0001
1000
,
0000
0010
0000
0001
,
0000
0010
0100
1000
,
0000
1000
0000
0010
,
0010
1000
0100
0010
,
0000
0001
0000
1000
,
0000
0010
1000
0001
,
0000
0001
0000
0010
,
0100
0010
0100
1001
,
0110
0000
1000
0001
,
0100
0010
0110
0000
,
1001
0000
0010
1000
,
0001
0100
1001
0000
,
0101
0000
0010
1000
,
0001
1000
0101
0000
,
1100
0000
0010
0001
,
1000
0100
0020
0000
,
0130
0000
2000
0000
,
3001
0010
0002
0000
,
0103
0000
2000
0000
,
3010
0100
0001
0010
,
1000
0100
0010
0100
,
0010
0010
0001
0000
,
1000
0000
0001
1000
,
0100
0100
0001
1000
,
0001
0100
0100
1000
,
0001
0100
0100
1000
,
0001
0100
0000
0010
,
1000
0100
0001
1000
,
0100
0100
0001
1000
,
0100
0100
0001
1000
,
0100
0100
0010
0001
,
1000
0020
0000
1030
,
0010
0200
0000
0310
,
0100
0002
0000
1003
,
0010
0200
0000
0302
,
0000
0023
0000
0031
,
1000
0200
0000
1300
,
0010
0200
0000
0310
,
1000
0200
0000
0310
,
0001
0000
0000
0000
;

//---------------dance-single - ----------------
#NOTES:
     dance-single:
     :
     Beginner:
     2:
     0.150675,0.223913,0.000000,0.000000,0.000000,122.000000,122.000000,0.000000,0.000000,0.000000,0.000000,0.150675,0.223913,0.000000,0.000000,0.000000,122.000000,122.000000,0.000000,0.000000,0.000000,0.000000:
0000
0000
0000
0000
,
0000
0000
0000
0000
,
0000
0000
0000
0000
,
0000
0000
0000
0000
,
0000
0000
0000
0000
,
0000
0000
0000
0000
,
0000
0000
0000
0000
,
0000
0000
0000
0000
,
0010
0000
0000
0000
,
0100
0000
0000
0000
,
0001
0000
0000
0000
,
1000
0000
0100
0000
,
1000
0000
0000
0000
,
0010
0000
0000
0000
,
0100
0000
0000
0000
,
0001
0000
1000
0000
,
0100
0000
0000
0000
,
0010
0000
0000
0000
,
0001
0000
0000
0000
,
1000
0000
0100
0000
,
1000
0000
0000
0000
,
0010
0000
0000
0000
,
0100
0000
0000
0000
,
0001
0000
0010
0000
,
0001
0000
0000
0010
,
0000
0100
0000
1000
,
0000
0100
0000
0010
,
0000
0001
0001
0001
,
0000
0100
0000
0010
,
0010
0010
0010
0010
,
0000
1000
0000
0100
,
0000
0010
0010
0010
,
0000
0001
0000
1000
,
1000
1000
1000
1000
,
0010
0000
0100
0000
,
0001
0001
0001
0000
,
0010
0000
0100
0100
,
0100
0100
0100
0000
,
0010
0000
0001
0000
,
1000
1000
1000
0000
,
0010
0000
0100
0100
,
0100
0100
0100
0000
,
0010
0000
0100
0000
,
0010
0010
0010
0000
,
0100
0000
0010
0000
,
0100
0100
0100
0000
,
0001
0000
1000
0000
,
0001
0001
0001
0000
,
1000
0000
0001
0000
,
1000
1000
1000
1000
,
1000
0000
0010
0010
,
0010
0000
0100
0100
,
0100
0100
0000
0001
,
0001
0001
0001
0001
,
0001
0000
0010
0010
,
0010
0000
0100
0100
,
0100
0100
0000
1000
,
1000
1000
0000
0100
,
0000
0000
0000
0010
,
0000
0000
0000
0100
,
0000
0000
0000
0001
,
0000
0001
0000
0001
,
0000
0000
0000
1000
,
0000
0000
0000
0010
,
0000
0000
0000
1000
;
