#VERSION:0.83;
#TITLE:I Took A Pill In Ibiza;
#SUBTITLE:(SeeB Remix);
#ARTIST:Mike Posner;
#TITLETRANSLIT:;
#SUBTITLETRANSLIT:;
#ARTISTTRANSLIT:;
#GENRE:At Night, Alone;
#ORIGIN:;
#CREDIT:;
#BANNER:I Took A Pill In Ibiza (SeeB Remix)-bn.png;
#BACKGROUND:I Took A Pill In Ibiza (SeeB Remix)-bg.png;
#PREVIEWVID:;
#JACKET:I Took A Pill In Ibiza (SeeB Remix)-jacket.png;
#CDIMAGE:;
#DISCIMAGE:;
#LYRICSPATH:;
#CDTITLE:;
#MUSIC:I Took A Pill In Ibiza (SeeB Remix).mp3;
#OFFSET:1.145000;
#SAMPLESTART:95.303246;
#SAMPLELENGTH:18.823524;
#SELECTABLE:YES;
#BPMS:0.000=102.000;
#STOPS:;
#DELAYS:;
#WARPS:;
#TIMESIGNATURES:0.000=4=4;
#TICKCOUNTS:0.000=2;
#COMBOS:0.000=1;
#SPEEDS:0.000=1.000=0.000=0;
#SCROLLS:0.000=1.000;
#FAKES:;
#LABELS:0.000=Song Start;
#LASTSECONDHINT:135.363220;
#BGCHANGES:1.667=I Took A Pill In Ibiza-video.avi=1.000=1=0=0=StretchNoLoop==CrossFade==,
99999=-nosongbg-=1.000=0=0=0 // don't automatically add -songbackground-
;
#KEYSOUNDS:;
#ATTACKS:
;

//---------------dance-single - ----------------
#NOTEDATA:;
#CHARTNAME:;
#STEPSTYPE:dance-single;
#DESCRIPTION:;
#CHARTSTYLE:;
#DIFFICULTY:Hard;
#METER:8;
#RADARVALUES:0.404621,0.372563,0.130724,0.726243,0.344965,390.000000,372.000000,18.000000,100.000000,0.000000,0.000000,6.000000,0.000000,0.000000,0.404621,0.372563,0.130724,0.726243,0.344965,390.000000,372.000000,18.000000,100.000000,0.000000,0.000000,6.000000,0.000000,0.000000;
#CREDIT:;
#NOTES:
0000
0000
0000
0000
,
0002
0000
0000
0100
0000
0000
0100
0000
0000
0100
0000
0000
0103
0000
0000
0000
,
2000
0000
0000
0100
0000
0000
0100
0000
0000
0100
0000
0000
3100
0000
0000
0000
,
0002
0000
0000
0010
0000
0000
1000
0000
0000
0010
0000
0000
1003
0000
0000
0000
,
2000
0000
0000
0010
0000
0000
0001
0000
0000
0010
0000
0000
3001
0000
0000
0000
,
0200
0000
0000
1000
0000
0000
0010
0000
0000
0001
0000
0000
0310
0000
0000
0000
,
0002
0000
0000
0010
0000
0000
1000
0000
0000
0100
0000
0000
1003
0000
0000
0000
,
0020
0000
0000
1000
0000
0000
0100
0000
0000
0001
0000
0000
0130
0000
0000
0000
,
2000
0000
0000
0100
0000
0000
0001
0000
0000
0010
0000
0000
3001
0000
0000
0000
,
0012
0000
0000
1000
0000
0000
0103
0000
0000
0000
0001
0000
0100
0000
0010
0000
,
2010
0000
0000
0001
0000
0000
3100
0000
0000
0000
1000
0000
0100
0000
0010
0000
,
0001
0000
0000
0100
0000
0000
0010
0000
0000
1000
0000
0000
0001
0000
1000
0000
,
0001
0000
0000
0010
0000
0000
1000
0000
0000
0000
0100
0000
1000
0000
0001
0000
,
0201
0000
0000
0010
0000
0000
0301
0000
0000
0000
1000
0000
0010
0000
0100
0000
,
1020
0000
0000
0100
0000
0000
1030
0000
0000
0000
0001
0000
0010
0000
0100
0000
,
1000
0000
0000
0001
0000
0000
0100
0000
0000
0010
0000
0000
1000
0000
0000
0000
,
0001
0000
0000
1000
0000
0000
0010
0000
0000
0100
0000
0000
0001
0000
0000
0000
,
1000
0000
0010
0000
1000
0000
0010
0000
1000
0000
0010
0000
1000
0000
0001
1000
,
0000
0000
0100
0000
1000
0000
0100
0000
1000
0000
0100
0000
1000
0000
0001
0100
,
0000
0000
0001
0000
1000
0000
0001
0000
0100
0000
0001
0000
1000
0000
0001
0100
,
0000
0000
0001
0000
1000
0000
0001
0000
0100
0000
0001
0000
1000
0001
0000
0000
,
0010
0000
0001
0000
0010
0000
0001
0000
0010
0000
0001
0000
1000
0000
0001
0010
,
0000
0000
0100
0000
1000
0000
0100
0000
1000
0000
0100
0000
1000
0000
0001
1000
,
0000
0000
0010
0000
1000
0000
0001
0000
1000
0000
0100
0000
1000
0000
0001
1000
,
0000
0010
0100
0001
1000
0010
1000
1010
,
0002
0003
0000
0000
2002
3003
0000
0000
0200
0300
0000
0020
0030
0000
2020
3030
,
0000
0000
0002
0003
2000
3000
0200
0300
0000
4000
3002
0003
0200
0300
0020
0030
,
2000
3000
0020
0030
2020
3030
0000
0000
2000
3000
0000
0002
0003
0000
0100
0000
,
0100
0000
0000
0010
0000
0000
0000
0000
1000
0100
0000
0010
0000
0001
0100
0000
,
0002
0003
0000
0000
2002
3003
0000
0000
0200
0300
0000
0002
0003
0000
2002
3003
,
0000
0000
0002
0003
0020
0030
2000
3000
0000
0004
0203
0300
0020
0030
2000
3000
,
0002
0003
0020
0030
0022
0033
0000
0000
0200
0300
0000
2000
3000
0000
0010
0000
,
0010
0000
0000
0100
0000
0000
0000
0000
0001
1000
0000
0010
0000
0100
0001
0000
,
2000
0000
0000
0010
0000
0000
0010
0000
0000
0010
0000
0000
3010
0000
0000
0100
,
0002
0000
0000
0100
0000
0000
0100
0000
0000
0100
0000
0000
0103
0000
0000
0010
,
2000
0000
0000
0100
0000
0000
0100
0000
0000
0100
0000
0000
3100
0010
0000
0002
,
0000
0000
0000
0100
0000
0000
0100
0000
0000
0100
0000
0000
0103
0001
0000
0000
,
1000
0000
0010
0000
0100
0000
0001
0000
1000
0000
0010
0000
0100
0000
0001
1000
,
0000
0000
0010
0000
1000
0000
0100
0000
0010
0000
0001
0000
1000
0000
0100
0010
,
0000
0000
0001
0000
0100
0000
0010
0000
0100
0000
0001
0000
0100
0000
0010
1000
,
0000
0001
0010
0100
1000
0001
0010
0011
,
2000
3000
0000
0000
2002
3003
0000
0000
0200
0300
0000
0020
0030
0000
0202
0303
,
0000
0000
0200
0300
0002
0003
2000
3000
0000
0004
0023
0030
0200
0300
2000
3000
,
0002
0003
0020
0030
2200
3300
0000
0000
0002
0003
0000
0020
0030
0000
0100
0000
,
0100
0000
0000
1000
0000
0000
0000
0000
0001
0010
0000
0100
0000
1000
0010
0000
,
2000
3000
0000
0000
2002
3003
0000
0000
0200
0300
0000
0020
0030
0000
2002
3003
,
0000
0000
2000
3000
0200
0300
0020
0030
0000
4000
3200
0300
0002
0003
0020
0030
,
0200
0300
2000
3000
0202
0303
0000
0000
2000
3000
0000
0020
0030
0000
0100
0000
,
0100
0000
0000
0001
0000
0000
0000
0000
1000
0001
0000
0100
0000
0010
1000
0000
,
0100
0000
0001
0000
0100
0000
1000
0000
0010
0000
1000
0001
0000
1000
0001
0000
,
0010
0000
0001
0000
0100
0000
0001
0000
0000
4000
3020
0030
0200
0300
0002
0003
,
1000
0000
0010
0000
1000
0000
0001
0000
1000
0000
0100
0010
0000
0100
0010
0000
,
0001
0000
1000
0001
0000
0000
0000
0000
1000
0010
0000
0100
0000
0001
1000
0000
,
0001
0000
0010
0000
1000
0000
0010
0000
0001
0000
0010
0100
0000
0010
0100
0000
,
1000
0000
0010
0000
0100
0000
0001
0000
0000
0004
0023
0030
0200
0300
2000
3000
,
0001
0000
0100
0000
1000
0000
0100
0000
0001
0000
1000
0010
0000
0100
0001
0000
,
1000
0000
0010
1000
0000
0000
0000
0001
2000
0000
0000
0002
0000
0000
0000
0000
,
3003
0000
0000
0000
;

//---------------dance-single - ----------------
#NOTEDATA:;
#CHARTNAME:;
#STEPSTYPE:dance-single;
#DESCRIPTION:;
#CHARTSTYLE:;
#DIFFICULTY:Medium;
#METER:6;
#RADARVALUES:0.268710,0.289771,0.014525,0.305022,0.043575,259.000000,257.000000,2.000000,42.000000,0.000000,0.000000,0.000000,0.000000,0.000000,0.268710,0.289771,0.014525,0.305022,0.043575,259.000000,257.000000,2.000000,42.000000,0.000000,0.000000,0.000000,0.000000,0.000000;
#CREDIT:;
#NOTES:
0000
0000
0000
0000
,
0002
0000
0010
0000
0010
0000
0013
0100
,
2000
0100
0100
3100
,
0020
0001
0100
0031
,
2000
0100
0001
3100
,
0002
0000
0100
0000
0100
0000
0103
0010
,
2000
0100
0100
3100
,
0020
0100
1000
0130
,
0002
0010
1000
0103
,
0010
0000
1000
0000
0001
0000
0100
0001
,
0010
0000
0100
0000
1000
0000
0001
0010
,
0100
1000
0001
0010
,
0001
0000
0100
0000
0010
0000
1000
0001
,
0100
0000
0010
0000
0100
0000
0001
1000
,
0010
0000
0100
0000
0010
0000
1000
0100
,
0010
0001
0200
0300
,
0010
1000
0200
0300
,
2000
0000
0100
0000
0001
0000
3100
0001
,
0100
0000
1000
0000
0100
0000
0010
0001
,
0010
0000
0100
0000
1000
0000
0010
1000
,
0010
0100
0010
1000
,
0002
0000
0100
0000
0100
0000
0103
1000
,
0100
0000
0010
0000
0100
0000
0001
0010
,
0001
0000
0010
0000
0100
0000
1000
0100
,
1000
0000
0010
0000
0100
0000
0001
1000
,
0001
0000
0000
0000
0010
0000
0000
0000
0200
0000
0000
1000
0000
0000
1300
0000
,
0000
0001
2000
0000
3000
0010
0200
0000
,
0301
0000
0100
0000
0001
0000
0000
0000
2000
0000
0000
0010
0000
0000
3010
0000
,
0100
0000
0001
0000
0010
0100
1000
0000
,
0010
0000
0000
0000
0100
0000
0000
0000
0002
0000
0000
1000
0000
0000
1003
0000
,
0000
0010
0200
0000
0300
0001
0020
0000
,
0130
0000
1000
0000
0001
0000
0000
0000
2000
0000
0000
0010
0000
0000
3010
0000
,
0100
0001
1000
0010
,
0200
0000
0000
0000
0000
0000
0301
1000
,
0002
0000
0000
0013
,
0200
0000
0000
0000
0000
0000
1300
0010
,
2000
0000
0000
3010
,
0100
0001
1000
0000
0010
0000
1001
0000
,
0010
1000
0001
0000
0100
0000
1001
0000
,
0010
1000
0010
0000
0100
0001
0100
0000
,
0010
1000
0200
0300
,
1000
0000
0000
0000
0010
0000
0000
0000
0200
0000
0000
0001
0000
0000
0301
0000
,
0000
1000
0020
0000
0030
1000
0200
0000
,
0310
0000
0001
0000
0100
0000
0000
0000
0020
0000
0000
1000
0000
0000
1030
0000
,
0100
0000
1000
0000
0001
0100
1000
0000
,
0010
0000
0000
0000
0100
0000
0000
0000
0002
0000
0000
0010
0000
0000
0013
0000
,
0000
0100
2000
0000
3000
0100
0020
0000
,
0031
0000
0100
0000
0001
0000
0000
0000
2000
0000
0000
0010
0000
0000
3010
0000
,
0100
0000
0001
0000
0010
0100
1000
0001
,
1000
0000
0000
0000
0010
0000
0000
0000
0200
0000
0000
0001
0000
0000
0301
0000
,
0000
1000
0002
0000
0003
0010
0200
0000
,
1300
0000
0100
0000
1000
0000
0000
0000
0002
0000
0000
0010
0000
0000
0013
0000
,
0100
0000
1000
0000
0010
0100
0001
0000
,
0010
0000
0000
0000
0100
0000
0000
0000
2000
0000
0000
0001
0000
0000
3001
0000
,
0000
0010
0200
0000
0300
1000
0020
0000
,
0130
0000
0001
0000
1000
0000
0000
0000
0002
0000
0000
0010
0000
0000
0013
0000
,
0100
0000
1000
0000
0001
0010
0200
0000
,
0300
0000
0000
0000
;

//---------------dance-single - ----------------
#NOTEDATA:;
#CHARTNAME:;
#STEPSTYPE:dance-single;
#DESCRIPTION:;
#CHARTSTYLE:;
#DIFFICULTY:Easy;
#METER:3;
#RADARVALUES:0.188823,0.206071,0.072624,0.399434,0.000000,182.000000,172.000000,10.000000,55.000000,0.000000,0.000000,0.000000,0.000000,0.000000,0.188823,0.206071,0.072624,0.399434,0.000000,182.000000,172.000000,10.000000,55.000000,0.000000,0.000000,0.000000,0.000000,0.000000;
#CREDIT:;
#NOTES:
// measure 0
0000
0000
0000
0000
,  // measure 1
0002
0000
0000
0013
,  // measure 2
0200
0000
0000
1300
,  // measure 3
0020
0130
0002
0013
,  // measure 4
0200
1300
0010
0000
,  // measure 5
0200
0000
0000
0310
,  // measure 6
2000
0000
0000
3001
,  // measure 7
0020
0130
2000
3010
,  // measure 8
0200
0301
1000
0000
,  // measure 9
0002
0010
0013
0000
,  // measure 10
2000
0010
3010
0000
,  // measure 11
0200
0301
2000
3100
,  // measure 12
0002
1003
0100
0000
,  // measure 13
0020
0130
0110
0000
,  // measure 14
2000
3001
1001
0000
,  // measure 15
0200
0310
2000
3001
,  // measure 16
0020
0130
0002
1003
,  // measure 17
0200
0000
0000
1300
,  // measure 18
0002
0000
0000
0103
,  // measure 19
2000
0000
0000
3010
,  // measure 20
0002
0000
0003
1001
,  // measure 21
0200
0000
0000
0310
,  // measure 22
2000
0000
0000
3100
,  // measure 23
0002
0000
0000
1003
,  // measure 24
0002
0000
0000
0003
,  // measure 25
0010
0100
1000
1000
,  // measure 26
0020
0200
0330
1001
,  // measure 27
1000
1000
1000
0000
0010
0000
0100
0000
,  // measure 28
0002
0000
1000
1003
,  // measure 29
0100
0010
0001
0001
,  // measure 30
2000
0200
3300
1001
,  // measure 31
0001
0001
0001
0000
0100
0000
0010
0000
,  // measure 32
2000
0000
0001
3001
,  // measure 33
0200
0000
0000
0301
,  // measure 34
2000
0000
0000
3100
,  // measure 35
0002
0000
0000
0013
,  // measure 36
2000
0000
3000
1001
,  // measure 37
0200
0010
0000
0310
,  // measure 38
0002
0100
0000
0103
,  // measure 39
2000
0001
0000
3001
,  // measure 40
0200
0000
0000
0300
,  // measure 41
0010
0100
0001
0001
,  // measure 42
0020
0200
0330
1001
,  // measure 43
0001
0001
0001
0000
0010
0000
0100
0000
,  // measure 44
2000
0000
0001
3001
,  // measure 45
0100
0010
1000
1000
,  // measure 46
0002
0200
0303
1001
,  // measure 47
1000
1000
1000
0000
0100
0000
0010
0000
,  // measure 48
0002
0000
1000
1003
,  // measure 49
0001
0010
0100
1000
,  // measure 50
0002
2000
3003
1001
,  // measure 51
0100
0100
0100
0000
0001
0000
0010
0000
,  // measure 52
0200
0000
0010
0310
,  // measure 53
0001
0100
0010
1000
,  // measure 54
0002
2000
3003
0110
,  // measure 55
1000
1000
1000
0000
0100
0000
0010
0000
,  // measure 56
0002
0000
1000
1003
;

//---------------dance-single - ----------------
#NOTEDATA:;
#CHARTNAME:;
#STEPSTYPE:dance-single;
#DESCRIPTION:;
#CHARTSTYLE:;
#DIFFICULTY:Beginner;
#METER:1;
#RADARVALUES:0.115161,0.123098,0.000000,0.196086,0.000000,111.000000,111.000000,0.000000,27.000000,0.000000,0.000000,0.000000,0.000000,0.000000,0.115161,0.123098,0.000000,0.196086,0.000000,111.000000,111.000000,0.000000,27.000000,0.000000,0.000000,0.000000,0.000000,0.000000;
#CREDIT:;
#NOTES:
// measure 0
0000
0000
0000
0000
,  // measure 1
0002
0000
0000
0003
,  // measure 2
0020
0000
0000
0030
,  // measure 3
0200
0300
2000
3000
,  // measure 4
0002
0003
0200
0300
,  // measure 5
0020
0000
0000
0030
,  // measure 6
2000
0000
0000
3000
,  // measure 7
0002
0003
0020
0030
,  // measure 8
0200
0300
2000
3000
,  // measure 9
0020
0000
0030
0000
,  // measure 10
0200
0000
0300
0000
,  // measure 11
0020
0030
0020
0030
,  // measure 12
2000
3000
2000
3000
,  // measure 13
0200
0000
0000
0300
,  // measure 14
0020
0000
0000
0030
,  // measure 15
0002
0003
0002
0003
,  // measure 16
0200
0000
0000
0300
,  // measure 17
0020
0000
0030
0010
,  // measure 18
0010
0000
0000
0100
,  // measure 19
0100
0000
0000
0100
,  // measure 20
0100
0000
0000
0000
,  // measure 21
0020
0000
0030
0010
,  // measure 22
0010
0000
0000
0100
,  // measure 23
0100
0000
0000
0100
,  // measure 24
0100
0000
0000
0000
,  // measure 25
0001
0001
0001
0000
,  // measure 26
1000
0000
0100
0000
,  // measure 27
1000
1000
1000
0000
,  // measure 28
0010
0000
0100
0000
,  // measure 29
0001
0001
0001
0000
,  // measure 30
0010
0000
0001
0000
,  // measure 31
1000
1000
1000
0000
,  // measure 32
0010
0000
0100
0000
,  // measure 33
0002
0000
0003
0001
,  // measure 34
0001
0000
0000
0010
,  // measure 35
0010
0000
0000
0100
,  // measure 36
0100
0000
0000
0000
,  // measure 37
2000
0000
3000
1000
,  // measure 38
1000
0000
0000
0010
,  // measure 39
0010
0000
0000
0100
,  // measure 40
0100
0000
0000
0000
,  // measure 41
0001
0001
0001
0000
,  // measure 42
0000
0010
0000
0100
,  // measure 43
0100
0100
0100
0000
,  // measure 44
1000
0000
0010
0000
,  // measure 45
1000
1000
1000
0000
,  // measure 46
0000
0010
0000
0100
,  // measure 47
0100
0100
0100
0000
,  // measure 48
0001
0000
0010
0000
,  // measure 49
0100
0100
0100
0000
,  // measure 50
1000
0000
0001
0000
,  // measure 51
0100
0100
0100
0000
,  // measure 52
0010
0000
1000
0000
,  // measure 53
0001
0001
0001
0000
,  // measure 54
0010
0000
0100
0000
,  // measure 55
1000
1000
1000
0000
,  // measure 56
0010
0000
0100
0000
;
