#TITLE:I Need Your Love;
#SUBTITLE:;
#ARTIST:Calvin Harris feat. Ellie Goulding;
#TITLETRANSLIT:;
#SUBTITLETRANSLIT:;
#ARTISTTRANSLIT:;
#GENRE:Halcyon;
#CREDIT:;
#BANNER:I Need Your Love-bn.png;
#BACKGROUND:I Need Your Love-bg.png;
#LYRICSPATH:;
#CDTITLE:;
#MUSIC:I Need Your Love.mp3;
#OFFSET:-0.024000;
#SAMPLESTART:30.741110;
#SAMPLELENGTH:15.360003;
#SELECTABLE:YES;
#DISPLAYBPM:125.000000;
#BPMS:0.000000=124.999992
;
#STOPS:
;
#BGCHANGES:0.000=I Need Your Love.avi=1.000=0=0=0=StretchNoLoop====,
99999=-nosongbg-=1.000=0=0=0 // don't automatically add -songbackground-
;
#KEYSOUNDS:;
#ATTACKS:;

//---------------dance-single - ----------------
#NOTES:
     dance-single:
     :
     Challenge:
     9:
     0.510747,0.652213,0.246861,0.110662,0.502235,420.000000,391.000000,29.000000,13.000000,0.000000,0.000000,0.510747,0.652213,0.246861,0.110662,0.502235,420.000000,391.000000,29.000000,13.000000,0.000000,0.000000:
0000
0000
0000
0000
,
0000
0000
0000
0000
,
0000
0000
0000
0000
,
0000
0000
0000
0100
0010
0000
0001
0000
,
0101
0000
0000
0100
0000
0000
0010
0000
0000
0000
1000
0000
0010
0000
1000
0000
,
0100
0000
0000
1000
0000
0000
0010
0000
0000
0000
1000
0000
0001
0000
1000
0000
,
0100
0000
0000
0010
0000
0000
0001
0000
0000
0000
0100
0000
0001
0000
0010
0000
,
0100
0000
0000
1000
0000
0000
0010
0000
0000
0000
1000
0000
0010
0000
0100
0000
,
0001
0000
0000
0010
0000
0000
0100
0000
0000
0000
1000
0000
0001
0000
1000
0000
,
0010
0000
0000
1000
0000
0000
0001
0000
0000
0000
1000
0000
0100
0000
1000
0000
,
0010
0000
0000
0100
0000
0000
0001
0000
0000
0000
1000
0000
0010
0000
1000
0000
,
0001
0000
0000
0010
0000
0000
0100
0000
0000
0000
1000
0000
0010
0000
0100
0000
,
0001
0100
0000
0100
0010
0000
0010
1000
0000
1000
0100
0000
0010
0000
0001
0000
,
1000
0010
0000
0010
0100
0000
0100
0001
0000
0001
0010
0000
0100
0000
1000
0000
,
0010
0100
0000
0100
0001
0000
0001
0010
0000
0010
0100
0000
1000
0000
0010
0000
,
0100
0001
0000
0001
0010
0000
0010
0200
0000
0000
0000
0000
0000
0000
0000
0000
,
1300
0010
0000
0010
0000
0000
1000
0100
0000
0100
0010
0000
0001
0000
1000
0000
,
0010
0100
0000
0001
0000
0000
0010
0100
0000
0100
1000
0000
0010
0000
0100
0000
,
0001
0100
0000
0100
0000
0000
0010
1000
0000
1000
0100
0000
0010
0000
0001
0000
,
1000
0010
0000
0010
0100
0000
0100
0001
0000
0001
1000
0000
0010
0000
0100
0000
,
0001
0010
0000
0010
0000
0000
0100
1000
0000
1000
0010
0000
0100
0000
0001
0000
,
1000
0010
0000
0010
0000
0000
0100
0001
0000
0001
0010
0000
0100
0000
1000
0000
,
0010
0100
0000
0001
0000
0000
0010
0100
0000
0100
1000
0000
0001
0000
0010
0000
,
0001
0100
0000
0100
0010
0000
0010
1000
0000
1000
0100
0000
1000
0000
0010
0000
,
1000
0000
0000
0100
0000
0000
0001
0000
0000
0010
0000
0000
0001
0000
0100
0000
,
0001
0000
0000
0100
0000
0000
1000
0000
0000
0010
0000
0000
1001
0000
0000
0000
,
0010
0000
1000
0000
0100
0000
1000
0010
0000
0000
1000
0000
0100
0000
0010
0000
,
0001
0100
0000
0001
0000
0010
0000
0001
0000
0000
0000
0000
0000
0000
0000
0000
,
0100
0000
0001
0000
0010
0000
0100
1000
0000
0000
0010
0000
0100
0000
0001
0000
,
0010
0000
0100
0000
1000
0100
0000
1000
0000
0000
0000
0000
0000
0000
0000
0000
,
1000
0000
0100
0000
0010
0000
0001
0010
0000
0000
0001
0000
0000
0000
0000
0000
,
0001
0000
0100
0000
0010
0000
1000
0010
0000
0000
0000
0000
0000
0000
0000
0000
,
0000
0000
1000
0000
0010
0000
0100
0001
0000
0000
0010
0000
0100
0000
1000
0000
,
0010
0000
0000
1000
0000
0000
0100
0000
0000
0010
0000
0000
0001
0000
0000
0000
,
0202
0000
0000
0303
0001
0000
0100
0010
0000
0000
1000
0000
0010
0000
1000
0000
,
0000
0200
0000
0000
0300
0000
0000
0000
,
2200
0000
0000
3300
1000
0000
0100
0010
0000
0000
0001
0000
0100
0000
0001
0000
,
0000
0202
0000
0000
0303
0000
0000
0000
,
2020
0000
0000
3030
0010
0000
0100
0001
0000
0000
0010
0000
0100
0000
1000
0000
,
0010
0100
0000
0001
0000
0010
0001
0010
,
0100
1000
0010
0100
0002
0000
1003
0001
,
0100
0000
0000
0010
0000
0000
1000
0000
0100
0000
0000
0000
0010
0000
0000
0000
,
1001
0000
0011
0010
1100
0000
0001
0000
,
0101
0000
0000
0000
1010
0000
0100
0000
0110
0000
0000
1000
0000
0000
0010
0000
,
0110
0000
0101
0001
0011
0000
1000
0000
,
0011
0000
1000
0010
1100
0000
0110
0000
,
0101
0000
0001
1000
0101
0000
0011
0000
,
1100
0000
0000
0000
0010
0000
0100
0000
1010
0000
0000
0001
0000
0000
0010
0000
,
0011
1001
0101
0010
,
1100
1001
2020
3030
,
1000
0100
0000
0100
0000
0000
0010
0001
0000
0001
0100
0000
0010
0000
1000
0000
,
0001
0100
0000
0100
0000
0000
0010
1000
0000
1000
0001
0000
0010
0000
0100
0000
,
1000
0100
0000
0100
0000
0000
0010
0100
0000
0100
1000
0000
0001
0000
0010
0000
,
0001
1000
0000
1000
0010
0000
0010
0100
0000
0100
0001
0000
1000
0000
0010
0000
,
1000
0100
0000
0100
0000
0000
1000
0010
0000
0010
0100
0000
0001
0000
1000
0000
,
0001
0100
0000
0100
0000
0000
0010
1000
0000
1000
0001
0000
0010
0000
0100
0000
,
0010
0001
0000
1000
0000
0000
0010
1000
0000
1000
0001
0000
0100
0000
0010
0000
,
1000
0100
0000
0100
0010
0000
0010
0001
0000
0001
1000
0000
0010
0000
0100
0000
,
0001
0100
0001
0100
0001
0100
0010
1000
0010
1000
0010
1000
0010
1000
0100
1000
;

//---------------dance-single - ----------------
#NOTES:
     dance-single:
     :
     Hard:
     7:
     0.383060,0.425995,0.331986,0.119174,0.157480,315.000000,276.000000,39.000000,14.000000,0.000000,0.000000,0.383060,0.425995,0.331986,0.119174,0.157480,315.000000,276.000000,39.000000,14.000000,0.000000,0.000000:
0000
0000
0000
0000
,
0000
0000
0000
0000
,
0000
0000
0000
0000
,
0000
0000
0000
0001
0010
0000
0001
0000
,
0101
0000
0000
0100
0010
0000
1000
0000
,
1100
0000
0000
0000
0000
0000
1000
0000
0010
0000
0000
0100
0000
0000
0001
0000
,
0010
0000
0000
0001
1000
0000
0100
0000
,
0110
0000
0000
0100
1000
0000
0001
0000
,
1001
0000
0000
0001
0010
0000
0001
0000
,
0110
0000
0000
0000
0000
0000
0100
0000
0010
0000
0000
1000
0000
0000
0100
0000
,
0010
0001
0100
0010
,
1000
0000
0000
0001
0010
0000
0100
0000
,
1000
0000
0000
1000
0000
0000
0010
0000
0000
0000
0000
0000
0100
0000
0000
0000
,
0001
0000
0000
0001
0000
0000
0010
0000
0000
0000
0000
0000
0100
0000
0000
0000
,
1001
0000
0000
0000
1001
0000
0000
0000
1001
0000
0000
1001
0000
0000
1001
0000
,
1001
0110
2002
3003
,
0010
0000
0000
1000
0000
0000
0100
0000
0000
0000
1000
0000
0010
0000
1000
0000
,
0100
0000
0000
0010
0000
0000
0001
0000
0000
0000
0100
0000
0001
0000
0100
0000
,
0010
0000
0000
0100
0000
0000
0001
0000
0000
0000
0010
0000
0100
0000
1000
0000
,
0010
0000
0000
1000
0000
0000
0100
0000
0000
0000
0010
0000
0001
0000
1000
0000
,
0010
0000
0000
0100
0000
0000
0001
0000
0000
0000
0010
0000
0100
0000
0010
0000
,
0001
0000
0000
0100
0000
0000
0010
0000
0000
0000
1000
0000
0010
0000
1000
0000
,
0100
0000
0000
0010
0000
0000
0001
0000
0000
0000
1000
0000
0010
0000
0100
0000
,
0001
0000
0000
0010
0000
0000
0100
0000
0000
0000
1000
0000
0100
0000
0010
0000
,
0002
0000
0000
0000
,
2000
0000
3003
1001
,
0010
0000
0000
1000
0000
0000
0010
0000
0000
0000
0100
0000
0001
0000
0100
0000
,
0001
0000
0000
0010
0000
0000
0100
0000
0000
0000
1000
0000
1000
0000
0000
0000
,
0010
0000
0000
1000
0000
0000
0001
0000
0000
0000
0100
0000
0010
0000
0100
0000
,
0001
0000
0000
0010
0000
0000
0100
0000
0000
0000
1000
0000
0010
0000
0100
0000
,
0001
0000
0000
1000
0000
0000
0010
0000
0000
0000
1000
0000
0100
0000
0010
0000
,
0100
0000
0000
1000
0000
0000
0010
0000
0000
0000
0100
0000
0100
0000
0000
0000
,
0001
0000
0000
0100
0000
0000
0010
0000
0000
0000
1000
0000
0001
0000
1000
0000
,
0100
0000
0000
0010
0000
0000
0001
0000
0000
1000
0000
0000
0100
0000
0000
0000
,
0020
0000
0000
0000
0031
0000
0010
0001
0000
0000
1000
0000
0010
0000
0100
0000
,
0002
0000
0000
0000
0103
0000
0010
0100
0000
0000
0010
0000
1000
0000
0010
0000
,
2000
0000
0000
0000
3100
0000
0010
0100
0000
0000
1000
0000
0010
0000
0100
0000
,
0002
0000
0000
0000
0103
0000
0010
0100
0000
0000
0001
0000
0010
0000
0100
0000
,
2000
0000
0000
0000
3001
0000
1000
0001
0000
0000
0100
0000
0001
0000
0100
0000
,
0002
0000
0000
0000
1003
0000
0001
1000
0000
0000
0100
0000
1000
0000
0100
0000
,
0010
0001
0100
0001
0020
0000
0100
0200
,
0000
0000
0330
1000
0010
0000
0100
0000
,
0110
0101
1100
0000
,
1100
0101
1001
0000
,
1010
1010
0011
0000
,
0110
0101
1001
0000
,
0011
1010
0110
0000
,
1001
0110
1001
0000
,
1010
0101
1010
0000
,
1100
0101
0110
0000
,
1001
0000
0000
0100
0000
0000
0010
0000
0000
0000
1000
0000
0010
0000
1000
0000
,
0100
0000
0000
0010
0000
0000
0001
0000
0000
0000
1000
0000
0100
0000
1000
0000
,
0001
0000
0000
0100
0000
0000
0010
0000
0000
0000
0100
0000
0001
0000
0010
0000
,
0100
0000
0000
1000
0000
0000
0010
0000
0000
0000
1000
0000
0001
0000
1000
0000
,
0100
0000
0000
0010
0000
0000
0001
0000
0000
0000
1000
0000
0010
0000
0100
0000
,
0001
0000
0000
0010
0000
0000
0100
0000
0000
0000
1000
0000
0100
0000
0010
0000
,
0001
0000
0000
0100
0000
0000
0010
0000
0000
0000
1000
0000
0010
0000
1000
0000
,
0100
0000
0000
0010
0000
0000
0100
0000
0000
0000
1000
0000
0001
0000
1000
0000
,
0200
0000
0000
0000
0000
0000
0000
0320
0000
0000
0000
0000
0000
0000
0031
0000
;

//---------------dance-single - ----------------
#NOTES:
     dance-single:
     :
     Medium:
     6:
     0.294288,0.351564,0.349010,0.187274,0.004256,242.000000,201.000000,41.000000,22.000000,0.000000,0.000000,0.294288,0.351564,0.349010,0.187274,0.004256,242.000000,201.000000,41.000000,22.000000,0.000000,0.000000:
// measure 0
0000
0000
0000
0000
,  // measure 1
0000
0000
0000
0000
,  // measure 2
0000
0000
0000
0000
,  // measure 3
0000
0000
0000
1000
0010
0000
1000
0000
,  // measure 4
0100
0000
0000
0100
1000
0000
0100
0000
,  // measure 5
0010
0000
0000
0001
1000
0000
0001
0000
,  // measure 6
0100
0000
0000
0010
1000
0000
0100
0000
,  // measure 7
0010
0000
0000
0100
1000
0000
0010
0000
,  // measure 8
0100
0000
0000
0100
0001
0000
1000
0000
,  // measure 9
0100
0000
0000
0010
0001
0000
1000
0000
,  // measure 10
0010
0100
0001
1000
,  // measure 11
0001
0000
0000
0010
0100
0000
0010
0000
,  // measure 12
0002
0000
0000
0000
,  // measure 13
2003
0000
0000
0000
,  // measure 14
3010
0000
0000
0000
0010
0000
0000
0000
0100
0000
0000
0100
0000
0000
0100
0000
,  // measure 15
0001
0001
2000
3000
,  // measure 16
2001
0100
3001
0101
,  // measure 17
1002
0100
1003
1100
,  // measure 18
0120
0001
0130
0110
,  // measure 19
2100
0010
3100
1100
,  // measure 20
1002
0100
1003
0110
,  // measure 21
0102
0010
0103
0011
,  // measure 22
0210
1000
0310
1100
,  // measure 23
0210
1000
0310
1001
,  // measure 24
0200
0000
0000
0000
,  // measure 25
0020
0000
0330
1001
,  // measure 26
0100
0000
0001
0000
0010
0000
0001
1000
,  // measure 27
0100
0010
0001
0000
,  // measure 28
1000
0000
0010
0000
0100
0000
0010
1000
,  // measure 29
0100
0010
0001
0000
,  // measure 30
1000
0100
0010
0000
,  // measure 31
0001
0100
0010
0000
,  // measure 32
1000
0010
0001
0010
,  // measure 33
1000
0100
0010
0001
,  // measure 34
1000
0000
0010
0000
0100
0000
0001
0010
,  // measure 35
0100
0010
0001
0000
,  // measure 36
1000
0000
0010
0000
0100
0000
0001
0100
,  // measure 37
0010
1000
0100
0000
,  // measure 38
0010
0000
0001
0000
1000
0000
0010
1000
,  // measure 39
0010
0100
0001
0000
,  // measure 40
0010
0000
0100
0000
0010
0000
0100
1000
,  // measure 41
0001
0100
0010
1000
,  // measure 42
0010
0010
0110
0000
,  // measure 43
1000
1000
1100
0000
,  // measure 44
0001
0001
0011
0000
,  // measure 45
1000
1000
1010
0010
,  // measure 46
0100
0001
0101
0000
,  // measure 47
0001
1000
1100
0000
,  // measure 48
0100
0010
0011
0000
,  // measure 49
0001
1000
1010
0000
,  // measure 50
0102
0010
1003
0011
,  // measure 51
2100
0010
3001
1100
,  // measure 52
0210
1000
0310
0011
,  // measure 53
0210
0001
1300
1001
,  // measure 54
0102
0010
1003
0011
,  // measure 55
2010
0001
3100
0110
,  // measure 56
0012
1000
0103
0110
,  // measure 57
0201
0010
1300
0110
,  // measure 58
0002
0000
0000
0000
,  // measure 59
0003
0000
0000
0000
;

//---------------dance-single - ----------------
#NOTES:
     dance-single:
     :
     Easy:
     4:
     0.216459,0.251117,0.017025,0.093637,0.000000,178.000000,176.000000,2.000000,11.000000,0.000000,0.000000,0.216459,0.251117,0.017025,0.093637,0.000000,178.000000,176.000000,2.000000,11.000000,0.000000,0.000000:
0000
0000
0000
0000
,
0000
0000
0000
0000
,
0000
0000
0000
0000
,
0000
0000
0010
1000
,
0100
0000
0010
0001
,
0100
0000
0001
1000
,
0100
0000
0010
0001
,
1000
0000
0010
1000
,
0010
0000
0100
0001
,
1000
0000
0100
0010
,
0001
0000
1000
0010
,
0100
0000
0010
0000
,
2000
0000
0000
3000
,
0002
0000
0000
0003
,
0100
0100
0100
0000
,
0010
0010
0010
0000
,
0100
0100
0010
1000
,
0100
0100
0010
0001
,
1000
1000
0001
1000
,
0001
0001
1000
0000
,
0010
0100
0001
0010
,
0001
1000
0010
0100
,
0001
0010
0100
1000
,
0010
0100
0010
0000
,
1000
0000
0000
0000
,
0001
0000
0000
0000
,
1001
0010
1000
0000
,
1000
0100
0010
0000
,
0010
0001
1000
0000
,
0001
0100
1000
0000
,
0001
0100
0010
0000
,
1000
0010
0100
0000
,
0010
1000
0100
0000
,
0010
0010
0010
0000
,
0002
1000
1003
0100
,
2000
0001
3001
0100
,
0002
0010
0013
1000
,
2000
0010
3010
0001
,
2000
0100
3100
0010
,
0002
0100
0103
0010
,
2000
0010
3010
0100
,
0002
0010
0013
0000
,
0100
0100
0100
0000
,
1000
1000
1000
0000
,
0010
0010
0010
0000
,
0100
0100
0001
0010
,
0001
0001
0001
0000
,
0010
0010
0010
0000
,
0100
0100
0100
0000
,
1000
1000
1000
0000
,
1001
0010
0100
0001
,
0010
0100
0010
0001
,
1000
0100
0010
0001
,
1000
0010
0100
0000
,
0001
0010
1000
0010
,
0100
1000
0100
0010
,
0100
0001
0010
0100
,
1000
0001
0100
0000
,
0020
0000
0000
0000
,
0030
0000
0000
0000
;

//---------------dance-single - ----------------
#NOTES:
     dance-single:
     :
     Beginner:
     1:
     0.131335,0.172803,0.017025,0.000000,0.000000,108.000000,106.000000,2.000000,0.000000,0.000000,0.000000,0.131335,0.172803,0.017025,0.000000,0.000000,108.000000,106.000000,2.000000,0.000000,0.000000,0.000000:
0000
0000
0000
0000
,
0000
0000
0000
0000
,
0000
0000
0000
0000
,
0000
0000
0000
0000
,
0010
0000
0000
0000
,
1000
0000
0000
0000
,
0100
0000
0000
0000
,
0010
0000
0001
0000
,
1000
0000
0000
0000
,
0010
0000
0000
0000
,
0100
0000
0000
0000
,
0001
0000
0010
0000
,
0100
0000
0000
0000
,
0000
0000
0000
0000
,
1000
0000
1000
0000
,
1000
0000
1000
0000
,
1001
0000
0000
0010
,
0010
0000
0000
0100
,
0100
0000
0000
0001
,
0001
0000
0000
0010
,
0010
0000
0000
0100
,
0100
0000
0000
1000
,
1000
0000
0000
0010
,
0010
0000
0000
0100
,
0100
0000
0000
0000
,
0001
0000
0000
0000
,
1001
0000
0100
0000
,
0010
0000
0100
0000
,
0001
0000
1000
0000
,
0010
0000
0100
0000
,
0001
0000
0010
0000
,
0100
0000
1000
0000
,
0010
0000
0100
0000
,
0001
0000
0001
0000
,
0010
0000
0100
0000
,
1000
0000
0100
0000
,
0010
0000
0001
0000
,
1000
0000
0010
0000
,
0100
0000
0001
0000
,
0010
0000
0100
0000
,
1000
0000
0010
0000
,
0100
0000
0001
0000
,
0010
0010
0010
0000
,
0100
0100
0100
0000
,
0010
0010
0010
0000
,
0100
0100
0100
0000
,
1000
1000
1000
0000
,
0001
0001
0001
0000
,
1000
1000
1000
0000
,
0001
0001
0001
0000
,
0010
0000
0000
0100
,
0100
0000
0000
1000
,
1000
0000
0000
0001
,
0001
0000
0000
0010
,
0010
0000
0000
0001
,
0001
0000
0000
1000
,
1000
0000
0000
0010
,
0010
0000
0000
0100
,
0100
0000
0000
0000
;
