#VERSION:0.83;
#TITLE:Hurts So Good;
#SUBTITLE:;
#ARTIST:Astrid S;
#TITLETRANSLIT:;
#SUBTITLETRANSLIT:;
#ARTISTTRANSLIT:;
#GENRE:Leave It Beautiful;
#ORIGIN:;
#CREDIT:[Ness];
#BANNER:Hurts So Good-bn.png;
#BACKGROUND:Black.png;
#PREVIEWVID:Hurts So Good-preview.avi;
#JACKET:Hurts So Good-jacket.png;
#CDIMAGE:;
#DISCIMAGE:Hurts So Good-bg.png;
#LYRICSPATH:;
#CDTITLE:;
#MUSIC:Hurts So Good.mp3;
#OFFSET:-0.010000;
#SAMPLESTART:41.271935;
#SAMPLELENGTH:24.750004;
#SELECTABLE:YES;
#DISPLAYBPM:120.000000;
#BPMS:0.000=120.000,
183.000=30.000,
185.375=38.300,
185.500=50.000,
185.625=60.000,
185.750=70.000,
185.875=80.000,
186.000=90.000,
186.250=100.000,
186.500=110.000,
186.750=120.000;
#STOPS:;
#DELAYS:;
#WARPS:;
#TIMESIGNATURES:0.000=4=4;
#TICKCOUNTS:0.000=2;
#COMBOS:0.000=1;
#SPEEDS:0.000=1.000=0.000=0;
#SCROLLS:0.000=1.000;
#FAKES:;
#LABELS:0.000=Song Start;
#LASTSECONDHINT:129.041672;
#BGCHANGES:0.000=Hurts So Good-video.avi=1.000=1=0=1===CrossFade==,
99999=-nosongbg-=1.000=0=0=0 // don't automatically add -songbackground-
;
#KEYSOUNDS:;
#ATTACKS:
;

//---------------dance-single - ----------------
#NOTEDATA:;
#CHARTNAME:[Ness];
#STEPSTYPE:dance-single;
#DESCRIPTION:[Ness];
#CHARTSTYLE:;
#DIFFICULTY:Hard;
#METER:8;
#RADARVALUES:0.399985,0.435273,0.278484,0.188165,0.184402,372.000000,335.000000,37.000000,25.000000,0.000000,0.000000,0.000000,0.000000,0.000000,0.399985,0.435273,0.278484,0.188165,0.184402,372.000000,335.000000,37.000000,25.000000,0.000000,0.000000,0.000000,0.000000,0.000000;
#CREDIT:[Ness];
#DISPLAYBPM:120.000000;
#NOTES:
// measure 0
0000
0000
0000
0000
,  // measure 1
0000
0000
0000
0000
,  // measure 2
0000
0000
0000
0000
,  // measure 3
0000
0000
0000
0000
,  // measure 4
0000
0000
0000
0000
,  // measure 5
0012
0000
0000
1000
0000
0000
1003
0000
0020
0000
0000
1000
0000
0000
0130
0000
,  // measure 6
0000
0000
0220
0330
,  // measure 7
2100
0000
0000
0010
0000
0000
3100
0000
0002
0000
0000
0010
0000
0000
0103
0000
,  // measure 8
0000
0000
0000
0000
1001
0200
0000
0300
,  // measure 9
0010
0000
0001
0200
0000
0000
0301
0000
1000
0000
0010
2000
0000
0000
3010
0000
,  // measure 10
0000
0000
0000
0000
2020
0000
3030
1000
,  // measure 11
0001
0000
0010
0002
0000
0000
1003
0000
0200
0000
0000
0010
0000
0000
1300
0000
,  // measure 12
0000
0000
0000
0000
1100
0100
0001
0100
,  // measure 13
1000
0000
0000
1000
0010
0000
0100
0000
0000
0100
0001
0000
0010
0000
0000
0010
,  // measure 14
0100
0000
1000
0000
0000
1000
0001
0000
0100
0000
0010
0000
1000
0000
0001
0000
,  // measure 15
0010
0000
0000
0010
0001
0000
1000
0000
0000
1000
0010
0000
0100
0000
0000
0100
,  // measure 16
0001
0000
0010
0000
0000
0010
0100
0000
1000
0000
0001
0000
0100
0000
0010
0000
,  // measure 17
1000
0000
0000
1000
0010
0000
0100
0000
0000
0100
0001
0000
0010
0000
0000
0010
,  // measure 18
0100
0000
1000
0000
0000
1000
0001
0000
0100
0000
0010
0000
1000
0000
0100
0000
,  // measure 19
0010
0000
0001
0100
0000
0000
0001
0000
1100
0000
0000
0000
0100
0000
1000
0000
,  // measure 20
0001
0000
1000
0010
0000
0000
0100
0000
0110
0000
1000
0000
0100
0000
0010
0000
,  // measure 21
0002
0000
0000
0000
0000
0000
0000
0000
0013
0000
0100
0010
0001
0000
0010
0000
,  // measure 22
0000
0110
0000
1001
0000
0001
0010
0100
,  // measure 23
1000
0000
0100
0000
0001
0000
0100
0000
1000
0000
0001
0100
0001
0000
0010
0000
,  // measure 24
0000
1010
0000
0011
0000
0001
0010
2000
,  // measure 25
0000
0000
0000
0000
0000
0000
0000
0000
3001
0000
0100
0010
1000
0000
0001
0000
,  // measure 26
0000
0110
0000
1001
0000
1000
0100
0001
,  // measure 27
0100
0000
0010
0000
0001
0000
0000
0000
1000
0000
0010
0100
0001
0000
0010
0000
,  // measure 28
0000
1001
0000
0001
0010
0100
1000
0000
,  // measure 29
1100
0000
1000
0001
1000
0000
0001
0100
0001
0000
0010
0000
0110
0000
0000
0000
,  // measure 30
0000
0000
0000
1000
0001
0100
1000
0000
,  // measure 31
0110
0000
0100
0001
0100
0000
0010
1000
0010
0000
0100
0000
1001
0000
0000
0000
,  // measure 32
0000
0000
0000
0000
0000
0000
0100
0000
0002
0000
0000
0010
0000
0000
1003
0000
,  // measure 33
0010
0000
0100
0001
0100
0000
0010
1000
0010
0000
1010
0000
1010
0000
0000
0000
,  // measure 34
0000
0000
0000
0001
0010
1000
0010
0000
,  // measure 35
0110
0000
0100
1000
0001
0000
0100
0010
0100
0000
0001
0000
1001
0000
0000
0000
,  // measure 36
0000
0000
0000
0000
0000
0000
0001
0000
2000
0000
0000
0100
0000
0000
0010
0000
,  // measure 37
3001
0000
1000
0100
1000
0100
1000
0100
,  // measure 38
0000
0020
0000
0000
0030
0001
0100
0001
,  // measure 39
0000
0020
0000
0000
0030
0001
1000
0001
,  // measure 40
0000
0010
0000
0100
1000
0001
0100
0000
,  // measure 41
0010
0000
1000
0001
1000
0100
0010
0100
,  // measure 42
0000
0020
0000
0000
0030
0001
1000
0100
,  // measure 43
0000
0020
0000
0000
0030
0001
1000
0010
,  // measure 44
0000
0100
0000
0010
1000
0100
0000
0000
,  // measure 45
0001
0100
0001
0100
1000
0100
0001
0000
,  // measure 46
0000
0000
0000
0000
,  // measure 47
1010
0000
0000
0000
1001
0000
0000
0000
0001
0000
0010
0001
1000
0000
0020
0000
,  // measure 48
0000
0100
0000
0130
0001
1000
0100
0010
,  // measure 49
0012
0000
0000
0000
1000
0000
0000
0000
0013
0000
0100
1000
0010
0000
0100
0000
,  // measure 50
0000
0011
0000
1010
0000
0001
0100
1000
,  // measure 51
0100
0000
0001
0000
2000
0000
0000
0000
3100
0000
0010
0001
1000
0000
0010
0000
,  // measure 52
0000
1001
0000
0100
0001
1000
0100
0000
,  // measure 53
0110
0000
0010
0001
0010
0000
0001
1000
0001
0000
0100
0000
0101
0000
0000
0000
,  // measure 54
0000
0000
0000
1000
0010
0001
0010
0000
,  // measure 55
1010
0000
1000
0001
1000
0000
0100
0010
0001
0000
1000
0000
1010
0000
0000
0000
,  // measure 56
0000
0000
0000
0000
0000
0000
0001
0000
2000
0000
0000
0010
0000
0000
3100
0000
,  // measure 57
0010
0000
0001
0100
0010
0000
1000
0001
1000
0000
0100
0000
1001
0000
0000
0000
,  // measure 58
0000
0000
0000
1001
0100
0010
1000
0000
,  // measure 59
0010
0000
0100
0001
0100
0000
0010
1000
0100
0000
0010
0000
0110
0000
0000
0000
,  // measure 60
0000
0000
0000
0000
0000
0000
0001
0000
0100
0000
0000
0010
0000
0000
1001
0000
;

//---------------dance-single - ----------------
#NOTEDATA:;
#CHARTNAME:[Ness];
#STEPSTYPE:dance-single;
#DESCRIPTION:[Ness];
#CHARTSTYLE:;
#DIFFICULTY:Medium;
#METER:6;
#RADARVALUES:0.234400,0.297818,0.165585,0.308591,0.033870,218.000000,196.000000,22.000000,41.000000,0.000000,0.000000,0.000000,0.000000,0.000000,0.234400,0.297818,0.165585,0.308591,0.033870,218.000000,196.000000,22.000000,41.000000,0.000000,0.000000,0.000000,0.000000,0.000000;
#CREDIT:[Ness];
#DISPLAYBPM:120.000000;
#NOTES:
0000
0000
0000
0000
,
0000
0000
0000
0000
,
0000
0000
0000
0000
,
0000
0000
0000
0000
,
0000
0000
0000
0000
,
1000
0000
0000
0000
0001
0000
0000
0000
1000
0000
0000
0100
0000
0000
1000
0000
,
0000
0000
0010
0000
,
0001
0000
0000
0000
1000
0000
0000
0000
0001
0000
0000
0100
0000
0000
0001
0000
,
0000
0000
1000
0000
,
0001
0000
0000
0010
0000
0000
0100
0000
1000
0000
0000
0100
0000
0000
0010
0000
,
0000
0000
0001
0000
,
1000
0000
0000
0001
0000
0000
0100
0000
0010
0000
0000
0100
0000
0000
0001
0000
,
0000
0000
1000
0010
,
1001
0000
0000
0010
0000
0000
0100
0000
,
0000
0010
0000
0000
1000
0001
0100
0000
,
2002
0000
3003
0020
0000
0030
0002
0000
,
0003
0020
0000
0030
0100
1000
0001
0000
,
2002
0000
3003
0020
0000
0030
2000
0000
,
3000
0020
0000
0030
0100
0001
1000
0000
,
0110
0000
0000
1000
0000
0000
0200
0000
0000
0000
0000
0000
0300
0000
0000
0000
,
0110
0000
0000
0001
0000
0000
0200
0000
0000
0000
0000
0000
0300
0000
0000
0000
,
2002
0000
3003
0000
0010
0000
1000
0010
,
0000
0100
0000
0010
0000
1000
0001
0000
,
0022
0000
0033
0000
0010
0000
0100
1000
,
0000
0001
0000
1000
0000
0100
0010
0000
,
0202
0000
0303
0000
0010
0000
1000
0100
,
0000
0010
0000
0100
0000
1000
0010
0000
,
2002
0000
3003
0000
1000
0010
0100
0010
,
0000
1000
0000
0100
0010
0000
0100
0000
,
0110
0000
0001
0000
1000
0001
0200
0000
,
0000
0000
0300
0000
0001
0010
0100
0000
,
0010
0000
0001
0000
1000
0001
0200
0000
,
0000
0300
2010
3100
,
0010
0000
0100
0000
1000
0001
0200
0000
,
0000
0000
0300
0000
0010
1000
0100
0000
,
0010
0000
0100
0000
1000
0010
0200
0000
,
0000
0300
0101
1100
,
2002
0000
0000
0000
0000
3003
0000
0200
,
0000
0000
0000
0000
0000
0300
0000
0000
,
0020
0000
0000
0000
0000
0030
0000
0002
,
0000
0003
0000
2000
0000
0200
0000
3300
,
0000
0000
0100
0000
0010
0000
0001
1000
,
0000
0010
0000
0000
0000
0000
0100
0000
,
0001
0000
0010
0000
0100
0000
1000
0001
,
0000
1000
0000
0100
0000
0010
0000
0000
,
0000
0000
0000
0110
,
0000
0000
0000
0000
,
1001
0000
0010
0000
0100
0000
0001
0010
,
0000
0100
0000
0010
0000
0001
1000
0000
,
2200
0000
3300
0000
0010
0000
0100
0001
,
0000
0010
0000
0100
0000
0010
0001
0000
,
2020
0000
3030
0000
0100
0001
1000
0001
,
0000
0010
0000
0100
1000
0000
0001
0000
,
0110
0000
0110
0000
1000
0001
0200
0000
,
0000
0000
0300
0000
0001
1000
0010
0000
,
1000
0000
0001
0000
0010
0100
2000
0000
,
0000
3000
0102
0013
,
0100
0000
1000
0000
0010
1000
0002
0000
,
0000
0000
0003
0000
1000
0100
0010
0000
,
0101
0000
0010
0000
1000
0010
0200
0000
,
0000
0000
0000
0000
0300
0000
0001
0000
0010
0000
0000
0100
0000
0000
1000
0000
;

//---------------dance-single - ----------------
#NOTEDATA:;
#CHARTNAME:[Ness];
#STEPSTYPE:dance-single;
#DESCRIPTION:[Ness];
#CHARTSTYLE:;
#DIFFICULTY:Easy;
#METER:3;
#RADARVALUES:0.133328,0.183649,0.090319,0.210745,0.000000,124.000000,112.000000,12.000000,28.000000,0.000000,0.000000,0.000000,0.000000,0.000000,0.133328,0.183649,0.090319,0.210745,0.000000,124.000000,112.000000,12.000000,28.000000,0.000000,0.000000,0.000000,0.000000,0.000000;
#CREDIT:[Ness];
#DISPLAYBPM:120.000000;
#NOTES:
0000
0000
0000
0000
,
0000
0000
0000
0000
,
0000
0000
0000
0000
,
0000
0000
0000
0000
,
0000
0000
0000
0000
,
0020
0000
0030
0100
,
0000
0000
1000
0000
,
0002
0000
0003
0100
,
0000
0000
0010
0000
,
2000
0000
3000
0010
,
0000
0000
0100
0000
,
0002
0000
0003
0010
,
0000
0000
0100
0100
,
1000
0000
0001
0000
,
1000
0000
0010
0100
,
0001
0000
0010
0000
,
0100
0000
1000
0001
,
0100
0000
0010
0000
,
1000
0000
0100
1000
,
0001
0000
1001
0000
,
1000
0000
1001
0000
,
0020
0000
0030
1000
,
0100
0100
0001
0100
,
1000
0000
0000
0001
,
0100
0000
0010
0000
,
0200
0000
0300
0001
,
0010
0010
0100
1000
,
0002
0000
0003
1000
,
0100
0010
0100
0000
,
0020
0000
0030
1001
,
0000
0000
0100
0010
,
0200
0000
0300
1001
,
0000
0000
0001
1000
,
0200
0000
0300
1001
,
0000
0000
0010
0100
,
0020
0000
0030
1001
,
0000
0000
0001
1000
,
0200
0000
0000
0300
,
2000
0000
0000
3000
,
0002
0000
0000
0003
,
0200
0000
0000
0300
,
0020
0000
0000
0030
,
2000
0000
0000
3000
,
0200
0000
0000
0300
,
0020
0000
0000
0030
,
0002
0000
0000
0003
,
0000
0000
0000
0000
,
2002
0000
3003
0010
,
1000
0100
1000
0010
,
0200
0000
0300
0001
,
0010
0001
0100
0001
,
0020
0000
0030
0100
,
1000
0001
0100
0000
,
0020
0000
0030
0110
,
0000
0000
1000
0001
,
2000
0000
3000
1001
,
0000
0000
0001
0010
,
0200
0000
0300
1001
,
0000
0000
0001
1000
,
0020
0000
0030
1001
,
0000
0000
0100
0010
,
1001
0000
0000
0000
;

//---------------dance-single - ----------------
#NOTEDATA:;
#CHARTNAME:[Ness];
#STEPSTYPE:dance-single;
#DESCRIPTION:[Ness];
#CHARTSTYLE:;
#DIFFICULTY:Beginner;
#METER:1;
#RADARVALUES:0.097846,0.137737,0.007527,0.045160,0.000000,91.000000,90.000000,1.000000,6.000000,0.000000,0.000000,0.000000,0.000000,0.000000,0.097846,0.137737,0.007527,0.045160,0.000000,91.000000,90.000000,1.000000,6.000000,0.000000,0.000000,0.000000,0.000000,0.000000;
#CREDIT:[Ness];
#DISPLAYBPM:120.000000;
#NOTES:
0000
0000
0000
0000
,
0000
0000
0000
0000
,
0000
0000
0000
0000
,
0000
0000
0000
0000
,
0000
0000
0000
0000
,
0010
0000
0000
0100
,
0000
0000
1000
0000
,
0001
0000
0000
0100
,
0000
0000
0010
0000
,
1000
0000
0000
0010
,
0000
0000
0100
0000
,
0001
0000
0000
0010
,
0000
0000
0100
0000
,
1000
0000
0001
0000
,
1000
0000
0010
0000
,
0100
0000
0001
0000
,
0010
0000
0100
0000
,
1000
0000
0001
0000
,
1000
0000
0100
0000
,
0010
0000
0001
0000
,
1000
0000
0010
0000
,
0200
0000
0300
0000
,
0001
0000
0001
0000
,
2000
0000
3000
0000
,
0200
0000
0300
0000
,
0020
0000
0030
0000
,
0100
0000
0100
0000
,
2000
0000
3000
0000
,
0002
0000
0003
0000
,
0100
0000
0100
0100
,
0000
0000
0010
0000
,
0100
0000
0100
0100
,
0000
0000
0001
0000
,
0010
0000
0010
0010
,
0000
0000
0100
0000
,
1000
0000
1000
1000
,
0000
0000
0001
0000
,
0100
0000
0000
0000
,
1000
0000
0000
0000
,
0001
0000
0000
0000
,
0100
0000
0000
0000
,
0010
0000
0000
0000
,
1000
0000
0000
0000
,
0100
0000
0000
0000
,
0010
0000
0000
0000
,
0001
0000
0000
0000
,
0000
0000
0000
0000
,
1001
0000
0000
0000
,
1000
0000
1000
0000
,
0010
0000
0000
0000
,
0100
0000
0001
0000
,
0010
0000
0000
0000
,
1000
0000
0100
0000
,
0010
0000
0010
0010
,
0000
0000
1000
0000
,
0001
0000
0001
0001
,
0000
0000
0100
0000
,
0100
0000
0100
0100
,
0000
0000
1000
0000
,
0010
0000
0010
0010
,
0000
0000
0100
0100
,
0100
0000
0000
0000
;
