#VERSION:0.83;
#TITLE:Hurricane;
#SUBTITLE:;
#ARTIST:Halsey;
#TITLETRANSLIT:;
#SUBTITLETRANSLIT:;
#ARTISTTRANSLIT:;
#GENRE:Room 93;
#ORIGIN:;
#CREDIT:;
#BANNER:Hurricane-bn.png;
#BACKGROUND:Hurricane-bg.png;
#PREVIEWVID:Hurricane-preview.avi;
#JACKET:Hurricane-jacket.png;
#CDIMAGE:;
#DISCIMAGE:;
#LYRICSPATH:;
#CDTITLE:;
#MUSIC:Hurricane.mp3;
#OFFSET:-0.031000;
#SAMPLESTART:46.027004;
#SAMPLELENGTH:21.000004;
#SELECTABLE:YES;
#BPMS:0.000=120.000;
#STOPS:;
#DELAYS:;
#WARPS:;
#TIMESIGNATURES:0.000=4=4;
#TICKCOUNTS:0.000=4;
#COMBOS:0.000=1;
#SPEEDS:0.000=1.000=0.000=0;
#SCROLLS:0.000=1.000;
#FAKES:;
#LABELS:0.000=Song Start;
#LASTSECONDHINT:141.067017;
#BGCHANGES:0.000=Hurricane-video.avi=1.000=1=0=1===CrossFade==,
99999=-nosongbg-=1.000=0=0=0 // don't automatically add -songbackground-
;
#KEYSOUNDS:;
#ATTACKS:
;

//---------------dance-single - ----------------
#NOTEDATA:;
#CHARTNAME:;
#STEPSTYPE:dance-single;
#DESCRIPTION:;
#CHARTSTYLE:;
#DIFFICULTY:Hard;
#METER:7;
#RADARVALUES:0.355690,0.393608,0.174490,0.718092,0.040267,371.000000,345.000000,26.000000,107.000000,0.000000,0.000000,0.000000,0.000000,0.000000,0.355690,0.393608,0.174490,0.718092,0.040267,371.000000,345.000000,26.000000,107.000000,0.000000,0.000000,0.000000,0.000000,0.000000;
#CREDIT:;
#NOTES:
// measure 0
0000
0000
0000
0000
0000
0000
0010
1000
,  // measure 1
0200
0000
0010
0000
1000
0000
0310
0100
,  // measure 2
0010
0002
0000
0003
0100
0001
1000
0001
,  // measure 3
0010
0000
0100
0000
1000
0010
0000
0200
,  // measure 4
0000
0000
0301
0000
1000
0001
0100
0010
,  // measure 5
2000
0000
0100
0000
0010
0000
3001
0010
,  // measure 6
0100
0020
0000
0030
0100
0010
0001
1000
,  // measure 7
0010
0000
0100
0000
0001
1000
0000
0200
,  // measure 8
0000
0000
0310
0000
0001
1000
0010
0100
,  // measure 9
0020
0000
0100
0100
0100
0000
1030
0100
,  // measure 10
0010
0200
0000
0000
0310
0001
1000
0001
,  // measure 11
0010
0000
0000
0000
0100
0000
0000
0000
1000
0000
0000
0010
0000
0000
0200
0000
,  // measure 12
0000
0000
0310
0000
0001
1000
0010
0100
,  // measure 13
0002
0000
0000
0000
1000
0000
0000
0000
0103
0000
0000
0010
0000
0000
2000
0000
,  // measure 14
0000
3010
0100
0000
0001
1000
0010
0100
,  // measure 15
0020
0000
1000
0000
0130
0020
0000
0200
,  // measure 16
0000
0000
0000
0000
0330
0001
1000
0010
,  // measure 17
2000
0000
0000
0000
0100
0000
0000
0000
3002
0000
0000
0010
0000
0000
1003
0000
,  // measure 18
0020
0000
0000
0000
0130
0001
1000
0100
,  // measure 19
0020
0000
0000
0000
0001
0000
0000
0000
0230
0000
0000
1000
0000
0000
0310
0000
,  // measure 20
2000
0000
0000
0000
3001
0100
0010
1000
,  // measure 21
0200
0000
0001
0000
0320
0001
0000
0000
,  // measure 22
0230
0000
0000
0000
0301
1000
0001
1000
,  // measure 23
0200
0000
0310
0001
0200
0000
0302
0020
,  // measure 24
0000
0000
0033
0000
0100
0000
1000
0000
0020
0000
0000
0100
0000
0000
2000
0000
,  // measure 25
0000
3030
0001
1000
0200
0000
0310
0100
,  // measure 26
1000
0000
0010
0000
1000
0000
0100
0000
0020
0000
0000
0031
1000
0000
0002
0000
,  // measure 27
0200
0003
0310
1000
0020
0000
2030
0200
,  // measure 28
0000
0000
3300
0000
0010
0000
0001
0000
0200
0000
0000
0010
0000
0000
0002
0000
,  // measure 29
0000
0303
2002
0000
,  // measure 30
3003
0000
0100
0010
2000
0000
0010
0002
,  // measure 31
0000
0000
3003
0000
1020
0000
0000
0030
2001
0000
0000
3000
1020
0000
0000
0030
,  // measure 32
0100
0000
0001
0000
0021
0000
0000
0030
1002
0000
0000
0003
0021
0000
0230
0000
,  // measure 33
0000
0000
0300
0000
0010
0001
0100
0010
,  // measure 34
0100
0000
0001
1000
0200
0000
0010
1000
,  // measure 35
0310
0000
0000
0000
0201
0000
0000
0300
1002
0000
0000
0003
0201
0000
0000
0300
,  // measure 36
0010
0000
1000
0000
0021
0000
0000
0030
1200
0000
0000
0300
0120
0000
0100
0000
,  // measure 37
0000
0000
1030
0000
0001
0100
0010
1000
,  // measure 38
0100
0000
0010
0001
2000
0000
0100
0001
,  // measure 39
3200
0000
0010
0010
0010
0000
1300
0100
,  // measure 40
0010
0002
0000
0003
0100
0010
1000
0001
,  // measure 41
0010
0000
0000
0000
0001
0000
0000
0000
1000
0000
0000
0100
0000
0000
0002
0000
,  // measure 42
0000
0000
0103
0000
0010
0001
0100
0010
,  // measure 43
2000
0000
0100
0000
0010
0000
3001
0100
,  // measure 44
0010
0200
0000
0300
0100
0010
1000
0001
,  // measure 45
0100
0000
0010
0000
1000
0010
0000
0200
,  // measure 46
0000
0000
0310
0000
0100
0001
1000
0010
,  // measure 47
0200
0000
0001
0000
0310
0200
0000
0020
,  // measure 48
0000
0000
0000
0000
0330
1000
0001
0100
,  // measure 49
0002
0000
0000
0000
0010
0000
0000
0000
2003
0000
0000
0100
0000
0000
3001
0000
,  // measure 50
0200
0000
0000
0000
0310
1000
0001
0100
,  // measure 51
0020
0000
1000
0000
0230
1000
0000
0000
,  // measure 52
0320
0000
0000
0000
1030
0001
1000
0001
,  // measure 53
0020
0000
0130
1000
0020
0000
2030
0200
,  // measure 54
0000
0000
3300
0000
0010
0000
0001
0000
0200
0000
0000
0010
0000
0000
0002
0000
,  // measure 55
0000
0303
1000
0001
0020
0000
0130
0010
,  // measure 56
0001
0000
0100
0000
0001
0000
0010
0000
0200
0000
0000
1300
0001
0000
2000
0000
,  // measure 57
0020
3000
0130
0001
0200
0000
0302
0020
,  // measure 58
0000
0000
0033
0000
0100
0000
1000
0000
0020
0000
0000
0100
0000
0000
2000
0000
,  // measure 59
0000
3030
2002
0000
,  // measure 60
3003
0000
0010
0100
0002
0000
0200
0000
,  // measure 61
0303
0000
0000
0000
0201
0000
0000
0300
1002
0000
0000
0003
0201
0000
0000
0300
,  // measure 62
0010
0000
1000
0000
1200
0000
0000
0300
2001
0000
0000
3000
1200
0000
0320
0000
,  // measure 63
0000
0000
0030
0000
0100
1000
0010
0100
,  // measure 64
0010
0000
1000
0001
0020
0000
0100
0001
,  // measure 65
0130
0000
0000
0000
1020
0000
0000
0030
2001
0000
0000
3000
1020
0000
0000
0030
,  // measure 66
0100
0000
0001
0000
1200
0000
0000
0300
0021
0000
0000
0030
0210
0000
0010
0000
,  // measure 67
0000
0000
0301
0000
1000
0010
0100
0001
,  // measure 68
0010
0000
0100
1000
0002
0000
0010
2000
,  // measure 69
3003
0000
0000
0000
;

//---------------dance-single - ----------------
#NOTEDATA:;
#CHARTNAME:;
#STEPSTYPE:dance-single;
#DESCRIPTION:;
#CHARTSTYLE:;
#DIFFICULTY:Medium;
#METER:6;
#RADARVALUES:0.253106,0.277841,0.020133,0.429513,0.000000,264.000000,261.000000,3.000000,64.000000,0.000000,0.000000,0.000000,0.000000,0.000000,0.253106,0.277841,0.020133,0.429513,0.000000,264.000000,261.000000,3.000000,64.000000,0.000000,0.000000,0.000000,0.000000,0.000000;
#CREDIT:;
#NOTES:
0000
0000
0000
0000
0000
0000
0010
1000
,
0020
0000
0100
0000
0130
0000
0001
0100
,
0002
0000
0010
0000
0013
0000
0100
1000
,
0200
0000
0010
0000
0310
0000
0001
1000
,
0002
0000
0100
0000
0103
0000
0010
1000
,
0020
0000
0100
0000
0130
0000
1000
0100
,
2000
0000
0100
0000
3100
0000
0001
1000
,
0002
0000
0100
0000
0103
0000
0010
0100
,
0020
0000
1000
0000
1030
0000
0001
0010
,
0002
0000
0100
0000
0103
0000
0010
0100
,
0020
0000
1000
0000
1030
0000
0100
1000
,
0200
0000
0010
0000
0310
0000
0001
1000
,
0002
0000
0100
0000
0103
0000
0001
0010
,
0001
0010
0100
0000
,
1000
0000
1001
0000
,
0010
0100
0001
0000
,
0000
0000
1001
0000
,
0010
0000
0010
0000
,
0100
0000
0100
0100
,
0100
0000
0010
0000
,
0001
0000
0000
1000
,
0010
0100
0000
0000
,
0000
0000
0000
0000
,
0010
0001
0100
0010
,
2000
0100
0001
0010
,
3100
1000
0010
0100
,
0002
0010
1000
0100
,
0013
0100
1000
0001
,
0200
1000
0010
0001
,
0320
0000
0230
0000
,
0302
0000
1003
0001
2000
0000
0100
0000
,
3100
0020
0032
2003
,
3100
0000
2000
0000
3020
0000
0130
0002
,
0000
0000
1003
0100
,
0010
0001
0010
0100
,
1000
0020
0230
0302
,
0013
0000
0200
0000
2300
0000
3001
0200
,
0000
0310
2000
3001
,
0010
0000
0100
0010
0002
0000
1003
0100
,
0020
0000
0001
0000
0031
0000
1000
0001
,
2000
0000
0100
0000
3100
0000
0010
0100
,
0020
0000
0001
0000
0031
0000
0100
0001
,
0200
0000
0010
0000
0310
0000
1000
0010
,
2000
0000
0010
0000
3010
0000
0100
0010
,
0200
0000
0001
0000
0301
0000
0010
0001
,
0020
0000
0100
0000
0130
0000
1000
0001
,
2000
0000
0010
0000
3010
0000
1000
0100
,
0010
0000
0010
0000
,
0100
0000
0100
0100
,
0100
0000
0010
0000
,
0001
0000
0000
0100
,
0010
0110
0000
0000
,
0000
0000
0000
0000
,
0100
1000
0010
0100
,
0002
0010
1000
0100
,
0013
0001
0100
0010
,
2000
0100
0001
0010
,
3100
0010
0001
1000
,
0020
0001
0100
1000
,
0230
0000
0320
0000
,
2030
0000
3001
1000
0002
0000
0010
0000
,
0013
0200
2300
3002
,
0013
0000
0002
0000
0203
0000
0310
2000
,
0000
0000
3001
0010
,
0100
1000
0100
0010
,
0001
0200
0320
2030
,
3100
0000
0020
0000
0032
0000
1003
0020
,
0000
0130
0002
1003
,
0100
0000
0010
0100
2000
0000
3002
0020
,
0033
0000
0000
0000
;

//---------------dance-single - ----------------
#NOTEDATA:;
#CHARTNAME:;
#STEPSTYPE:dance-single;
#DESCRIPTION:;
#CHARTSTYLE:;
#DIFFICULTY:Easy;
#METER:4;
#RADARVALUES:0.226261,0.208381,0.000000,0.000000,0.000000,236.000000,236.000000,0.000000,0.000000,0.000000,0.000000,0.000000,0.000000,0.000000,0.226261,0.208381,0.000000,0.000000,0.000000,236.000000,236.000000,0.000000,0.000000,0.000000,0.000000,0.000000,0.000000,0.000000;
#CREDIT:;
#NOTES:
0000
0000
0000
0000
,
0010
1000
0100
0010
,
0001
0000
1000
0001
,
0100
0010
1000
0001
,
0010
0000
0001
0100
,
0010
1000
0100
0010
,
0001
0000
1000
0010
,
0100
0001
0010
0100
,
1000
0000
0100
0010
,
0001
1000
0010
0100
,
0001
0000
1000
0010
,
1000
0100
0010
0001
,
1000
0000
0100
0010
,
0001
1000
0010
0100
,
0001
0010
0000
0100
,
1000
0001
0100
0010
,
1000
0000
0001
1000
,
0100
0010
0100
0000
,
1000
0000
0001
1000
,
0010
0100
0001
0000
,
1000
0000
0100
0010
,
0100
1000
0001
0000
,
0100
0000
0010
0000
,
1000
0001
0010
0001
,
1000
0100
1000
0001
,
0010
0001
0100
0001
,
1000
0010
1000
0001
,
0100
0010
0100
0001
,
1000
0001
0100
0010
,
0100
0000
0001
0000
,
1000
0000
0010
0000
,
1000
0100
0010
0001
,
0010
0001
1000
0100
,
0010
0100
1000
0001
,
0100
0010
1000
0001
,
0010
0001
1000
0100
,
0010
0100
1000
0001
,
0100
0010
1000
0001
,
0100
0010
1000
0001
,
0010
0001
0100
0010
,
1000
0100
0000
1000
,
0010
1000
0100
0010
,
0001
0000
1000
0001
,
0100
0010
1000
0001
,
0010
0100
0000
1000
,
0010
1000
0100
0010
,
0100
0000
0010
0001
,
0100
0010
0100
0000
,
0001
0000
0000
1000
,
0010
1000
0100
0000
,
0010
0000
0000
0000
,
0001
1000
0100
0000
,
0000
0000
0000
0000
,
0010
0001
1000
0010
,
0100
0010
1000
0100
,
1000
0001
0100
0001
,
1000
0010
1000
0001
,
0100
0010
1000
0001
,
0010
0001
1000
0100
,
0010
0000
0100
0000
,
1000
0001
0100
0100
,
0010
1000
0001
0010
,
0001
0010
0100
1000
,
0001
0100
0010
1000
,
0001
1000
0100
0010
,
0100
1000
0010
0100
,
0010
1000
0001
0100
,
0010
1000
0100
0010
,
0001
1000
0100
0010
,
0001
0000
0000
0000
;

//---------------dance-single - ----------------
#NOTEDATA:;
#CHARTNAME:;
#STEPSTYPE:dance-single;
#DESCRIPTION:;
#CHARTSTYLE:;
#DIFFICULTY:Beginner;
#METER:1;
#RADARVALUES:0.102585,0.115767,0.000000,0.000000,0.000000,107.000000,107.000000,0.000000,0.000000,0.000000,0.000000,0.000000,0.000000,0.000000,0.102585,0.115767,0.000000,0.000000,0.000000,107.000000,107.000000,0.000000,0.000000,0.000000,0.000000,0.000000,0.000000,0.000000;
#CREDIT:;
#NOTES:
0000
0000
0000
0000
,
0010
0000
0010
0000
,
1000
0000
0000
0000
,
0001
0000
0100
0000
,
0010
0000
0000
0000
,
0100
0000
0001
0000
,
1000
0000
0000
0000
,
0100
0000
0010
0000
,
0001
0000
0000
0000
,
0010
0000
0100
0000
,
1000
0000
0000
0000
,
0010
0000
1000
0000
,
0001
0000
0000
0000
,
0100
0000
0010
0000
,
0100
0000
0000
0000
,
0001
0000
0010
0000
,
0100
0000
0000
0000
,
1000
0000
0100
0000
,
0010
0000
0000
0000
,
0100
0000
0010
0000
,
0001
0000
0000
0000
,
0010
0000
0001
0000
,
0000
0000
0000
0000
,
0010
0000
0001
0000
,
1000
0000
0100
0000
,
0010
0000
0100
0000
,
1000
0000
0010
0000
,
1000
0000
0100
0000
,
0010
0000
0001
0000
,
0100
0000
0000
0000
,
0010
0000
0000
0000
,
0100
0000
0010
0000
,
1000
0000
0100
0000
,
0010
0000
0001
0000
,
1000
0000
0100
0000
,
0010
0000
0001
0000
,
0100
0000
0010
0000
,
0100
0000
0000
0000
,
0010
0000
0000
0000
,
1000
0000
0100
0000
,
0010
0000
0001
0000
,
0010
0000
0100
0000
,
1000
0000
0000
0000
,
0001
0000
0010
0000
,
0100
0000
1000
0000
,
0100
0000
0010
0000
,
0001
0000
0000
0000
,
1000
0000
0001
0000
,
0100
0000
0000
0000
,
0100
0000
0000
0000
,
0000
0000
0000
0000
,
0010
0000
0010
0000
,
0000
0000
0000
0000
,
1000
0000
0010
0000
,
0001
0000
0010
0000
,
1000
0000
0100
0000
,
0010
0000
0001
0000
,
0100
0000
0010
0000
,
0000
1000
0000
0001
,
0010
0000
0000
0000
,
0100
0000
0000
0000
,
1000
0000
0100
0000
,
0010
0000
0001
0000
,
1000
0000
0000
0000
,
0001
0000
0000
0000
,
0100
0000
0010
0000
,
1000
0000
0001
0000
,
0010
0000
0000
0000
,
0100
0000
0000
0000
,
1000
0000
0000
0000
;
