#VERSION:0.81;
#TITLE:Home;
#SUBTITLE:;
#ARTIST:Ellie Goulding;
#TITLETRANSLIT:;
#SUBTITLETRANSLIT:;
#ARTISTTRANSLIT:;
#GENRE:Bright Lights;
#ORIGIN:;
#CREDIT:[Ness];
#BANNER:Home.png;
#BACKGROUND:Home-bg.png;
#PREVIEWVID:;
#JACKET:Home-jacket.png;
#CDIMAGE:;
#DISCIMAGE:;
#LYRICSPATH:;
#CDTITLE:;
#MUSIC:Home.mp3;
#OFFSET:-0.011;
#SAMPLESTART:92.126;
#SAMPLELENGTH:19.697;
#SELECTABLE:YES;
#BPMS:0.000=99.000,
96.000=198.000,
160.000=99.000,
184.000=198.000,
248.000=99.000;
#STOPS:;
#DELAYS:;
#WARPS:;
#TIMESIGNATURES:0.000=4=4;
#TICKCOUNTS:0.000=4;
#COMBOS:0.000=1;
#SPEEDS:0.000=1.000=0.000=0;
#SCROLLS:0.000=1.000;
#FAKES:;
#LABELS:0.000=Song Start;
#LASTSECONDHINT:120.654;
#BGCHANGES:95.000=Home1.png=1.000=1=0=1===CrossFade==,
126.000=Home2.png=1.000=1=0=1===CrossFade==,
158.000=Home3.png=1.000=1=0=1===CrossFade==,
183.000=Home4.png=1.000=1=0=1===CrossFade==,
215.000=Home5.png=1.000=1=0=1===CrossFade==,
246.000=Home-bg.png=1.000=1=0=1===CrossFade==,
256.000=Home-bg.png=1.000=1=0=1===CrossFade=#808080=,
260.000=Home-bg.png=1.000=1=0=1===CrossFade=#000000=,
99999=-nosongbg-=1.000=0=0=0 // don't automatically add -songbackground-
;
#KEYSOUNDS:;
#ATTACKS:
;

//---------------dance-single - ----------------
#NOTEDATA:;
#CHARTNAME:[Ness];
#STEPSTYPE:dance-single;
#DESCRIPTION:[Ness];
#CHARTSTYLE:;
#DIFFICULTY:Challenge;
#METER:9;
#RADARVALUES:0.553,0.646,0.148,0.280,0.264,417.000,18.000,34.000,0.000,0.000,0.000,0.000,0.000,0.553,0.646,0.148,0.280,0.264,417.000,18.000,34.000,0.000,0.000,0.000,0.000,0.000;
#CREDIT:[Ness];
#NOTES:
0000
0000
0000
0000
,
0000
0000
0000
0000
,
0000
0000
0000
0000
,
0000
0000
0000
0000
,
1000
0000
0010
1000
0000
1000
0100
1000
0001
0000
0010
0001
0000
0001
0100
0001
,
1000
0000
0001
0100
0000
0100
0010
0100
0001
0000
0001
0010
0000
0010
0100
0010
,
0001
0000
1000
0100
0000
0100
0010
0100
1000
0000
0010
0100
0000
0100
0001
1000
,
0001
0000
1000
0010
0000
0010
1000
0001
1000
0000
1000
0100
0000
0100
0010
0001
,
0100
0000
0100
0001
1000
0000
0010
0000
1000
0000
0100
1000
0001
0000
1000
0000
,
0010
0000
0100
0010
1000
0000
0001
0000
0010
0000
0001
0100
0001
0000
1000
0100
,
1000
0000
0001
0010
0100
0000
1000
0000
0010
0000
1000
0001
0100
0000
0010
0000
,
0100
0000
0001
0010
0100
0000
1000
0000
0001
0000
1000
0010
1000
0000
0001
0100
,
0001
0000
1000
0001
0010
0000
0100
0000
1000
0000
0010
1000
0100
0000
0010
0000
,
0001
0000
1000
0010
0100
0000
0010
0000
1000
0000
0100
0010
0001
0000
1000
0010
,
0100
0000
0010
1000
0001
0000
0010
0000
0001
0000
0100
0001
1000
0000
0010
0000
,
0100
0000
0010
1000
0001
0000
0010
0000
0100
0000
1000
0010
0000
0010
0001
0000
,
0200
0000
0000
0310
1000
0000
0010
0000
2000
0000
0000
3001
0010
0000
0100
0000
,
0020
0000
0000
0000
0001
0000
0000
0000
0130
0000
0000
0000
1000
0000
0010
1000
,
0001
0000
0010
0000
0100
0000
1000
0100
1000
0000
0001
0000
1000
0000
0001
0100
,
0001
0000
1000
0000
0010
0000
0100
0000
0001
0000
0100
1000
0000
1000
0001
0000
,
0020
0000
0000
0031
0010
0000
0001
0000
2000
0000
0000
3001
1000
0000
0001
0000
,
0200
0000
0000
0000
1000
0000
0000
0000
0310
0000
0000
0000
0001
0000
1000
0100
,
0010
0000
0100
0000
1000
0000
0001
0010
0001
0000
1000
0000
0100
0000
0010
0100
,
1000
0000
0010
0000
0100
0000
0001
0000
1000
0000
0001
0000
2000
0200
0000
3300
,
0100
1000
0010
1000
0000
0010
0001
0100
,
0101
0000
0000
0000
,
0010
0001
0100
0001
0000
0100
1000
0010
,
0012
2003
3020
0230
,
0301
0100
0010
1000
0000
1000
0100
0001
,
0011
0000
1000
0010
1000
0000
0001
0000
,
1000
0100
0001
0100
0000
0010
1000
0100
,
0101
0000
0001
0010
0100
1000
0100
1000
,
0001
0010
1000
0100
0000
1000
0010
1000
,
0101
0000
0000
0000
,
0010
0001
0100
1000
0000
0010
1000
0010
,
0102
2003
3020
0230
,
0301
0010
1000
0100
0000
0010
0001
0100
,
1010
0000
0001
0100
0001
0000
1000
0000
,
0010
1000
0100
0001
0000
0100
1000
0010
,
0011
0000
1000
0100
0010
0000
0001
0000
,
2000
0000
3020
0000
,
0230
0000
0000
0000
0000
0000
0301
1000
,
0100
0000
0000
1000
0010
0000
0100
0000
0001
0000
0000
0101
0000
0000
0001
0000
,
0010
0000
0000
0100
1000
0000
0100
0000
0010
0000
0000
0110
0000
0000
1000
0000
,
0010
0000
0000
1000
0001
0000
0100
0000
0010
0000
0000
0110
0000
0000
0100
0000
,
0002
0000
0000
0000
0000
0000
0003
0000
2000
0000
0000
0000
,
3010
1000
0100
0001
0000
0100
1000
0010
,
0011
0000
0001
0100
0010
0000
1000
0000
,
0001
0100
1000
0010
0000
1000
0100
0001
,
2100
3020
0230
0302
,
1003
0010
0100
0001
0000
0001
0010
1000
,
1100
0000
0100
1000
0001
0000
0100
0000
,
0010
1000
0100
0001
0100
0000
1000
0010
,
0001
0010
1000
0010
0100
0000
0001
0100
,
0001
0010
1000
0010
0000
1000
0100
0001
,
0011
0000
0001
1000
0100
0000
0010
0000
,
0001
0100
0010
1000
0000
1000
0100
0001
,
1020
2030
3002
0023
,
0130
1000
0010
0001
0000
0010
1000
0100
,
0101
0000
1000
0010
0100
0000
0001
0000
,
0010
0001
0100
1000
0000
0100
0001
0010
,
0101
0000
0010
1000
0100
0000
0010
0000
,
0002
0000
2003
0000
,
3200
0000
0000
0000
1300
0010
1000
0001
,
0200
0000
0000
0000
,
0020
0330
0000
0000
;

//---------------dance-single - ----------------
#NOTEDATA:;
#CHARTNAME:[Ness];
#STEPSTYPE:dance-single;
#DESCRIPTION:[Ness];
#CHARTSTYLE:;
#DIFFICULTY:Hard;
#METER:6;
#RADARVALUES:0.325,0.323,0.132,0.198,0.025,236.000,16.000,24.000,0.000,0.000,0.000,0.000,0.000,0.325,0.323,0.132,0.198,0.025,236.000,16.000,24.000,0.000,0.000,0.000,0.000,0.000;
#CREDIT:[Ness];
#NOTES:
0000
0000
0000
0000
,
0000
0000
0000
0000
,
0000
0000
0000
0000
,
0000
0000
0000
0000
,
1000
0100
0001
0001
,
1000
0010
0100
0001
,
0001
0010
1000
1000
,
0010
0100
0001
1000
,
0010
0000
1000
0100
0010
0000
0001
1000
,
0010
0000
0100
0000
0010
0000
1000
0100
,
0001
0000
0100
0000
0010
0000
0001
0100
,
0010
0000
1000
0000
0001
0000
1000
0010
,
0100
0000
0010
0000
1000
0000
0100
0010
,
0001
0000
1000
0001
0010
0000
0001
0000
,
1000
0000
0010
1000
0100
0000
0010
0000
,
0001
0000
0000
0000
1000
0000
0000
0000
0010
0000
1000
0000
0000
0001
0000
0000
,
0200
0000
0310
1000
0200
0000
0310
0001
,
2000
0000
3000
0010
,
1000
0100
0010
0001
,
2000
0000
0000
0000
0000
0000
0000
0000
0000
0000
3010
0000
0000
0100
0000
0000
,
0002
0000
1003
0010
0200
0000
0310
1000
,
0002
0000
0000
0000
0003
0000
0010
0001
,
2000
3020
0230
0302
,
2003
0000
0000
3002
,
0013
0000
0001
0100
0000
0100
0010
0000
,
1001
0000
0000
0000
,
0010
0000
1000
0001
0000
0001
0100
0000
,
0101
0100
0010
1000
,
0001
0000
0010
0100
0000
0100
1000
0000
,
1100
0000
0000
0000
,
1000
0000
0010
0100
0000
0100
0001
0000
,
0101
0000
0010
0000
,
0100
0000
1000
0010
0000
0010
1000
0000
,
1001
0000
0000
0000
,
0001
0000
0010
0001
0000
0001
0100
0000
,
1001
0001
0010
0100
,
1000
0000
0010
1000
0000
1000
0100
0000
,
0110
0000
0000
0000
,
0010
0000
0001
0100
0000
0100
0010
0000
,
0110
0000
2000
0000
,
3020
0000
2030
0000
,
3200
0000
0000
0000
0000
0000
1300
0001
,
0010
0000
0000
0000
0001
0000
1000
0000
0010
0000
0000
1000
0000
0000
0001
0000
,
0010
0000
0000
0000
0001
0000
0100
0000
0010
0000
0000
0100
0000
0000
0001
0000
,
0010
0000
0000
0000
0100
0000
1000
0000
0010
0000
0000
0100
0000
0000
0001
0000
,
2000
0000
0000
0000
0000
0000
3000
0000
0002
0000
0000
0000
,
0103
0000
0010
1000
0000
1000
0001
0000
,
1001
0000
0000
0000
,
0010
0000
1000
0100
0000
0100
0010
0000
,
0011
0001
0100
0010
,
1000
0000
0010
0100
0000
0100
0001
0000
,
1001
0000
1000
0010
,
1000
0000
0100
0010
0000
0010
0001
0000
,
0101
0000
0010
0100
,
0010
0000
0001
1000
0000
1000
0100
0000
,
1001
0000
0000
0000
,
0100
0000
1000
0010
0000
0010
0100
0000
,
0110
0001
0010
0100
,
1000
0000
0010
1000
0000
1000
0100
0000
,
0110
0000
0000
0000
,
0010
0000
0001
0100
0000
0100
0010
0000
,
1001
0000
0010
0000
,
2000
0000
3002
0000
,
0203
0000
0000
0000
0301
0010
0001
1000
,
0200
0000
0000
0000
,
0020
0330
0000
0000
;

//---------------dance-single - ----------------
#NOTEDATA:;
#CHARTNAME:[Ness];
#STEPSTYPE:dance-single;
#DESCRIPTION:[Ness];
#CHARTSTYLE:;
#DIFFICULTY:Medium;
#METER:4;
#RADARVALUES:0.218,0.269,0.033,0.363,0.000,137.000,4.000,44.000,0.000,0.000,0.000,0.000,0.000,0.218,0.269,0.033,0.363,0.000,137.000,4.000,44.000,0.000,0.000,0.000,0.000,0.000;
#CREDIT:[Ness];
#NOTES:
0000
0000
0000
0000
,
0000
0000
0000
0000
,
0000
0000
0000
0000
,
0000
0000
0000
0000
,
0010
1000
0100
0100
,
0010
0001
0100
0100
,
0001
1000
0100
0100
,
1000
0001
0100
0100
,
0010
1000
0100
0010
,
0100
0000
0010
0001
,
1000
0000
0010
1000
,
0100
0000
0010
0010
,
0001
0000
1000
0010
,
0100
0000
0010
1000
,
0001
0000
0010
0100
,
1000
0000
0000
0010
,
0020
0000
2030
0000
,
3002
0000
0003
0010
,
0001
0100
0010
1000
,
0200
0000
0300
0010
,
0020
0000
0032
0000
,
2003
0000
3000
0010
,
1000
0001
0100
0010
,
0200
0000
0000
0302
,
2003
0000
0000
0000
,
3020
0000
0000
0000
,
2030
0000
0000
0000
,
3001
0010
0100
1000
,
0002
0000
0000
0000
,
1000
0000
0000
0000
,
0203
0000
0000
0000
,
0310
0000
1000
0000
,
0200
0000
0000
0000
,
0320
0000
0000
0000
,
0032
0000
0000
0000
,
1003
0010
0100
0001
,
2000
0000
0000
0000
,
0001
0000
0000
0000
,
3200
0000
0000
0000
,
0310
0000
0001
0000
,
2000
3000
0020
0030
,
0200
0000
0300
0001
,
0010
0001
1001
0000
,
1000
0010
0110
0000
,
0010
1000
1100
0000
,
0200
0000
0300
0000
,
1002
0000
0000
0000
,
0023
0000
0000
0000
,
0032
0000
0000
0000
,
1003
0010
0100
0001
,
2000
0000
0000
0000
,
3001
0000
1000
0001
,
0020
0000
0032
0000
,
0203
0000
0320
0000
,
2030
0000
0000
0000
,
3020
0000
0000
0000
,
2030
0000
0000
0000
,
3001
0010
0100
1000
,
0002
0000
0000
0000
,
1003
0000
0001
1000
,
0020
0000
2030
0000
,
3200
0000
0320
0000
,
0032
0000
2003
0000
,
3002
0000
0000
0000
1003
0010
0100
0001
,
2000
0000
0000
0000
,
0002
3003
0000
0000
;

//---------------dance-single - ----------------
#NOTEDATA:;
#CHARTNAME:[Ness];
#STEPSTYPE:dance-single;
#DESCRIPTION:[Ness];
#CHARTSTYLE:;
#DIFFICULTY:Easy;
#METER:2;
#RADARVALUES:0.157,0.214,0.025,0.289,0.000,95.000,3.000,35.000,0.000,0.000,0.000,0.000,0.000,0.157,0.214,0.025,0.289,0.000,95.000,3.000,35.000,0.000,0.000,0.000,0.000,0.000;
#CREDIT:[Ness];
#NOTES:
// measure 0
0000
0000
0000
0000
,  // measure 1
0000
0000
0000
0000
,  // measure 2
0000
0000
0000
0000
,  // measure 3
0000
0000
0000
0000
,  // measure 4
1000
1000
0100
0000
,  // measure 5
0001
0001
0100
0000
,  // measure 6
0010
1000
0100
0000
,  // measure 7
0010
0001
0100
0000
,  // measure 8
0001
0000
1000
0000
,  // measure 9
0010
0000
1000
0001
,  // measure 10
1000
0000
0001
0010
,  // measure 11
0001
0000
1000
0000
,  // measure 12
0100
0000
0010
0000
,  // measure 13
0001
0000
0100
0010
,  // measure 14
0100
0000
0010
0010
,  // measure 15
1000
0000
0000
0000
,  // measure 16
0002
0003
2000
3000
,  // measure 17
0002
0003
0000
0000
,  // measure 18
0010
0000
0100
0000
,  // measure 19
1000
0000
0000
0000
,  // measure 20
0020
0030
0200
0300
,  // measure 21
0002
0003
0000
1000
,  // measure 22
0010
0000
0100
0000
,  // measure 23
0001
0000
0000
0000
,  // measure 24
2002
0000
0000
3003
,  // measure 25
0020
0000
0000
0030
,  // measure 26
0002
0000
0000
0003
,  // measure 27
1000
0000
0001
0000
,  // measure 28
0200
0000
0000
0000
,  // measure 29
0000
0000
0300
0000
,  // measure 30
0010
0000
0000
0000
,  // measure 31
0000
0000
0000
0000
,  // measure 32
2002
0000
0000
3003
,  // measure 33
0020
0000
0000
0030
,  // measure 34
2000
0000
0000
3000
,  // measure 35
0001
0000
1000
0000
,  // measure 36
0200
0000
0000
0000
,  // measure 37
0000
0000
0300
0000
,  // measure 38
0010
0000
0000
0000
,  // measure 39
0000
0000
0000
0000
,  // measure 40
0002
0003
2000
3000
,  // measure 41
0002
0003
0000
0000
,  // measure 42
0020
0000
0130
0000
,  // measure 43
0020
0000
0130
0000
,  // measure 44
0020
0000
0130
0000
,  // measure 45
1000
0000
0000
0000
,  // measure 46
2002
0000
0000
3003
,  // measure 47
0020
0000
0000
0030
,  // measure 48
2000
0000
0000
3000
,  // measure 49
0001
0000
1000
0000
,  // measure 50
0200
0000
0000
0000
,  // measure 51
0000
0000
0300
0000
,  // measure 52
0010
0000
0001
0000
,  // measure 53
0100
0000
1000
0000
,  // measure 54
0020
0000
0000
0030
,  // measure 55
2000
0000
0000
3000
,  // measure 56
0200
0000
0000
0300
,  // measure 57
0010
0000
0001
0000
,  // measure 58
0200
0000
0000
0000
,  // measure 59
0000
0000
0300
0000
,  // measure 60
0010
0000
1000
0000
,  // measure 61
0100
0000
0001
0000
,  // measure 62
0020
0030
0002
0003
,  // measure 63
2000
3000
0001
1000
,  // measure 64
0200
0000
0000
0300
,  // measure 65
0010
0000
0000
0000
;

//---------------dance-single - ----------------
#NOTEDATA:;
#CHARTNAME:[Ness];
#STEPSTYPE:dance-single;
#DESCRIPTION:[Ness];
#CHARTSTYLE:;
#DIFFICULTY:Beginner;
#METER:1;
#RADARVALUES:0.097,0.134,0.025,0.000,0.000,79.000,3.000,0.000,0.000,0.000,0.000,0.000,0.000,0.097,0.134,0.025,0.000,0.000,79.000,3.000,0.000,0.000,0.000,0.000,0.000,0.000;
#CREDIT:[Ness];
#NOTES:
// measure 0
0000
0000
0000
0000
,  // measure 1
0000
0000
0000
0000
,  // measure 2
0000
0000
0000
0000
,  // measure 3
0000
0000
0000
0000
,  // measure 4
1000
0000
0000
0000
,  // measure 5
0001
0000
0000
0000
,  // measure 6
0100
0000
0000
0000
,  // measure 7
0010
0000
0000
0000
,  // measure 8
1000
0000
0001
0000
,  // measure 9
0100
0000
0010
0000
,  // measure 10
1000
0000
0001
0000
,  // measure 11
1000
0000
0000
0000
,  // measure 12
0001
0000
1000
0000
,  // measure 13
0010
0000
0100
0000
,  // measure 14
0001
0000
1000
0000
,  // measure 15
0001
0000
0000
0000
,  // measure 16
0010
0000
0010
0000
,  // measure 17
0010
0000
0000
0000
,  // measure 18
0001
0000
1000
0000
,  // measure 19
0001
0000
0000
0000
,  // measure 20
0100
0000
0100
0000
,  // measure 21
0100
0000
0000
0000
,  // measure 22
1000
0000
0001
0000
,  // measure 23
1000
0000
0000
0000
,  // measure 24
1001
0000
0000
0000
,  // measure 25
0010
0000
0000
0000
,  // measure 26
0001
0000
0000
0000
,  // measure 27
1000
0000
1000
0000
,  // measure 28
1000
0000
0000
0000
,  // measure 29
0000
0000
0000
0000
,  // measure 30
0010
0000
0000
0000
,  // measure 31
0000
0000
0000
0000
,  // measure 32
1001
0000
0000
0000
,  // measure 33
0010
0000
0000
0000
,  // measure 34
1000
0000
0000
0000
,  // measure 35
0001
0000
0001
0000
,  // measure 36
0001
0000
0000
0000
,  // measure 37
0000
0000
0000
0000
,  // measure 38
1000
0000
0000
0000
,  // measure 39
0000
0000
0000
0000
,  // measure 40
0001
0000
0010
0000
,  // measure 41
0100
0000
0000
0000
,  // measure 42
1000
0000
0000
0000
,  // measure 43
0010
0000
0000
0000
,  // measure 44
0100
0000
0000
0000
,  // measure 45
0001
0000
0000
0000
,  // measure 46
1001
0000
0000
0000
,  // measure 47
0010
0000
0000
0000
,  // measure 48
0001
0000
0000
0000
,  // measure 49
1000
0000
1000
0000
,  // measure 50
1000
0000
0000
0000
,  // measure 51
0000
0000
0001
0000
,  // measure 52
0001
0000
0001
0000
,  // measure 53
0001
0000
0001
0000
,  // measure 54
0001
0000
0000
0000
,  // measure 55
0010
0000
0000
0000
,  // measure 56
0001
0000
0000
0000
,  // measure 57
1000
0000
1000
0000
,  // measure 58
1000
0000
0000
0000
,  // measure 59
0000
0000
0000
0000
,  // measure 60
0001
0000
0001
0000
,  // measure 61
0001
0000
0001
0000
,  // measure 62
0001
0000
0010
0000
,  // measure 63
0001
0000
1000
1000
,  // measure 64
1000
0000
0000
0000
,  // measure 65
0001
0000
0000
0000
;
