#VERSION:0.81;
#TITLE:Hollow Moon;
#SUBTITLE:(Bad Wolf);
#ARTIST:Awolnation;
#TITLETRANSLIT:;
#SUBTITLETRANSLIT:;
#ARTISTTRANSLIT:;
#GENRE:Run;
#ORIGIN:;
#CREDIT:;
#BANNER:Hollow Moon-bn.png;
#BACKGROUND:Hollow Moon-bg.png;
#PREVIEWVID:;
#JACKET:;
#CDIMAGE:;
#DISCIMAGE:;
#LYRICSPATH:;
#CDTITLE:;
#MUSIC:Hollow Moon (Bad Wolf).mp3;
#OFFSET:-0.031000;
#SAMPLESTART:52.002499;
#SAMPLELENGTH:16.000000;
#SELECTABLE:YES;
#BPMS:0.000=120.000;
#STOPS:;
#DELAYS:;
#WARPS:;
#TIMESIGNATURES:0.000=4=4;
#TICKCOUNTS:0.000=4;
#COMBOS:0.000=1;
#SPEEDS:0.000=1.000=0.000=0;
#SCROLLS:0.000=1.000;
#FAKES:;
#LABELS:0.000=Song Start;
#LASTSECONDHINT:116.062500;
#BGCHANGES:;
#KEYSOUNDS:;
#ATTACKS:
;

//---------------dance-single - ----------------
#NOTEDATA:;
#CHARTNAME:;
#STEPSTYPE:dance-single;
#DESCRIPTION:;
#CHARTSTYLE:;
#DIFFICULTY:Hard;
#METER:8;
#RADARVALUES:0.276048,0.288601,0.149923,0.033316,0.124935,210.000000,18.000000,4.000000,0.000000,0.000000,119.000000,0.000000,0.000000,0.276048,0.288601,0.149923,0.033316,0.124935,210.000000,18.000000,4.000000,0.000000,0.000000,119.000000,0.000000,0.000000;
#CREDIT:;
#NOTES:
0000
0000
0000
0000
,
0000
0000
0000
0000
,
0000
0000
0000
0000
,
0000
0000
0000
0000
,
0000
0000
0000
0000
,
0000
0000
0000
0000
,
0000
0000
0000
0000
,
0000
0100
1001
0000
0110
0000
1001
0000
,
0100
0040
4030
3004
,
0013
0011
1010
1001
,
0400
0000
0000
0000
0000
0300
0040
0000
0000
0000
0000
0000
0000
0000
0030
0000
,
0000
1000
0400
0000
0000
0300
0000
0000
,
0010
0004
0000
0403
0000
0340
0000
4030
,
0000
0000
3040
0000
0000
0000
0430
0000
0000
0300
0000
0000
0001
0000
0000
0000
,
1000
0000
0000
0400
0000
0000
0000
0300
,
0000
0000
0040
0000
0000
0000
0000
0000
0430
0000
0000
0000
0000
0300
1000
0000
,
0001
0400
0000
0340
0000
4030
0000
3400
,
0000
0000
0340
0000
0000
0000
0034
0000
0000
0003
0000
0000
1000
0000
0000
0000
,
0010
0000
0000
4000
0000
0000
0000
3000
,
0000
0000
0001
0000
0400
0000
0000
0000
0000
0300
0000
0000
0010
0000
0000
0000
,
0100
0004
0000
0043
0000
4030
0000
3040
,
0000
0000
0034
0000
0000
0000
0403
0000
0000
0300
0000
0000
0010
0000
0000
0000
,
1000
0000
0000
0400
0000
0000
0000
0340
,
0000
0000
0034
0000
0000
0000
4003
0000
0000
3000
0000
0000
0010
0000
0000
0000
,
0220
0000
0330
1000
0040
0000
0030
0001
,
0400
0310
4000
3001
,
0040
0004
0000
0000
0033
0000
0004
0100
0003
0000
0001
0000
4000
0010
3000
0000
,
0040
0430
0301
1001
,
4000
0400
0000
0000
3300
0000
0004
1000
0003
0000
0001
0000
0400
0010
0300
0000
,
0100
0000
0040
0000
0000
0000
4030
0000
0000
3000
0000
0000
1001
0000
0000
0000
,
0400
4000
0000
0000
3300
0000
4000
0010
3000
0000
1000
0000
0004
0100
0003
0000
,
0400
0340
1030
1001
,
0004
0040
0000
0000
0033
0000
4000
0001
3000
0000
1000
0000
0040
0100
0030
0000
,
0010
0000
0400
0000
0000
0000
0304
0000
0000
0003
0000
0000
1001
0000
0000
0000
,
4000
0400
0000
0000
0000
0000
0000
0000
0300
0000
0000
0000
3004
0400
0000
0000
,
0300
0000
0003
0000
0040
0004
0000
0000
0003
0000
0030
0000
0400
4000
0000
0000
,
0000
0000
0000
0000
3300
0000
4000
0001
3000
0000
1000
0000
0040
0100
0030
0000
,
0100
0000
0004
0000
0000
0000
4003
0000
0000
3000
0000
0000
1001
0000
0000
0000
,
0040
0130
0004
1003
,
0400
0310
4000
3001
,
0040
0000
0100
0000
,
0000
0100
0100
0000
0001
0000
0100
0000
,
0030
0000
4001
0000
0040
3000
0400
0030
,
0001
0300
1004
0010
1003
0000
0110
0000
,
0004
0000
0000
0003
0000
0000
0400
0000
0000
0000
0000
0000
0000
0000
0300
0000
,
0000
0040
0000
0000
0000
0030
0000
0000
,
4000
3400
0340
0034
,
0043
0000
0031
1000
0004
0000
0103
0000
,
0220
0000
0330
0001
0400
0000
0300
1000
,
0040
0130
0004
1003
,
0400
4000
0000
0000
3300
0000
4000
0010
3000
0000
1000
0000
0004
0100
0003
0000
,
0400
0340
4030
3000
,
0004
0040
0000
0000
0033
0000
4000
0001
3000
0000
1000
0000
0040
0100
0030
0000
,
0010
0000
0400
0000
0000
0300
0000
0000
0140
0000
0000
0000
0130
0000
0000
0000
,
0040
4000
0000
0000
3030
0000
0004
0100
0003
0000
0001
0000
4000
0010
3000
0000
,
0040
0430
0304
1003
,
4000
0400
0000
0000
3300
0000
0004
1000
0003
0000
0001
0000
0400
0010
0300
0000
,
0100
0000
0040
0000
0000
0030
0000
0000
0410
0000
0000
0000
0310
0000
0000
0000
;

//---------------dance-single - ----------------
#NOTEDATA:;
#CHARTNAME:;
#STEPSTYPE:dance-single;
#DESCRIPTION:;
#CHARTSTYLE:;
#DIFFICULTY:Medium;
#METER:5;
#RADARVALUES:0.216555,0.338159,0.174910,0.149923,0.000000,143.000000,21.000000,18.000000,0.000000,0.000000,64.000000,0.000000,0.000000,0.216555,0.338159,0.174910,0.149923,0.000000,143.000000,21.000000,18.000000,0.000000,0.000000,64.000000,0.000000,0.000000;
#CREDIT:;
#NOTES:
0000
0000
0000
0000
,
0000
0000
0000
0000
,
0000
0000
0000
0000
,
0000
0000
0000
0000
,
0000
0000
0000
0000
,
0000
0000
0000
0000
,
0000
0000
0000
0000
,
0000
0010
1001
0000
1001
0000
1001
0000
,
0100
0000
0000
0000
0004
0000
0000
0000
0000
0003
0000
0000
0010
0000
0100
0000
,
1000
0000
0000
0000
4000
0000
0000
0000
0000
3000
0000
0000
1001
0000
0000
0000
,
0010
0000
0000
0000
0000
0000
0000
0000
4000
0000
0000
0000
0000
3000
0000
0000
,
0000
0000
0000
0000
0004
0000
0000
0000
0000
0003
0000
0000
0000
0000
0000
0000
,
0100
0000
0000
0000
0040
0000
0000
0000
0000
0030
0000
0000
1000
0000
0001
0000
,
0100
0000
0000
0000
0004
0000
0000
0000
0000
0003
0000
0000
0010
0000
0000
0000
,
0100
0000
0000
0000
0000
0000
0000
0000
4000
0000
0000
0000
0000
3000
0000
0000
,
0000
0000
0000
0000
0040
0000
0000
0000
0000
0030
0000
0000
0000
0000
0000
0000
,
0100
0000
0000
0000
0004
0000
0000
0000
0000
0003
0000
0000
1000
0000
0010
0000
,
0100
0000
0000
0000
0040
0000
0000
0000
0000
0030
0000
0000
1000
0000
0000
0000
,
0100
0000
0000
0000
0000
0000
0000
0000
0040
0000
0000
0000
0000
0030
0000
0000
,
0000
0000
0000
0000
0400
0000
0000
0000
0000
0300
0000
0000
0000
0000
0000
0000
,
0010
0000
0000
0000
0004
0000
0000
0000
0000
0003
0000
0000
1000
0000
0001
0000
,
0100
0000
0000
0000
0004
0000
0000
0000
0000
0003
0000
0000
0010
0000
0000
0000
,
0100
0000
1000
0040
,
0130
0004
1003
0100
,
2002
3003
0220
0330
,
1001
0220
0000
0330
,
0004
0000
0000
0000
0000
0003
0000
0000
4000
0000
0000
0000
0000
3000
0000
0000
,
0004
4003
3001
1001
,
0040
0000
0000
0000
0000
0030
0000
0000
0400
0000
0000
0000
0000
0300
0000
0000
,
0040
0430
0310
0110
,
4000
0000
0000
0000
0000
3000
0000
0000
0004
0000
0000
0000
0000
0003
0000
0000
,
0040
0430
0310
1001
,
4000
0000
0000
0000
0000
3000
0000
0000
0004
0000
0000
0000
0000
0003
0000
0000
,
0400
0304
1003
1001
,
0040
0000
0000
0000
0000
0030
0000
0000
0400
0000
0000
0000
0340
0000
0000
0000
,
0000
0030
0000
0000
4000
0000
0000
0000
0000
3000
0000
0000
0004
0000
0000
0000
,
0043
0000
0000
0000
0000
0030
0000
0000
0400
0000
0000
0000
0000
0300
0000
0000
,
0040
0430
0310
0110
,
0100
1000
0010
0100
,
0001
0010
0100
1000
,
0040
0000
0000
0000
,
0000
0030
0000
0000
1001
0000
0000
0000
1001
0000
0000
0000
1001
0000
0000
0000
,
0100
0000
0000
0000
0004
0000
0000
0000
0000
0003
0000
0000
1000
0000
0010
0000
,
0100
0040
1030
1001
,
0001
0000
0000
0000
0000
0000
0000
0000
0400
0000
0000
0000
0000
0300
0000
0000
,
0000
0000
0000
0000
0040
0000
0000
0000
0000
0030
0000
0000
0000
0000
0000
0000
,
0100
0000
0000
0000
0040
0000
0000
0000
0000
0030
0000
0000
1000
0000
0001
0000
,
0100
0000
0000
0000
4000
0000
0000
0000
0000
3000
0000
0000
0100
0000
0000
0000
,
2002
3003
0220
0330
,
1001
0220
0000
0330
,
0004
0000
0000
0000
0000
0003
0000
0000
4000
0000
0000
0000
0000
3000
0000
0000
,
0040
0000
0000
0000
4030
0000
0000
0000
3004
0000
0000
0000
0000
0003
0000
0000
,
0400
0000
0000
0000
0000
0300
0000
0000
0040
0000
0000
0000
0000
0030
0000
0000
,
0400
0000
0000
0000
0002
0300
0000
0000
2003
0000
0000
0000
3002
0000
0000
0000
,
0403
0000
0000
0000
0000
0300
0000
0000
0040
0000
0000
0000
0000
0030
0000
0000
,
0004
0000
0000
0000
4003
0000
0000
0000
3040
0000
0000
0000
0000
0030
0000
0000
,
0400
0000
0000
0000
0000
0300
0000
0000
0040
0000
0000
0000
0000
0030
0000
0000
,
4000
0000
0000
0000
0002
3000
0000
0000
0023
0000
0000
0000
0230
0000
0000
0000
,
0300
0000
0000
0000
;

//---------------dance-single - ----------------
#NOTEDATA:;
#CHARTNAME:;
#STEPSTYPE:dance-single;
#DESCRIPTION:;
#CHARTSTYLE:;
#DIFFICULTY:Easy;
#METER:3;
#RADARVALUES:0.151112,0.168533,0.000000,0.000000,0.000000,127.000000,0.000000,0.000000,0.000000,0.000000,35.000000,0.000000,0.000000,0.151112,0.168533,0.000000,0.000000,0.000000,127.000000,0.000000,0.000000,0.000000,0.000000,35.000000,0.000000,0.000000;
#CREDIT:;
#NOTES:
// measure 0
0000
0000
0000
0000
,  // measure 1
0000
0000
0000
0000
,  // measure 2
0000
0000
0000
0000
,  // measure 3
0000
0000
0000
0000
,  // measure 4
0000
0000
0000
0000
,  // measure 5
0000
0000
0000
0000
,  // measure 6
0000
0000
0000
0000
,  // measure 7
0000
0100
0100
0100
,  // measure 8
0100
0001
0010
0010
,  // measure 9
0100
0010
0400
0300
,  // measure 10
1000
0000
0010
0000
,  // measure 11
0100
0100
0001
0000
,  // measure 12
0010
0001
0100
0100
,  // measure 13
0001
0100
0004
0003
,  // measure 14
1000
0000
0010
0000
,  // measure 15
0100
0000
0010
0000
,  // measure 16
1000
0001
0100
0100
,  // measure 17
0001
1000
0400
0300
,  // measure 18
0010
0000
0100
0000
,  // measure 19
1000
0000
0001
0000
,  // measure 20
0100
0010
1000
0010
,  // measure 21
0100
0001
0400
0300
,  // measure 22
0001
0000
1000
0000
,  // measure 23
0010
0100
0010
0010
,  // measure 24
0100
0000
0100
0000
,  // measure 25
0400
0300
0000
0000
,  // measure 26
0001
0100
0004
0003
,  // measure 27
4000
3000
0100
0000
,  // measure 28
0010
0001
0040
0030
,  // measure 29
0400
0300
1000
0000
,  // measure 30
0010
0100
0004
0003
,  // measure 31
4000
3000
0100
0000
,  // measure 32
0010
0100
0040
0030
,  // measure 33
0004
0003
1000
0000
,  // measure 34
0040
0030
0400
0300
,  // measure 35
0400
0300
0400
0300
,  // measure 36
0100
0001
0040
0030
,  // measure 37
0400
0300
1000
0000
,  // measure 38
0010
0000
0100
0000
,  // measure 39
0010
0000
1000
0000
,  // measure 40
0400
0000
0000
0000
0000
0000
0000
0000
0000
0300
0000
0000
0000
0000
0000
0000
,  // measure 41
0000
0010
0100
0010
,  // measure 42
0001
0100
0010
1000
,  // measure 43
0010
0100
0004
0003
,  // measure 44
0010
0000
0100
0000
,  // measure 45
1000
0000
0001
0000
,  // measure 46
0100
0010
1000
0001
,  // measure 47
0100
0010
4000
3000
,  // measure 48
0001
0000
1000
0000
,  // measure 49
0400
0300
0000
0000
,  // measure 50
0040
0030
0004
0003
,  // measure 51
4000
3000
0100
0000
,  // measure 52
0040
0030
0400
0300
,  // measure 53
1000
0000
0000
0000
0004
0000
0000
0000
0000
0000
0000
0000
0000
0003
0000
0000
,  // measure 54
0400
0300
0040
0030
,  // measure 55
0400
0300
0001
0000
,  // measure 56
0040
0030
0400
0300
,  // measure 57
1000
0000
0000
0000
0004
0000
0000
0000
0000
0000
0000
0000
0000
0003
0000
0000
;

//---------------dance-single - ----------------
#NOTEDATA:;
#CHARTNAME:;
#STEPSTYPE:dance-single;
#DESCRIPTION:;
#CHARTSTYLE:;
#DIFFICULTY:Beginner;
#METER:1;
#RADARVALUES:0.090429,0.095784,0.000000,0.000000,0.000000,76.000000,0.000000,0.000000,0.000000,0.000000,0.000000,0.000000,0.000000,0.090429,0.095784,0.000000,0.000000,0.000000,76.000000,0.000000,0.000000,0.000000,0.000000,0.000000,0.000000,0.000000;
#CREDIT:;
#NOTES:
// measure 0
0000
0000
0000
0000
,  // measure 1
0000
0000
0000
0000
,  // measure 2
0000
0000
0000
0000
,  // measure 3
0000
0000
0000
0000
,  // measure 4
0000
0000
0000
0000
,  // measure 5
0000
0000
0000
0000
,  // measure 6
0000
0000
0000
0000
,  // measure 7
0000
0010
0000
0010
,  // measure 8
0000
0000
1000
0000
,  // measure 9
0000
0000
0001
0000
,  // measure 10
0000
0000
0100
0000
,  // measure 11
0000
0000
0010
0000
,  // measure 12
0000
0000
0100
0000
,  // measure 13
0000
0000
0010
0000
,  // measure 14
0000
0000
1000
0000
,  // measure 15
0000
0000
0001
0000
,  // measure 16
0000
0000
0010
0000
,  // measure 17
0000
0000
0100
0000
,  // measure 18
0000
0000
1000
0000
,  // measure 19
0000
0000
0001
0000
,  // measure 20
0000
0000
0100
0000
,  // measure 21
0000
0000
0010
0000
,  // measure 22
0000
0000
1000
0000
,  // measure 23
0000
0000
0001
0000
,  // measure 24
0100
0000
1000
0000
,  // measure 25
0100
0000
0000
0000
,  // measure 26
0010
0000
0010
0000
,  // measure 27
0010
0000
0100
0000
,  // measure 28
0010
0000
0010
0000
,  // measure 29
0010
0000
0100
0000
,  // measure 30
0001
0000
0001
0000
,  // measure 31
0001
0000
1000
0000
,  // measure 32
0001
0000
0001
0000
,  // measure 33
0001
0000
1000
0000
,  // measure 34
0100
0000
0010
0000
,  // measure 35
0100
0000
0010
0000
,  // measure 36
0100
0000
0100
0000
,  // measure 37
0010
0000
0010
0000
,  // measure 38
0001
0000
0000
0000
,  // measure 39
1000
0000
0000
0000
,  // measure 40
0010
0000
0000
0000
,  // measure 41
0100
0100
0000
0100
,  // measure 42
0000
0000
0010
0000
,  // measure 43
0000
0000
0010
0000
,  // measure 44
0000
0000
1000
0000
,  // measure 45
0000
0000
0100
0000
,  // measure 46
0000
0000
0010
0000
,  // measure 47
0000
0000
0001
0000
,  // measure 48
0010
0000
1000
0000
,  // measure 49
0010
0000
0000
0000
,  // measure 50
0001
0000
0001
0000
,  // measure 51
1000
0000
1000
0000
,  // measure 52
0100
0000
0100
0000
,  // measure 53
0010
0000
0010
0000
,  // measure 54
0001
0000
0001
0000
,  // measure 55
1000
0000
1000
0000
,  // measure 56
0100
0000
0100
0000
,  // measure 57
0010
0000
0010
0000
;
