#TITLE:Hex;
#SUBTITLE:;
#ARTIST:Dance With The Dead;
#TITLETRANSLIT:;
#SUBTITLETRANSLIT:;
#ARTISTTRANSLIT:;
#GENRE:Driven to Madness;
#CREDIT:;
#BANNER:Hex-bn.png;
#BACKGROUND:Black.png;
#LYRICSPATH:;
#CDTITLE:;
#MUSIC:Hex.mp3;
#OFFSET:-0.022006;
#SAMPLESTART:74.876701;
#SAMPLELENGTH:17.614677;
#LASTBEATHINT:269.000000;
#SELECTABLE:YES;
#DISPLAYBPM:109.000000;
#BPMS:0.000000=109.000000
,120.000000=436.000000
,124.000000=109.000000
,138.250000=436.000000
,139.000000=109.000000
;
#STOPS:138.250000=0.310000
;
#BGCHANGES:-0.500=Hex-video.avi=1.000=1=0=0=StretchNoLoop==CrossFade==,
99999=-nosongbg-=1.000=0=0=0 // don't automatically add -songbackground-
;
#KEYSOUNDS:;
#ATTACKS:;

//---------------dance-single - ----------------
#NOTES:
     dance-single:
     :
     Challenge:
     11:
     0.700393,0.671480,0.141232,0.060528,1.170204,729.000000,708.000000,21.000000,9.000000,64.000000,0.000000,0.700393,0.671480,0.141232,0.060528,1.170204,729.000000,708.000000,21.000000,9.000000,64.000000,0.000000:
0000
0000
0000
0000
,
0000
0000
0000
0000
,
1000
0100
0010
0000
0001
0010
0000
1000
0010
0000
0100
0001
0000
1000
0100
1000
,
0001
1000
0010
0000
0100
0001
0000
1000
0100
0000
0010
0100
0000
1000
0001
1000
,
0010
0100
0010
0000
1000
0010
0000
0100
0001
0000
0010
0001
0000
0001
1000
0100
,
1000
0010
0100
0000
0010
1000
0000
0001
0010
0000
0001
1000
0000
0100
0010
0100
,
1000
0010
0100
0000
0010
1000
0000
1000
0001
0000
0010
0100
0000
0100
1000
0001
,
0100
0001
0010
0000
0100
1000
0000
0010
0100
0000
0010
1000
0000
0001
0010
0100
,
0010
0001
1000
0000
0001
0100
0000
0100
0010
0000
1000
0001
0000
1000
0100
1000
,
0001
1000
0010
0000
0100
0001
0000
1000
0010
0100
0001
0010
0100
1000
0001
0010
,
0100
1000
0100
0000
1000
0001
0100
0001
1000
0000
0010
0100
0000
0100
0001
1000
,
0100
0010
0001
0000
1000
0100
1000
0001
0010
0000
0100
1000
0000
0001
0100
0010
,
1000
0001
0010
0000
0100
1000
0001
1000
0100
0000
0010
0001
0000
0001
0100
0001
,
1000
0010
0100
0000
0010
1000
0001
1000
0100
0000
0010
0001
0000
1000
0010
0100
,
0001
1000
0100
0000
1000
0001
0100
0010
1000
0000
0001
0010
0000
0100
1000
0001
,
1000
0100
0010
0000
0001
1000
0010
0100
0001
0000
1000
0100
0000
0100
0010
0100
,
1000
0001
0100
0000
0010
1000
0001
0010
0100
0000
1000
0010
0000
0100
0001
1000
,
0100
1000
0010
0000
0100
0001
0000
1000
0100
0001
0100
1000
0100
0010
0100
1000
,
0001
0000
0100
0000
0000
0000
0100
0000
0010
0000
0000
0000
1000
0010
1000
0000
0001
0000
1000
0000
0000
0000
1000
0000
0100
0000
0000
0000
0100
0010
0100
0000
,
0010
0000
0001
0000
0000
0000
0001
0000
1000
0000
0000
0000
1000
0010
1000
0000
0010
0000
0100
0000
0000
0000
0100
0000
0001
0000
0000
0000
1000
0100
1000
0000
,
0100
0000
0010
0000
0000
0000
0001
0000
1000
0000
0000
0000
0001
0100
0001
0000
1000
0000
0010
0000
0000
0000
0100
0000
0001
0000
0000
0000
1000
0100
1000
0000
,
0010
0000
0100
0000
0000
0000
0100
0000
0010
0000
0000
0000
1000
0010
1000
0000
0001
0000
0010
0000
0000
0000
0100
0000
1000
0000
0000
0000
0001
1000
0001
0000
,
0010
0000
0001
0000
0000
0000
1000
0000
0010
0000
0000
0000
0100
0001
0100
0000
0010
0000
1000
0000
0000
0000
0001
0000
0010
0000
0000
0000
0100
1000
0100
0000
,
1000
0000
0001
0000
0000
0000
1000
0000
0100
0000
0000
0000
0010
0100
0010
0000
0001
0000
1000
0000
0000
0000
0001
0000
0010
0000
0000
0000
0100
1000
0100
0000
,
1000
0000
0001
0000
0000
0000
1000
0000
0100
0000
0000
0000
1000
0001
1000
0000
0001
0000
0100
0000
0000
0000
0100
0000
0010
0000
0000
0000
1000
0010
1000
0000
,
0001
0000
0010
0000
0000
0000
0100
0000
1000
0000
0000
0000
0010
0100
0010
0000
1000
0000
0001
0000
0000
0000
1000
0000
0100
0000
0010
0000
0100
0000
0010
0000
,
0001
0100
0010
1000
0000
1000
0010
0001
0000
0001
0010
1000
0000
1000
0001
1000
,
0000
1000
0100
0001
0000
0001
0100
1000
0000
1000
0010
0100
0000
0100
0010
0001
,
0000
0001
0010
0100
0000
0100
0010
1000
0000
0010
1000
0001
0000
0001
1000
0100
,
0000
0000
0100
0000
0001
0000
0100
0000
0000
0000
0100
0000
0010
0000
0100
0000
0000
0000
0100
0000
1000
0000
0100
0000
1000
0000
0001
0000
0100
0000
0001
0100
,
0002
0000
0000
0003
,
0101
0100
0001
0010
0000
0001
0010
1000
0000
0001
0100
1000
0000
0100
1000
0010
,
0000
1000
0010
0001
0000
1000
0100
0001
0000
0100
0001
0010
0000
0001
0010
1000
,
0000
1000
0010
0001
0000
0001
0010
1000
0000
1000
0010
0001
0000
0001
0100
1000
,
0000
1000
0100
0001
0000
0001
0100
1000
0100
0001
0000
0000
1010
0000
0010
0000
,
1001
0000
0010
0000
1000
0000
1000
0010
0000
0010
0100
0010
1000
0000
0001
0000
,
1001
0000
1000
0000
0010
0000
0001
0010
0000
0010
0100
0001
1000
0000
0100
0000
,
1100
0000
0100
0000
0010
0000
0100
1000
0000
1000
0100
0001
0100
0000
0010
0000
,
0110
0000
0010
0000
0001
0000
1000
0010
0000
0010
0100
0010
1000
0000
0001
0000
,
1001
0000
1000
0000
0100
0000
0001
0100
0000
0010
1000
0010
0001
0000
0100
0000
,
1001
0000
0100
0000
0001
0000
1000
0010
0000
0100
1000
0100
0001
0000
1000
0000
,
1001
0000
0001
0000
0100
0000
1000
0100
0000
0010
0001
0010
1000
0000
0001
0000
,
1001
0000
0000
0000
0100
0000
0000
0000
1000
0000
0000
0000
0001
1000
0001
0000
0010
0000
0100
0000
0010
0000
0100
0000
2000
0000
0000
0000
0000
0000
0001
0000
,
0000
0010
0000
0000
0100
0000
0000
0001
0000
0100
0000
3010
0000
0002
0000
1000
,
0000
0010
0000
0000
1000
0000
0000
0100
0000
0010
0000
1000
0003
1000
0010
0100
,
0010
0000
0000
0000
1000
0000
0100
0010
0000
0010
0100
0010
0001
1000
0000
0100
,
0010
0100
1000
0000
0001
0000
0010
0100
1000
0100
0010
0100
1000
0001
1000
0100
,
1000
0000
0000
0000
0010
0000
1000
0001
0000
1000
0010
0100
0001
0100
0000
0100
,
0010
0100
1000
0000
0100
0000
0010
1000
0001
1000
0100
2000
0002
0000
0000
0000
,
0000
0000
0000
0000
,
0000
0000
0000
00M0
3M03
00M0
MM00
00MM
MM00
00MM
MM00
000M
0110
0000
010M
0000
,
1010
0000
0000
0000
0000
0000
0100
0000
M000
0000
0000
0000
0010
0000
0000
0000
0000
0000
0010
0000
0M00
1000
0000
0000
0000
0000
0000
0100
00M0
0000
0001
0000
0000
0100
0000
0000
0010
0000
0000
0000
000M
0000
0100
0000
M000
0000
0000
0000
,
0011
0000
0000
0000
M000
0000
0100
0000
0000
0000
0000
0000
001M
0000
0000
0000
0000
0000
1000
0000
00M0
0100
0000
0000
0000
0000
0000
0100
000M
0000
0010
0000
0000
1000
0000
0000
0010
0000
0000
0000
0M00
0000
0001
0000
0000
0000
0000
0000
,
10M1
0000
0000
0000
0000
0000
0001
0000
M000
0000
0000
0000
0100
0000
0000
0000
0000
0000
0010
0000
M000
0001
0000
0000
0M00
0000
0000
0001
0000
0000
0010
0000
0000
1000
0000
0000
0001
0000
0000
0000
0000
0000
0100
0000
00M0
0000
0000
0000
,
M101
0000
0000
0000
0000
0000
0100
0000
000M
0000
0000
0000
0010
0000
0000
0000
0000
0000
1000
0000
0000
0100
0000
0000
00M0
0000
0000
0100
0000
0000
0001
0000
00M0
0100
0000
0000
1000
0000
0000
0000
0000
0000
0MM1
0000
0000
0000
0000
0000
,
1MM1
0000
1000
0000
01M0
0000
M001
0100
0000
0010
1M00
0010
0001
0000
01M0
0000
,
1MM1
0000
0100
0000
00M1
0000
1000
0010
000M
0100
10M0
0100
0001
0000
1MM0
0000
,
1MM1
0000
0001
0000
01M0
0000
1000
0100
000M
0010
0M01
0010
1000
0000
0MM1
0000
,
1MM1
0000
0000
0000
0100
0000
0000
0000
10M0
0000
0000
0000
0M01
1000
0001
0000
0110
0000
0000
0000
1001
0000
0000
0000
0001
0000
0100
0000
1000
0000
0100
0000
,
0002
0000
0000
0000
1000
0000
0010
0000
0013
1000
000M
0000
1000
0010
0001
0010
,
2000
0000
0000
0000
0001
0000
0100
0000
3100
0001
M000
0000
0001
0100
1000
0100
,
0002
0000
0000
0000
1000
0000
0100
0000
0103
1000
000M
0000
1000
0010
0001
0010
,
2000
0000
0000
0000
0001
0000
0010
0000
3010
0001
M000
0000
0010
1000
0001
1000
,
0100
0000
0000
0000
0100
0000
0010
0000
0001
0100
0000
0000
1000
0010
0100
0010
,
1000
0000
0000
0000
0100
0000
0010
0000
0100
1000
0000
0000
1000
0100
0010
0001
,
0100
0000
0000
0000
0010
0000
1000
0000
0001
1000
0000
0000
0010
0100
1000
0001
,
0100
0000
0000
0000
0010
0000
1000
0000
0100
0001
0000
0000
0000
0000
0000
0000
;

//---------------dance-single - ----------------
#NOTES:
     dance-single:
     :
     Hard:
     8:
     0.435224,0.447654,0.053802,0.134506,0.262287,453.000000,445.000000,8.000000,20.000000,0.000000,0.000000,0.435224,0.447654,0.053802,0.134506,0.262287,453.000000,445.000000,8.000000,20.000000,0.000000,0.000000:
0000
0000
0000
0000
,
0000
0000
0000
0000
,
1001
0000
1000
0000
0010
0000
0000
0000
1000
0000
0000
0001
0000
0000
0010
0000
,
0100
0000
0010
0000
0001
0000
0000
0000
1000
0000
0000
0001
0000
0000
0100
0000
,
0010
0000
1000
0000
0100
0000
0000
0000
1000
0000
0000
0001
0000
0000
1000
0000
,
0010
0100
0001
0000
1000
0100
0001
0100
,
1000
0000
0010
0000
0100
0000
0000
0000
0010
0000
0000
1000
0000
0000
0001
0000
,
0010
0000
0100
0000
1000
0000
0000
0000
0001
0000
0000
1000
0000
0000
0010
0000
,
0100
0000
0001
0000
0010
0000
0000
0000
0100
0000
0000
1000
0000
0000
0001
0000
,
1000
0010
0100
0000
0001
0100
1000
0100
,
0001
0100
0001
0010
0001
0100
0010
0100
,
0001
0100
1000
0100
0001
0100
0010
0100
,
0001
0010
0100
1000
0100
0010
0100
1000
,
0001
1000
0010
1000
0001
0100
0010
1000
,
0001
0100
0010
0100
1000
0100
0010
0100
,
0001
0100
0001
1000
0001
0010
0001
1000
,
0010
1000
0010
0100
0010
0001
0010
0100
,
0001
0100
0010
1000
0100
0000
0000
0000
,
0110
0000
0000
1000
0100
0000
1000
0000
0000
0001
0100
0000
0001
0000
0000
1000
,
0010
0000
1000
0000
0000
0001
0010
0000
0001
0000
0000
0000
1000
0000
0000
0000
,
0001
0000
0000
0010
0100
0000
0010
0000
0000
0001
1000
0000
0001
0000
0000
1000
,
0020
0001
0100
1030
,
1001
0000
0000
1000
0100
0000
1000
0000
0000
0001
0010
0000
0100
0000
0000
0010
,
0001
0000
1000
0000
0000
0010
0100
0000
0010
0000
0000
0000
1000
0000
0000
0000
,
0001
0000
0000
1000
0100
0000
0010
0000
0000
0001
0100
0000
0001
0000
0000
0000
,
0200
1000
0010
0301
,
1000
0000
0001
0010
0000
0100
0000
0010
0000
0001
1000
0000
0010
0000
0100
0000
,
0001
0000
1000
0100
0000
0010
0000
0001
0000
1000
0010
0000
1000
0000
0001
0000
,
0100
0000
0010
1000
0000
0001
0000
0010
0000
0100
1000
0000
0001
0000
0010
0000
,
0100
0000
1000
0010
0000
0100
0000
0001
0000
1000
0100
0000
0010
0000
0001
0000
,
2000
0000
0000
0000
,
3001
0010
0000
0100
0000
0010
0001
0000
1000
0000
0100
0000
1000
0000
0001
0100
,
0000
0010
0000
1000
0000
0001
0010
0000
0100
0000
1000
0000
0001
0000
1000
0100
,
0000
0010
0000
0100
0000
0001
0100
0000
0010
0000
0001
0000
1000
0000
0010
0100
,
0000
0010
0000
1000
0000
0001
0010
0000
0100
1000
0000
0000
1100
0000
0100
0000
,
1000
0100
0010
0100
1000
0100
0001
0100
,
0010
0100
0001
0100
0010
0100
1000
0010
,
0100
0010
1000
0010
0100
0010
0001
0010
,
0100
0010
0001
0010
0100
0010
1000
0100
,
0001
0100
0010
0100
0001
0100
1000
0010
,
0001
0010
0100
0010
1000
0010
0100
0001
,
0010
0100
0010
0001
0010
1000
0010
0100
,
1000
0100
0010
0100
0001
0100
2000
0000
,
0000
0000
0000
3000
,
0000
0000
0000
0000
0000
0000
1001
0002
,
0100
0003
2000
0100
3000
0002
0010
0003
,
2000
0010
3000
0200
0001
0300
1000
0002
,
0010
0003
0200
1000
0300
2000
0010
3000
,
0200
0001
0300
0020
0100
0030
2002
0000
,
0000
0000
0000
0000
,
0000
0000
3003
0000
0000
0000
1001
1000
,
0001
0000
0010
0000
0100
0000
1000
0100
0000
0000
1000
0000
0001
0000
0100
0000
,
0010
0000
1000
0000
0001
0000
0100
0001
0000
0000
1000
0000
0010
0000
0100
0000
,
0001
0000
0010
0000
0100
0000
1000
0010
0000
0000
1000
0000
0100
0000
0010
0000
,
0001
0000
0100
0000
0010
0000
0100
0001
0000
0000
1000
0000
0001
0000
0010
0000
,
0100
0000
0010
0000
1000
0000
0010
0100
0000
0000
0010
0000
0001
0000
1000
0000
,
0010
0000
0100
0000
0001
0000
1000
0001
0000
0000
0010
0000
0001
0000
1000
0000
,
0100
0000
0010
0000
0100
0000
0001
0100
0000
0000
0010
0000
0100
0000
1000
0000
,
0001
0000
1000
0000
0010
0000
1000
0000
0001
0000
0001
0000
1001
0000
1000
0002
,
0000
0000
0000
0000
0000
0000
1003
0000
1000
0001
0000
0000
0010
0000
0010
0200
,
0000
0000
0000
0000
0000
0000
0310
0000
0010
0100
0000
0000
1000
0000
0010
0200
,
0000
0000
0000
0000
0000
0000
0301
0000
1000
0100
0000
0000
0010
0000
0001
2000
,
0000
0000
0000
0000
0000
0000
3010
0000
0100
0001
0000
0000
1000
0100
1000
0100
,
1000
0000
0000
0000
0001
0000
0100
0000
0001
1000
0000
0000
0001
0010
0001
0010
,
0001
0000
0000
0000
1000
0000
0001
0000
1000
0100
0000
0000
0010
0100
0010
0100
,
0010
0000
0000
0000
0001
0000
1000
0000
0010
0100
0000
0000
0001
1000
0001
1000
,
0001
0000
0000
0000
1000
0000
0100
0000
0010
0100
0000
0000
0000
0000
0000
0000
;

//---------------dance-single - ----------------
#NOTES:
     dance-single:
     :
     Medium:
     6:
     0.313207,0.335425,0.275738,0.242111,0.050440,326.000000,285.000000,41.000000,36.000000,0.000000,0.000000,0.313207,0.335425,0.275738,0.242111,0.050440,326.000000,285.000000,41.000000,36.000000,0.000000,0.000000:
0000
0000
0000
0000
,
0000
0000
0000
0000
,
1000
0010
1000
0000
0100
0000
1001
0000
,
0001
0100
0001
0000
1000
0100
1000
0000
,
0001
0010
0100
0000
0010
0000
1001
0000
,
0001
0100
0001
0000
1000
0100
1000
0000
,
0010
0100
1001
0000
0100
0000
1001
0000
,
1000
0100
0001
0000
0001
0100
1000
0000
,
0100
0010
1001
0000
0010
0000
1001
0000
,
1000
0001
1000
0000
0001
0010
0100
1000
,
0100
0000
1100
0000
0100
1000
0001
0000
,
0100
0010
0100
0000
0001
1000
0100
0000
,
0010
0000
0011
0000
1000
0001
0100
0000
,
0010
1000
0100
0000
0100
1000
0010
0000
,
1000
0001
0010
0000
0010
0100
0010
0100
,
1000
0100
1000
0000
0001
1000
0001
1000
,
0001
0100
0001
0000
0100
0001
0100
0001
,
1000
0001
1000
0000
0001
0000
0000
0000
,
2002
0000
3003
0020
0000
0030
2020
0000
,
3030
0020
0000
0030
1002
0000
0103
0000
,
0202
0000
0303
0020
0000
0030
1100
0000
,
2002
3003
0010
0010
,
2200
0000
3300
0022
0000
0033
0202
0000
,
0303
2002
0000
3003
1010
0000
1100
0000
,
0220
0000
0330
0022
0000
0033
1001
0000
,
0020
0000
0000
0000
,
0030
0100
0000
1001
0000
0010
0000
1100
,
0000
0100
0000
1001
0000
0100
0000
1010
,
0000
0100
0000
1001
0000
1000
0000
0101
,
0000
0001
0000
1010
0000
0010
0000
0100
,
0000
0000
0000
0000
,
0000
0001
0000
0010
0000
0110
0000
1000
,
0000
1010
0000
0001
0000
1001
0000
0100
,
0000
1000
0000
0001
0000
0100
0000
0010
,
0000
1000
0000
0001
1000
0000
1001
0000
,
1000
0000
0000
0000
0001
0000
0000
0010
0000
0000
0100
0000
1000
0000
0000
0000
,
0001
0000
0000
0000
1000
0000
0000
0010
0000
0000
0100
0000
0010
0000
0000
0000
,
1000
0000
0000
0000
0100
0000
0000
0010
0000
0000
0100
0000
1000
0000
0000
0000
,
0001
0000
0000
0000
0010
0000
0000
0100
0000
0000
0010
0000
0001
0000
0000
0000
,
1000
0000
0000
0000
0001
0000
0000
0100
0000
0000
0010
0000
1000
0000
0000
0000
,
0100
0000
0000
0000
0010
0000
0000
0100
0000
0000
1000
0000
0100
0000
0000
0000
,
0010
0000
0000
0000
0001
0000
0000
1000
0000
0000
0001
0000
0100
0000
0000
0000
,
0010
0000
0000
0000
1000
0000
0000
0100
0000
0000
1000
0000
0020
0000
0000
0000
,
0000
0000
0000
0030
,
0000
0000
0000
1000
,
0100
0001
1001
0010
,
1001
0100
1001
0001
,
0100
1000
0100
0001
,
0100
1000
0100
0002
,
0000
0000
0000
0000
,
0000
0003
0000
1002
,
1000
0000
0000
0000
0013
0000
0000
0001
0000
0000
0100
0000
0020
0000
0000
0000
,
1000
0000
0000
0000
0130
0000
0000
0010
0000
0000
1000
0000
0200
0000
0000
0000
,
1000
0000
0000
0000
0310
0000
0000
0001
0000
0000
0100
0000
0020
0000
0000
0000
,
1000
0000
0000
0000
0130
0000
0000
0001
0000
0000
1000
0000
0200
0000
0000
0000
,
0010
0000
0000
0000
1300
0000
0000
0001
0000
0000
0100
0000
0020
0000
0000
0000
,
1000
0000
0000
0000
0130
0000
0000
0001
0000
0000
0010
0000
0200
0000
0000
0000
,
1000
0000
0000
0000
0310
0000
0000
0001
0000
0000
1000
0000
0020
0000
0000
0000
,
0100
0000
1030
0000
0001
1000
0100
0000
,
0100
0000
0100
1000
0100
0000
0010
0000
,
0010
0000
0010
0001
0011
0000
0001
0100
,
0001
0000
1000
0001
1001
0000
1000
0010
,
1000
0000
0100
0010
0100
0000
2100
0000
,
3100
0000
0001
0001
0001
0000
0010
0010
,
0010
0000
0100
0000
0100
0000
1000
1000
,
1000
0000
0001
0000
0100
0000
0010
0010
,
0010
1000
0001
0000
;

//---------------dance-single - ----------------
#NOTES:
     dance-single:
     :
     Easy:
     4:
     0.223857,0.268340,0.188309,0.295914,0.000000,233.000000,205.000000,28.000000,44.000000,0.000000,0.000000,0.223857,0.268340,0.188309,0.295914,0.000000,233.000000,205.000000,28.000000,44.000000,0.000000,0.000000:
0000
0000
0000
0000
,
0000
0000
0000
0000
,
1000
0001
1000
0100
,
0010
0100
1000
0001
,
0100
0010
0100
0001
,
1000
0001
0010
0100
,
1000
0001
1000
0100
,
0001
0100
1000
0100
,
0010
0100
1000
0001
,
0100
1000
0100
0001
,
2001
0000
0010
3010
,
0200
0000
0001
0301
,
0020
0000
0100
0130
,
2000
0000
0001
3001
,
1002
0000
0010
0013
,
0200
0000
1000
1300
,
0020
0000
0100
0130
,
0002
0000
2000
3003
,
2002
3003
0010
0010
,
1000
1000
0001
1000
,
2002
3003
0200
0300
,
2002
0000
0000
3003
,
0020
0030
1000
1000
,
0001
0010
0200
0300
,
0020
0030
0001
1000
,
2002
0000
3003
0000
,
0100
0001
0010
0001
,
0100
1000
0100
0001
,
0010
0001
0100
1000
,
0100
0001
0010
0001
,
0100
0000
0000
0000
,
0010
0100
0010
1000
,
0100
1000
0010
1000
,
0100
0001
0100
1000
,
0100
0001
0100
1000
,
1000
0001
0101
0100
,
0100
0010
0110
0010
,
0010
1000
1001
1000
,
1000
0100
0110
0010
,
0001
0100
0101
0001
,
1000
0100
1100
1000
,
0001
0010
0011
0001
,
1000
0010
1010
2002
,
0000
0000
0000
3003
,
0000
0000
0000
0010
,
0010
1000
1000
0100
,
0100
0001
0001
1000
,
0100
0001
0100
1000
,
0010
0001
0010
0200
,
0000
0000
0000
0000
,
0000
0300
0000
1001
,
0010
0001
0010
1001
,
0100
0001
0100
1001
,
0100
1000
0100
1001
,
0010
1000
0010
2000
,
0100
0010
3001
0002
,
0010
0100
1003
2000
,
0100
0010
3001
0002
,
0010
0100
1003
2002
,
3003
0000
0100
0220
,
0330
0000
1000
2020
,
3030
0000
0001
0022
,
0033
0000
0100
2200
,
3300
0000
0001
0202
,
0303
0000
1000
2002
,
3003
0000
0010
0220
,
0330
0000
1001
0000
;

//---------------dance-single - ----------------
#NOTES:
     dance-single:
     :
     Beginner:
     1:
     0.118173,0.156532,0.020176,0.000000,0.000000,123.000000,120.000000,3.000000,0.000000,0.000000,0.000000,0.118173,0.156532,0.020176,0.000000,0.000000,123.000000,120.000000,3.000000,0.000000,0.000000,0.000000:
0000
0000
0000
0000
,
0000
0000
0000
0000
,
1000
0000
1000
0000
,
0010
0000
0001
0000
,
0010
0000
0010
0000
,
0001
0000
1000
0000
,
0100
0000
0001
0000
,
0100
0000
1000
0000
,
0001
0000
1000
0000
,
0010
0000
0100
0000
,
0001
0000
0001
0000
,
0010
0000
0010
0000
,
0100
0000
0100
0000
,
1000
0000
1000
0000
,
0010
0000
0100
0000
,
0010
0000
1000
0000
,
0001
0000
1000
0000
,
0100
0000
0000
0000
,
1001
0000
0001
0000
,
1000
0000
0010
0010
,
0010
0000
0100
0000
,
0001
0000
0000
0000
,
1000
0000
0100
0000
,
0010
0000
0001
0001
,
0001
0000
1000
0000
,
0010
0000
0000
0000
,
0000
1000
0000
1000
,
0000
0001
0000
0001
,
0000
0100
0000
0100
,
0000
0010
0000
0010
,
0000
0000
0000
0000
,
0000
0000
1000
0000
,
0100
0000
0001
0001
,
0000
1000
0000
0001
,
0000
1000
0000
0000
,
0010
0000
0010
0000
,
0001
0000
0001
0000
,
1000
0000
1000
0000
,
0100
0000
0100
0000
,
1000
0000
1000
0000
,
0001
0000
0001
0000
,
0100
0000
0100
0000
,
0010
0000
0010
0010
,
0000
0000
0000
0000
,
0000
0000
0000
0100
,
0000
0100
0000
1000
,
0000
0100
0000
0001
,
0000
0100
0000
0001
,
0000
0100
0000
0001
,
0000
0000
0000
0000
,
0000
0000
0000
1001
,
0000
0000
1000
0000
,
0010
0000
0001
0000
,
1000
0000
0001
0000
,
0100
0000
0010
0000
,
1000
0000
0100
0000
,
0010
0000
0001
0000
,
1000
0000
0001
0000
,
0100
0000
0010
0010
,
0000
0000
1000
1000
,
0000
0000
0100
0100
,
0000
0000
0001
0001
,
0000
0000
1000
1000
,
0000
0000
0010
0010
,
0000
0000
0001
0001
,
0000
0000
0100
0100
,
0000
0000
0110
0000
;

//---------------dance-double - ----------------
#NOTES:
     dance-double:
     :
     Easy:
     4:
     0.223857,0.268340,0.208485,0.329540,0.000000,233.000000,202.000000,31.000000,49.000000,0.000000,0.000000,0.223857,0.268340,0.208485,0.329540,0.000000,233.000000,202.000000,31.000000,49.000000,0.000000,0.000000:
00000000
00000000
00000000
00000000
,
00000000
00000000
00000000
00000000
,
00001000
00100000
01000000
10000000
,
00100000
01000000
00001000
00010000
,
00000010
00000100
00000001
00000010
,
00000100
00010000
00001000
01000000
,
00100000
10000000
01000000
00001000
,
00010000
00000010
00000100
00001000
,
00000001
00000100
00000010
00010000
,
00001000
01000000
10000000
01000000
,
00020000
00000000
00100000
10030000
,
02000000
00000000
00001000
03100000
,
00002000
00000000
00010000
00000100
,
00023000
00000000
00000010
00030100
,
00022000
00033000
00001000
00010000
,
00220000
00330000
00100000
01000000
,
02200000
03300000
01000000
00001000
,
02002000
00000000
03003000
00000000
,
00000220
00000330
00000001
00000010
,
00001000
00000010
00000100
00000100
,
00000002
00000003
00002000
00003000
,
00000200
00000000
00000300
00000000
,
02200000
03300000
10000000
10000000
,
00100000
00100000
01000000
00010000
,
02020000
03030000
20000000
30000000
,
20020000
00000000
30030000
00000000
,
01000000
00001000
00010000
00000100
,
00001000
01000000
10000000
00010000
,
01000000
00001000
00010000
00000100
,
00001000
01000000
10000000
00010000
,
00000000
00000000
00000000
00000000
,
00100000
00010000
00000010
00000001
,
00001000
00000010
00010000
00001000
,
00100000
00010000
00000010
00000001
,
00001000
00000010
00010000
00022000
,
00033000
01000000
00010000
10000000
,
00100000
01000000
10010000
00100000
,
00001000
00000010
00000110
00000001
,
00000100
00010000
00011000
00000100
,
00010000
00001000
00011000
01000000
,
00100000
10000000
10010000
00100000
,
00001000
00000010
00000110
00000001
,
00000100
00000010
00001001
00000220
,
00000000
00000000
00000000
00000330
,
00000000
00000000
00000000
00001000
,
00010000
00001000
01000000
00001000
,
00100000
00001000
01000000
00010000
,
00001000
00010000
00000100
00010000
,
00000010
00010000
00000100
00002000
,
00000000
00000000
00000000
00000000
,
00000000
00003000
00000000
00011000
,
00000010
00000100
00000001
00000101
,
00001000
00000100
00010000
00011000
,
00100000
00010000
10000000
10010000
,
01000000
00100000
01100000
00020000
,
00100000
00001000
01030000
00200000
,
00001000
00010000
00301000
00000200
,
00000001
00000010
00001300
00000020
,
00010000
00000100
00010030
00022000
,
00033000
00000000
00100000
00202000
,
00303000
00000000
00001000
00022000
,
00033000
00000000
00000100
00020200
,
00030300
00000000
00000010
00000022
,
00000033
00000000
00010000
00022000
,
00033000
00000000
01000000
22000000
,
33000000
00000000
00010000
00022000
,
00033000
00000000
00011000
00000000
;

//---------------dance-double - ----------------
#NOTES:
     dance-double:
     :
     Medium:
     6:
     0.314168,0.335425,0.282463,0.181583,0.053802,327.000000,285.000000,42.000000,27.000000,0.000000,0.000000,0.314168,0.335425,0.282463,0.181583,0.053802,327.000000,285.000000,42.000000,27.000000,0.000000,0.000000:
00000000
00000000
00000000
00000000
,
00000000
00000000
00000000
00000000
,
10000000
00100000
01000000
00000000
00001000
00000000
00011000
00000000
,
00000100
00010000
00000010
00000000
00000100
00000001
00001000
00000000
,
00000100
00010000
00001000
00000000
01000000
00000000
01100000
00000000
,
00010000
01000000
00001000
00000000
00010000
00000100
00001000
00000000
,
00000010
00001000
00001001
00000000
00000100
00000000
00001001
00000000
,
00000001
00000100
00001000
00000000
00010000
01000000
10000000
00000000
,
01000000
00100000
10010000
00000000
00100000
00000000
10010000
00000000
,
10000000
01000000
00010000
00000000
00001000
00000100
00000001
00000000
,
00000100
00000000
00001100
00000000
00000010
00000100
00000001
00000000
,
00001000
00000100
00010000
00000000
00001000
01000000
00100000
00000000
,
10000000
00000000
10010000
00000000
10000000
00010000
01000000
00000000
,
00001000
00100000
00010000
00000000
00100000
01000000
00100000
00000000
,
00001000
00010000
00000010
00000000
00000100
00000001
00001000
00000001
,
00000100
00000010
00000100
00000000
00000001
00001000
00000100
00010000
,
00001000
00010000
00001000
00000000
01000000
00010000
01000000
00010000
,
10000000
00100000
10000000
00000000
00100000
00000000
00000000
00000000
,
20020000
00000000
30030000
00200000
00000000
00300000
00202000
00000000
,
00303000
00020000
00000000
00030000
00011000
00000000
00001100
00000000
,
00000220
00000000
00000330
00000002
00000000
00000003
00001010
00000000
,
00022000
00033000
00100000
00100000
,
22000000
00000000
33000000
00220000
00000000
00330000
02002000
00000000
,
03003000
00020020
00000000
00030030
00000110
00000000
00000101
00000000
,
00002002
00000000
00003003
00202000
00000000
00303000
10010000
00000000
,
00200000
00000000
00000000
00000000
,
00300000
01000000
00000000
10010000
00000000
00100000
00000000
01010000
,
00000000
00100000
00000000
00011000
00000000
00000100
00000000
00011000
,
00000000
00000010
00000000
00000101
00000000
00000100
00000000
00001001
,
00000000
00000100
00000000
00010100
00000000
00001000
00000000
01001000
,
00000000
00000000
00000000
00000000
,
00000000
00010000
00000000
00100000
00000000
01100000
00000000
10000000
,
00000000
00110000
00000000
00000100
00000000
00001010
00000000
00000001
,
00000000
00000100
00000000
00000010
00000000
00001000
00000000
00000100
,
00000000
00000010
00000000
00000001
00001000
00000000
00001001
00000000
,
00000100
00000000
00000000
00000000
00010000
00000000
00000000
00000010
00000000
00000000
00010000
00000000
00001000
00000000
00000000
00000000
,
01000000
00000000
00000000
00000000
00100000
00000000
00000000
10000000
00000000
00000000
00010000
00000000
00100000
00000000
00000000
00000000
,
00001000
00000000
00000000
00000000
00010000
00000000
00000000
00000010
00000000
00000000
00000100
00000000
00000001
00000000
00000000
00000000
,
00000010
00000000
00000000
00000000
00000100
00000000
00000000
00010000
00000000
00000000
00001000
00000000
01000000
00000000
00000000
00000000
,
00100000
00000000
00000000
00000000
10000000
00000000
00000000
00010000
00000000
00000000
00100000
00000000
01000000
00000000
00000000
00000000
,
00100000
00000000
00000000
00000000
00001000
00000000
00000000
00010000
00000000
00000000
00000100
00000000
00000010
00000000
00000000
00000000
,
00000001
00000000
00000000
00000000
00000100
00000000
00000000
00000010
00000000
00000000
00001000
00000000
00000100
00000000
00000000
00000000
,
00010000
00000000
00000000
00000000
00001000
00000000
00000000
01000000
00000000
00000000
00100000
00000000
20000000
00000000
00000000
00000000
,
00000000
00000000
00000000
30000000
,
00000000
00000000
00000000
01000000
,
00100000
10000000
10010000
00100000
,
00011000
00000010
00011000
00000001
,
00000100
00000010
00010000
00001000
,
01000000
00100000
10000000
00020000
,
00000000
00000000
00000000
00000000
,
00000000
00030000
00000000
10010000
,
01000000
00000000
00000000
00000000
00001000
00000000
00000000
00100000
00000000
00000000
00001000
00000000
00010000
00000000
00000000
00000000
,
00000100
00000000
00000000
00000000
00000010
00000000
00000000
00000001
00000000
00000000
00001000
00000000
00000010
00000000
00000000
00000000
,
00010000
00000000
00000000
00000000
00001000
00000000
00000000
00100000
00000000
00000000
01000000
00000000
10000000
00000000
00000000
00000000
,
00100000
00000000
00000000
00000000
01000000
00000000
00000000
00001000
00000000
00000000
00010000
00000000
00000100
00000000
00000000
00000000
,
00000010
00000000
00000000
00000000
00000001
00000000
00000000
00001000
00000000
00000000
00000010
00000000
00000100
00000000
00000000
00000000
,
00000010
00000000
00000000
00000000
00010000
00000000
00000000
00001000
00000000
00000000
01000000
00000000
00100000
00000000
00000000
00000000
,
10000000
00000000
00000000
00000000
01000000
00000000
00000000
00100000
00000000
00000000
00010000
00000000
01000000
00000000
00000000
00000000
,
00001000
00000000
00000000
00000000
00010000
00000000
00000000
00000100
00000000
00000000
00000010
00000000
00000001
00000000
00000000
00000000
,
00000001
00000000
00000001
00000100
00001000
00000000
00000100
00000000
,
00000100
00000000
00010000
00001000
00011000
00000000
00001000
01000000
,
00010000
00000000
10000000
01000000
10000000
00000000
00100000
01000000
,
00010000
00000000
01000000
00001000
00010000
00000000
00021000
00000000
,
00030100
00000000
00000010
00000010
00000010
00000000
00000001
00000100
,
00001000
00000000
00000010
00000000
00000100
00000000
00001000
00100000
,
00010000
00000000
00001000
00000000
01000000
00000000
00100000
10000000
,
01000000
00000000
00010000
00001000
00010000
00000000
00000000
00000000
;

//---------------dance-double - ----------------
#NOTES:
     dance-double:
     :
     Hard:
     8:
     0.435224,0.447654,0.053802,0.134506,0.265650,453.000000,445.000000,8.000000,20.000000,0.000000,0.000000,0.435224,0.447654,0.053802,0.134506,0.265650,453.000000,445.000000,8.000000,20.000000,0.000000,0.000000:
00000000
00000000
00000000
00000000
,
00000000
00000000
00000000
00000000
,
00001001
00000000
00000001
00000000
00000010
00000000
00000000
00000000
00000100
00000000
00000000
00010000
00000000
00000000
00000010
00000000
,
00000100
00000000
00000010
00000000
00010000
00000000
00000000
00000000
00001000
00000000
00000000
00100000
00000000
00000000
00010000
00000000
,
01000000
00000000
00010000
00000000
10000000
00000000
00000000
00000000
00100000
00000000
00000000
01000000
00000000
00000000
00001000
00000000
,
00010000
00000010
00000100
00000000
00000001
00000010
00010000
00000010
,
00000001
00000000
00000010
00000000
00000100
00000000
00000000
00000000
00010000
00000000
00000000
00001000
00000000
00000000
01000000
00000000
,
00100000
00000000
10000000
00000000
01000000
00000000
00000000
00000000
10000000
00000000
00000000
00010000
00000000
00000000
00100000
00000000
,
00001000
00000000
00010000
00000000
00000010
00000000
00000000
00000000
00000100
00000000
00000000
00000001
00000000
00000000
00001000
00000000
,
00000001
00000010
00000100
00000000
00001000
00000100
00000001
00000100
,
00001000
00000010
00000100
00000010
00010000
00001000
01000000
00100000
,
10000000
01000000
00100000
00001000
00010000
00000010
00000100
00000001
,
00000010
00000100
00010000
00001000
01000000
00010000
10000000
01000000
,
00100000
00001000
00010000
00000010
00000100
00000001
00001000
00000100
,
00010000
00001000
01000000
00001000
00100000
00001000
00010000
00000010
,
00001000
00000001
00001000
00000010
00010000
00001000
00100000
00010000
,
10000000
01000000
10000000
00010000
01000000
00001000
00010000
00000100
,
00001000
00000001
00000100
00000001
00001000
00000000
00000000
00000000
,
00000110
00000000
00000000
00000001
00000100
00000000
00000001
00000000
00000000
00001000
00000100
00000000
00010000
00000000
00000000
00001000
,
00100000
00000000
00010000
00000000
00000000
01000000
00100000
00000000
10000000
00000000
00000000
00000000
00010000
00000000
00000000
00000000
,
10000000
00000000
00000000
00100000
01000000
00000000
00100000
00000000
00000000
10000000
00010000
00000000
01000000
00000000
00000000
00010000
,
00200000
10000000
01000000
00301000
,
00011000
00000000
00000000
00000010
00000100
00000000
00000001
00000000
00000000
00000010
00000100
00000000
00001000
00000000
00000000
00000100
,
00010000
00000000
00001000
00000000
00000000
01000000
00010000
00000000
10000000
00000000
00000000
00000000
00010000
00000000
00000000
00000000
,
10000000
00000000
00000000
00100000
01000000
00000000
00010000
00000000
00000000
00100000
01000000
00000000
10000000
00000000
00000000
00000000
,
00020000
01000000
00100000
00031000
,
00010000
00000000
00010000
01000000
00000000
00100000
00000000
01000000
00000000
00010000
00100000
00000000
00001000
00000000
00010000
00000000
,
00000010
00000000
00000100
00000001
00000000
00001000
00000000
00000100
00000000
00000010
00000100
00000000
00010000
00000000
00001000
00000000
,
00100000
00000000
00010000
10000000
00000000
00010000
00000000
01000000
00000000
00100000
01000000
00000000
00001000
00000000
00010000
00000000
,
00000010
00000000
00000100
00000001
00000000
00001000
00000000
00000100
00000000
00010000
00001000
00000000
01000000
00000000
00010000
00000000
,
20000000
00000000
00000000
00000000
,
30010000
01000000
00000000
00100000
00000000
01000000
00010000
00000000
00100000
00000000
00001000
00000000
00010000
00000000
00000010
00000100
,
00000000
00000001
00000000
00000010
00000000
00000100
00010000
00000000
00001000
00000000
01000000
00000000
00100000
00000000
10000000
00010000
,
00000000
00100000
00000000
01000000
00000000
00100000
00001000
00000000
00010000
00000000
00000010
00000000
00000100
00000000
00000001
00001000
,
00000000
00000100
00000000
00010000
00000000
00001000
01000000
00000000
00100000
10000000
00000000
00000000
10010000
00000000
10000000
00000000
,
01000000
10000000
00010000
00100000
00001000
00010000
00000010
00000100
,
00000001
00000010
00000100
00010000
00001000
01000000
00010000
10000000
,
01000000
00100000
01000000
10000000
00010000
00100000
00001000
00000010
,
00000001
00000010
00000100
00001000
00000001
00000100
00000010
00010000
,
00001000
01000000
10000000
01000000
00010000
00001000
00000100
00000001
,
00000100
00001000
00010000
01000000
10000000
01000000
00100000
10000000
,
00010000
00100000
10000000
00100000
00010000
00001000
00000010
00000001
,
00000010
00001000
00000010
00000100
00000001
00001000
00000200
00000000
,
00000000
00000000
00000000
00000300
,
00000000
00000000
00000000
00000000
00000000
00000000
10010000
10000000
,
00200000
00000000
00302000
00100000
00003000
00002000
00000010
00003000
,
00000002
00000010
00000003
00002000
00000001
00003000
00000100
00020000
,
00001000
00030000
00002000
01000000
00003000
00200000
10000000
00300000
,
02000000
00100000
03000000
00002000
00013000
00000000
00022000
00000000
,
00000000
00000000
00000000
00000000
,
00000000
00000000
00033000
00000000
00000000
00000000
00100010
00000010
,
00001000
00000000
00000010
00000000
00010000
00000000
00001000
01000000
00000000
00000000
00010000
00000000
10000000
00000000
01000000
00000000
,
10000000
00000000
00010000
00000000
00100000
00000000
00001000
00010000
00000000
00000000
00000010
00000000
00000100
00000000
00000001
00000000
,
00001000
00000000
00000100
00000000
00010000
00000000
01000000
10000000
00000000
00000000
00100000
00000000
10000000
00000000
00010000
00000000
,
00100000
00000000
00001000
00000000
00010000
00000000
00000010
00000001
00000000
00000000
00000010
00000000
00000100
00000000
00000001
00000000
,
00001000
00000000
00000100
00000000
00010000
00000000
00001000
00100000
00000000
00000000
00001000
00000000
10000000
00000000
00100000
00000000
,
10000000
00000000
00010000
00000000
00100000
00000000
00000010
00001000
00000000
00000000
00000010
00000000
00000100
00000000
00000001
00000000
,
00001000
00000000
00000100
00000000
00010000
00000000
00001000
01000000
00000000
00000000
00010000
00000000
10000000
00000000
00010000
00000000
,
00100000
00000000
01000000
00000000
10000000
00000000
00010000
01000000
00000000
00000000
00000100
00000000
01000100
00000000
00000100
02000000
,
00000000
00000000
00000000
00000000
00000000
00000000
03010000
00000000
00010000
10000000
00000000
00000000
00100000
00000000
00100000
02000000
,
00000000
00000000
00000000
00000000
00000000
00000000
03001000
00000000
00010000
00001000
00000000
00000000
00010000
00000000
00000100
00000020
,
00000000
00000000
00000000
00000000
00000000
00000000
00000031
00000000
00000100
00000001
00000000
00000000
00001000
00000000
00000010
00020000
,
00000000
00000000
00000000
00000000
00000000
00000000
00030100
00000000
00010000
00001000
00000000
00000000
00010000
00001000
00010000
00001000
,
00010000
00000000
00000000
00000000
00001000
00000000
01000000
00000000
00010000
10000000
00000000
00000000
00100000
10000000
00100000
10000000
,
00100000
00000000
00000000
00000000
01000000
00000000
00010000
00000000
00100000
00001000
00000000
00000000
00010000
00000010
00010000
00000010
,
00010000
00000000
00000000
00000000
00000010
00000000
00000100
00000000
00000001
00000100
00000000
00000000
00000001
00001000
00000001
00001000
,
00000001
00000000
00000000
00000000
00000010
00000000
00000100
00000000
00010000
00001000
00000000
00000000
00000000
00000000
00000000
00000000
;

//---------------dance-double - ----------------
#NOTES:
     dance-double:
     :
     Challenge:
     11:
     0.683099,0.671480,0.020176,0.060528,1.291260,711.000000,708.000000,3.000000,9.000000,199.000000,0.000000,0.683099,0.671480,0.020176,0.060528,1.291260,711.000000,708.000000,3.000000,9.000000,199.000000,0.000000:
// measure 0
00000000
00000000
00000000
00000000
,  // measure 1
00000000
00000000
00000000
00000000
,  // measure 2
00010000
00001000
00010000
00000000
00000100
00001000
00000000
00000001
00000100
00000000
00000010
00010000
00000000
00001000
00010000
00001000
,  // measure 3
00010000
00000100
00001000
00000000
00000100
00010000
00000000
00001000
01000000
00000000
00100000
10000000
00000000
10000000
00010000
10000000
,  // measure 4
01000000
10000000
00010000
00000000
01000000
00001000
00000000
00010000
00000100
00000000
00001000
00000001
00000000
00000100
00000001
00000100
,  // measure 5
00000010
00001000
00000100
00000000
00010000
00001000
00000000
01000000
00010000
00000000
10000000
01000000
00000000
00100000
01000000
10000000
,  // measure 6
00010000
10000000
01000000
00000000
10000000
00010000
00000000
01000000
00001000
00000000
00010000
00000010
00000000
00001000
00000010
00000100
,  // measure 7
00000010
00001000
00000001
00000000
00000010
00000001
00000000
00000010
00000100
00000000
00000010
00000001
00000000
00001000
00000100
00010000
,  // measure 8
00001000
01000000
00010000
00000000
10000000
00100000
00000000
01000000
00010000
00000000
10000000
01000000
00000000
00100000
00001000
00010000
,  // measure 9
00000100
00010000
00001000
00000000
01000000
00010000
00000000
10000000
01000000
10000000
00010000
01000000
00001000
00010000
00000100
00001000
,  // measure 10
00000010
00000100
00000010
00000000
00000100
00000001
00001000
00000001
00000100
00000000
00000010
00001000
00000000
00000100
00010000
00000100
,  // measure 11
00010000
00001000
00010000
00000000
00001000
01000000
00010000
01000000
00100000
00000000
10000000
01000000
00000000
00100000
00010000
10000000
,  // measure 12
00010000
01000000
00010000
00000000
00100000
00001000
00010000
00001000
00010000
00000000
00000010
00000100
00000000
00000001
00001000
00000001
,  // measure 13
00000100
00000001
00001000
00000000
00000100
00010000
00001000
00010000
00001000
00000000
01000000
00100000
00000000
01000000
00010000
01000000
,  // measure 14
00100000
10000000
00100000
00000000
10000000
00010000
10000000
01000000
10000000
00000000
00010000
01000000
00000000
00100000
01000000
00100000
,  // measure 15
10000000
00010000
10000000
00000000
01000000
10000000
00010000
10000000
00010000
00000000
01000000
00001000
00000000
00010000
00001000
00010000
,  // measure 16
00000100
00010000
00000010
00000000
00000100
00000001
00001000
00000001
00000100
00000000
00000010
00001000
00000000
00000100
00010000
00001000
,  // measure 17
01000000
00001000
00010000
00000000
00001000
01000000
00000000
00100000
10000000
01000000
00100000
01000000
00010000
01000000
00100000
01000000
,  // measure 18
10000000
00000000
00010000
00000000
00000000
00000000
10000000
00000000
01000000
00000000
00000000
00000000
00100000
00010000
00100000
00000000
00010000
00000000
10000000
00000000
00000000
00000000
00010000
00000000
01000000
00000000
00000000
00000000
00001000
00010000
00001000
00000000
,  // measure 19
00010000
00000000
00000100
00000000
00000000
00000000
00010000
00000000
00001000
00000000
00000000
00000000
00010000
00001000
00010000
00000000
00001000
00000000
01000000
00000000
00000000
00000000
00010000
00000000
10000000
00000000
00000000
00000000
00100000
01000000
00100000
00000000
,  // measure 20
10000000
00000000
00010000
00000000
00000000
00000000
10000000
00000000
01000000
00000000
00000000
00000000
00100000
01000000
00100000
00000000
00010000
00000000
01000000
00000000
00000000
00000000
00001000
00000000
00010000
00000000
00000000
00000000
00000100
00001000
00000100
00000000
,  // measure 21
00001000
00000000
00000001
00000000
00000000
00000000
00001000
00000000
00000100
00000000
00000000
00000000
00001000
00000001
00001000
00000000
00000001
00000000
00000100
00000000
00000000
00000000
00000001
00000000
00001000
00000000
00000000
00000000
00000001
00001000
00000001
00000000
,  // measure 22
00001000
00000000
00000010
00000000
00000000
00000000
00000100
00000000
00000001
00000000
00000000
00000000
00001000
00000100
00001000
00000000
00000001
00000000
00001000
00000000
00000000
00000000
00001000
00000000
00000010
00000000
00000000
00000000
00010000
00001000
00010000
00000000
,  // measure 23
00001000
00000000
00100000
00000000
00000000
00000000
00001000
00000000
00010000
00000000
00000000
00000000
00001000
00010000
00001000
00000000
00010000
00000000
00000010
00000000
00000000
00000000
00001000
00000000
00000001
00000000
00000000
00000000
00000100
00000010
00000100
00000000
,  // measure 24
00000001
00000000
00001000
00000000
00000000
00000000
00000001
00000000
00000010
00000000
00000000
00000000
00000100
00000010
00000100
00000000
00001000
00000000
00000010
00000000
00000000
00000000
00010000
00000000
00001000
00000000
00000000
00000000
00100000
00010000
00100000
00000000
,  // measure 25
00010000
00000000
10000000
00000000
00000000
00000000
00010000
00000000
00100000
00000000
00000000
00000000
00010000
10000000
00010000
00000000
10000000
00000000
00100000
00000000
00000000
00000000
10000000
00000000
00010000
00000000
10000000
00000000
00010000
00000000
10000000
00000000
,  // measure 26
00010000
00100000
00001000
00010000
00000000
00000100
00001000
00000001
00000000
00000100
00000001
00000100
00000000
00000010
00001000
00000100
,  // measure 27
00000000
00010000
00001000
01000000
00000000
00010000
01000000
00100000
00000000
10000000
00010000
00100000
00000000
00001000
00010000
00000010
,  // measure 28
00000000
00001000
00000001
00000010
00000000
00000001
00000100
00000010
00000000
00000100
00000010
00010000
00000000
00001000
01000000
00010000
,  // measure 29
00000000
00000000
00100000
00000000
00001000
00000000
00010000
00000000
00000000
00000000
00000010
00000000
00010000
00000000
00001000
00000000
00000000
00000000
01000000
00000000
00010000
00000000
10000000
00000000
01000000
00000000
10000000
00000000
00010000
00000000
10000000
01000000
,  // measure 30
20000000
00000000
00000000
30000000
,  // measure 31
00010000
01000000
00100000
01000000
00000000
00010000
10000000
00010000
00000000
00100000
00001000
00010000
00000000
00000010
00001000
00000010
,  // measure 32
00000000
00000100
00000001
00000010
00000000
00000100
00010000
00001000
00000000
00010000
00001000
01000000
00000000
00001000
00010000
00001000
,  // measure 33
00000000
00010000
00000010
00000100
00000000
00000001
00000100
00000001
00000000
00000010
00000100
00001000
00000000
00000001
00000010
00000001
,  // measure 34
00000000
00001000
00000100
00000010
00000000
00000100
00010000
00001000
01000000
00010000
00000000
00000000
10010000
00000000
10000000
00000000
,  // measure 35
00010000
00000000
00100000
00000000
00001000
00000000
00010000
00000010
00000000
00010000
00001000
00010000
00001000
00000000
01000000
00000000
,  // measure 36
00100000
00000000
10000000
00000000
01000000
00000000
00100000
00001000
00000000
00010000
00000010
00010000
00001000
00000000
00010000
00000000
,  // measure 37
00000100
00000000
00000010
00000000
00000001
00000000
00000100
00000010
00000000
00010000
00001000
01000000
00100000
00000000
10000000
00000000
,  // measure 38
01000000
00000000
00100000
00000000
00001000
00000000
00010000
00000100
00000000
00000010
00000001
00000010
00000100
00000000
00010000
00000000
,  // measure 39
00001000
00000000
01000000
00000000
00010000
00000000
10000000
00100000
00000000
01000000
00001000
00010000
00000100
00000000
00000010
00000000
,  // measure 40
00000001
00000000
00000100
00000000
00000010
00000000
00001000
00000100
00000000
00000001
00000100
00010000
00001000
00000000
01000000
00000000
,  // measure 41
00100000
00000000
10000000
00000000
00010000
00000000
10000000
00100000
00000000
01000000
00001000
00010000
00000100
00000000
00001000
00000000
,  // measure 42
00000001
00000000
00000000
00000000
00000010
00000000
00000000
00000000
00000100
00000000
00000000
00000000
00001000
00000001
00001000
00000000
00000010
00000000
00000100
00000000
00000010
00000000
00000100
00000000
00000002
00000000
00000000
00000000
00000000
00000000
00000100
00000000
,  // measure 43
00000000
00000010
00000000
00000000
00010000
00000000
00000000
00000010
00000000
00000100
00000000
00000013
00000000
00020000
00000000
00001000
,  // measure 44
00000000
00000100
00000000
00000000
00100000
00000000
00000000
00001000
00000000
00000100
00000000
00031000
00000000
00010000
00001000
00010000
,  // measure 45
00000100
00000000
00000000
00000000
00001000
00000000
00000010
00000100
00000000
00000001
00000100
00000001
00001000
00000001
00000000
00001000
,  // measure 46
00000100
00010000
00001000
00000000
01000000
00000000
00100000
10000000
01000000
10000000
00010000
01000000
00010000
00100000
01000000
10000000
,  // measure 47
01000000
00000000
00000000
00000000
00100000
00000000
00001000
00010000
00000000
00000010
00001000
00000100
00001000
00000010
00000000
00000100
,  // measure 48
00000001
00001000
00000100
00000000
00010000
00000000
00001000
01000000
00010000
10000000
01000000
20000000
0002M00M
0000M00M
0000M00M
0000M00M
,  // measure 49
0000MMMM
0000M00M
0000M00M
0000M00M
0000M00M
00000000
00000000
00000000
0000MMMM
0000M000
0000M000
0000M000
0000MMMM
0000M000
0000M000
0000M000
,  // measure 50
3003MMMM
00000000
00000000
000M000M
000M000M
0000M0M0
0000M0M0
00000M00
00000M00
0000M0M0
0000M0M0
000M000M
110M000M
00000000
10000000
00000000
,  // measure 51
00010000
00000000
00000000
00000000
00000000
00000000
01000000
00000000
000M0000
00000000
00000000
00000000
00001000
00000000
00000000
00000000
00000000
00000000
00010000
00000000
00000000
00000010
00000000
00000000
M0000000
00000000
00000000
00000100
MM000000
00000000
00000001
00000000
MMM000M0
00001000
00000000
00000000
MMMM0100
00000000
00000000
00000000
MMM00000
00000000
00000010
00000000
MM000000
00000000
00000000
00000000
,  // measure 52
M0000100
00000000
00000000
00000000
0000000M
00000000
00010000
00000000
00000000
00000000
00000000
00000000
00001000
00000000
00000000
00000000
000M0000
00000000
01000000
00000000
0000000M
00100000
00000000
00000000
000000MM
00000000
00000000
10000000
00000MMM
00000000
00010000
00000000
0000MMMM
10000000
00000000
00000000
01000MMM
00000000
00000000
00000000
000000MM
00000000
00100000
00000000
M000000M
00000000
00000000
00000000
,  // measure 53
00001000
00000000
00000000
00000000
00000000
00000000
00010000
00000000
00000000
00000000
00000000
00000000
M0000010
00000000
00000000
00000000
MM000M00
00000000
00001000
00000000
MMM00000
00000001
00000000
00000000
MMMM0000
00000000
00000000
00000010
MMM00000
00000000
00000100
00000000
MM000000
00000010
00000000
00000000
M0000001
00000000
00000000
00000000
00000000
00000000
00000100
00000000
0000000M
00000000
00000000
00000000
,  // measure 54
00000010
00000000
00000000
00000000
00000000
00000000
00010000
00000000
00000000
00000000
00000000
00000000
00001000
00000000
00000000
00000000
00000000
00000000
01000000
00000000
000M0000
00100000
00000000
00000000
0000000M
00000000
00000000
10000000
000000MM
00000000
00100000
00000000
00000MMM
01000000
00000000
00000000
0010MMMM
00000000
00000000
00000000
00000MMM
00000000
10000000
00000000
000000MM
00000000
00000000
00000000
,  // measure 55
01M0000M
00000000
00000000
00000000
00000000
00000000
10000000
00000000
00000000
00000000
00000000
00000000
00010000
00000000
00000000
00000000
M0000000
00000000
00100000
00000000
00000000
00001000
00000000
00000000
00000000
00000000
00000000
00010000
00000000
00000000
00000010
00000000
M0000000
00001000
00000000
00000000
MM000M01
00000000
00000000
00000000
MMM00000
00000000
00000010
00000000
MMMM0000
00000000
00000000
00000000
,  // measure 56
MMM00100
00000000
00000000
00000000
MM000000
00000000
00010000
00000000
M0000000
00000000
00000000
00000000
0000100M
00000000
00000000
00000000
000M00MM
00000000
01000000
00000000
00000MMM
00100000
00000000
00000000
0000MMMM
00000000
00000000
10000000
00000MMM
00000000
01000000
00000000
000000MM
00100000
00000000
00000000
0000100M
00000000
00000000
00000000
00000000
00000000
00010000
00000000
00000000
00000000
00000000
00000000
,  // measure 57
M000M010
00000000
00000000
00000000
MM000000
00000000
00001000
00000000
MMM00000
00000000
00000000
00000000
MMMM0100
00000000
00000000
00000000
MMM00000
00000000
00000010
00000000
MM000000
00000001
00000000
00000000
M0000000
00000000
00000000
00000100
0000000M
00000000
00000010
00000000
00000000
00010000
00000000
00000000
00001000
00000000
00000000
00000000
00000000
00000000
01000000
00000000
0000000M
00000000
00000000
00000000
,  // measure 58
001000MM
00000000
00000000
00000000
00000000
00000000
00000000
00000000
00000000
00000000
00000000
00000000
00000000
00000000
00000000
00000000
0M000MMM
00000000
00000000
00000000
00000000
00000000
00000000
00000000
10000000
00000000
00000000
00000000
00000000
00000000
00000000
00000000
0000MMMM
00000000
00000000
00000000
00000000
00000000
00000000
00000000
00000000
00000000
00000000
00000000
00000000
00000000
00000000
00000000
00010MMM
00000000
00000000
00000000
00000000
00000000
00000000
00000000
00000000
00000000
00000000
00000000
00000000
00000000
00000000
00000000
000000MM
00000000
00000000
00000000
00000000
00000000
00000000
00000000
10000000
00000000
00000000
00000000
00000000
00000000
00010000
00000000
0000000M
00000000
00000000
00000000
10000000
00000000
00000000
00000000
00000000
00000000
00000000
00000000
00000000
00000000
00000000
00000000
01000000
00000000
00000000
00000000
00000000
00000000
00000000
00000000
00000000
00000000
00000000
00000000
00000000
00000000
00000000
00000000
00000000
00000000
00000000
00000000
00000000
00000000
00000000
00000000
01000000
00000000
00000000
00000000
00000000
00000000
00000000
00000000
00000000
00000000
00000000
00000000
00000000
00000000
00000000
00000000
00000000
00000000
00000000
00000000
00000000
00000000
00000000
00000000
11000000
00000000
00000000
00000000
00000000
00000000
00000000
00000000
00000000
00000000
00000000
00000000
10000000
00000000
00000000
00000000
00000000
00000000
00000000
00000000
00000000
00000000
00000000
00000000
00010000
00000000
00000000
00000000
00000000
00000000
00000000
00000000
00000000
00000000
00000000
00000000
10000000
00000000
00000000
00000000
00000000
00000000
00000000
00000000
00000000
00000000
00000000
00000000
,  // measure 59
02000000
00000000
00000000
00000000
03010000
00000000
00001000
00000000
00010000
00001000
00000000
00000000
00000100
00000001
00001000
00000001
,  // measure 60
00000200
00000000
00000000
00000000
00001300
00000000
00010000
00000000
00001000
00010000
00000000
00000000
01000000
10000000
00100000
01000000
,  // measure 61
00020000
00000000
00000000
00000000
01030000
00000000
00001000
00000000
00010000
00001000
00000000
00000000
00000010
00000100
00001000
00000001
,  // measure 62
00000200
00000000
00000000
00000000
00001300
00000000
00010000
00000000
00001000
00010000
00000000
00000000
01000000
10000000
00010000
10000000
,  // measure 63
01000000
00000000
00000000
00000000
01000000
00000000
00100000
00000000
00001000
00010000
00000000
00000000
00000010
00001000
00000001
00001000
,  // measure 64
00000010
00000000
00000000
00000000
00000100
00000000
00000010
00000000
00010000
00001000
00000000
00000000
01000000
00100000
10000000
00010000
,  // measure 65
00100000
00000000
00000000
00000000
00001000
00000000
00010000
00000000
00000100
00001000
00000000
00000000
00000001
00000100
00000010
00001000
,  // measure 66
00000100
00000000
00000000
00000000
00000010
00000000
00000001
00000000
00001000
00010000
00000000
00000000
00000000
00000000
00000000
00000000
;
