#TITLE:Her Ghost;
#SUBTITLE:;
#ARTIST:Dance With The Dead;
#TITLETRANSLIT:;
#SUBTITLETRANSLIT:;
#ARTISTTRANSLIT:;
#GENRE:The Shape;
#CREDIT:;
#BANNER:Her Ghost-bn.png;
#BACKGROUND:Her Ghost-bg.png;
#LYRICSPATH:;
#CDTITLE:;
#MUSIC:Her Ghost.mp3;
#OFFSET:-0.013000;
#SAMPLESTART:97.504936;
#SAMPLELENGTH:15.000000;
#LASTBEATHINT:270.998413;
#SELECTABLE:YES;
#DISPLAYBPM:64.000000:128.000000;
#BPMS:0.000000=128.000000
,40.000000=64.000000
,44.000000=128.000000
,103.750000=512.000000
,106.500000=256.000000
,108.000000=128.000000
,200.000000=64.000000
,202.000000=128.000000
,266.000000=64.000000
,268.000000=128.000000
,269.500000=110.000000
,269.625000=90.000000
,269.750000=80.000000
,269.875000=70.000000
,270.000000=64.000000
;
#STOPS:103.750000=0.264000,
104.500000=0.176000,
105.000000=0.176000,
105.500000=0.088000,
105.750000=0.088000,
106.000000=0.176000,
106.500000=0.117000,
107.000000=0.117000,
107.500000=0.117000,
268.000000=0.176000,
268.375000=0.176000,
268.750000=0.176000,
269.125000=0.176000
;
#BGCHANGES:;
#KEYSOUNDS:;
#ATTACKS:;

//---------------dance-single - ----------------
#NOTES:
     dance-single:
     :
     Challenge:
     10:
     0.672423,0.668342,0.396055,0.449370,0.734986,618.000000,566.000000,52.000000,59.000000,0.000000,6.000000,0.672423,0.668342,0.396055,0.449370,0.734986,618.000000,566.000000,52.000000,59.000000,0.000000,6.000000:
0000
0000
0000
0000
,
0000
0000
0000
0000
,
0000
0000
0000
0000
,
0000
0000
0000
0000
,
0101
0100
0001
0201
0000
0010
0010
0310
,
1010
1000
0010
2010
0000
0010
0010
3010
,
1001
0001
1000
1002
0000
1000
1000
1003
,
0100
0000
0000
1000
1000
0000
0001
0001
0100
0000
0010
0000
0100
0000
0010
0000
,
1001
0100
0010
2001
0000
0100
0100
3100
,
1001
0010
0100
1001
0000
0010
0100
0010
,
0000
0000
0000
0000
0000
0000
0000
0000
0000
0000
0000
0000
0000
0000
0000
0000
0001
0000
0000
1000
1000
0000
0100
0100
0010
0000
0001
0000
1000
0000
0100
0000
,
1000
0001
0100
0000
0010
1000
0000
0001
0000
0010
0100
0000
0010
0001
0000
1000
,
0000
0010
0100
0000
0001
0100
0000
1000
0000
0100
0010
0000
1000
0100
0000
0001
,
0000
0100
0010
0000
0001
1000
0000
0010
0000
0100
0001
0000
0010
0100
0000
1000
,
0000
0010
0100
0000
0001
1000
0000
0100
0000
1000
0010
0000
0100
0001
0000
1000
,
0000
0001
0010
0000
0100
1000
0000
0010
0000
1000
0100
0000
0010
0001
0000
0100
,
0000
0010
1000
0000
0001
0100
0000
0010
0000
1000
0100
0000
0010
0001
0000
1000
,
0000
0010
0100
0000
0001
1000
0000
0100
0000
0010
0100
0000
1000
0001
0000
0100
,
0000
1000
0100
0000
0001
0100
0000
0010
0000
1000
0010
0000
0001
0010
0000
1000
,
0010
0100
0020
0000
1000
0000
0000
0130
0000
0001
0200
0000
0001
0000
0000
0310
,
0000
1000
0200
0000
1000
0000
0000
0310
0000
0001
0020
0000
0100
0000
0000
0031
,
0000
0100
0002
0000
1000
0000
0000
0103
0000
0010
2000
0000
0010
0000
0000
3100
,
0000
0010
0002
0000
0100
0000
0000
1003
0000
0010
0200
0000
0010
0000
0000
0301
,
0000
1000
0001
0000
0010
0100
0000
1000
0000
0010
0100
0000
0001
1000
0000
0100
,
0000
1000
0010
0000
0100
0001
0000
1000
0000
0001
0010
0000
0100
1000
0000
0010
,
0000
1000
0001
0000
0010
0100
0000
0010
0000
0001
1000
0000
0001
0100
0000
0010
,
0000
0000
1010
0000
1001
0000
0001
0010
0000
0000
0011
0000
0110
0000
1100
0000
,
1001
0001
0100
0010
1000
0100
0010
0001
,
0200
1000
1300
0200
0001
0301
1000
0010
,
0110
0010
1000
0001
0010
0100
1000
0001
,
0020
1000
1030
0020
0001
0031
1000
0001
,
1001
0100
0010
1000
0100
0001
0100
1000
,
0002
0010
0013
2000
0010
3010
0100
1000
,
0110
0001
1000
0001
0100
0010
1000
0100
,
0020
1000
1030
0020
0001
0031
1000
0001
,
0100
0010
1100
0010
0100
0010
0102
1000
,
0003
0010
1100
0010
0100
0010
2001
0100
,
3000
0010
0011
1000
0010
0100
1020
0001
,
0030
0010
0110
1000
0001
1000
0201
1000
,
0300
0100
0110
1000
0001
1000
1002
0010
,
0003
1000
1001
0100
0010
1000
0210
1000
,
0300
0100
1001
0100
0010
1000
1200
0001
,
0300
0100
0110
0001
0010
1000
0110
0110
,
1001
0100
0010
2002
0000
0000
0010
3003
,
1010
1000
0100
0202
0000
0000
0010
0303
,
1001
0100
0010
2200
0000
0000
0010
3300
,
1001
0000
0000
0010
0010
0000
0100
0100
0001
0000
1000
0000
0100
0000
0010
0000
,
0110
0001
1000
0220
0000
0000
1000
0330
,
0101
1000
0100
2020
0000
0000
0001
3030
,
0110
1000
0001
2200
0000
0000
0001
3300
,
0000
0011
0000
1010
0000
0110
0000
0000
0001
0100
0010
0000
1000
0100
0000
0001
,
0100
0010
0100
0000
0010
0001
0000
1000
0010
0100
0010
0000
1000
0001
0000
0010
,
0100
1000
0001
0000
1000
0100
0000
0010
0001
0100
0010
0000
1000
0100
0000
1000
,
0001
0100
0010
0000
1000
0010
0000
1000
0001
0010
0100
0000
0010
0001
0000
1000
,
0100
0010
0100
0000
1000
0001
0000
0100
0010
1000
0001
0000
0010
0100
0000
0010
,
0001
1000
0010
0000
1000
0100
0000
1000
0001
0100
0010
0000
1000
0100
0000
0001
,
0100
0010
0001
0000
0100
0010
0000
1000
0010
0100
0001
0000
1000
0010
0000
0001
,
0010
0100
0010
0000
1000
0001
0000
1000
0100
0010
0100
0000
1000
0001
0000
0100
,
0010
1000
0100
0000
1000
0001
0000
1000
0100
0010
0001
0000
0020
0100
0000
0130
,
1000
0001
0100
0000
0020
1000
0000
1030
0010
0100
0001
0000
2000
0100
0000
3100
,
1000
0001
0100
0000
0020
1000
0000
1030
0010
0100
0001
0000
0002
0010
0000
0013
,
0001
1000
0010
0000
0200
0001
0000
0301
0100
0010
1000
0000
2000
0100
0000
3100
,
1000
0001
0010
0000
0020
0001
0000
0031
0010
0100
1000
0000
0002
0100
0000
0103
,
0001
1000
0100
0000
0200
0010
0000
0310
0001
1000
0010
0000
2000
0001
0000
3001
,
1000
0010
0100
0000
0002
1000
0000
1003
0100
0010
0001
0000
0020
0100
0000
0130
,
0010
0001
1000
0000
0200
0010
0000
0310
0100
0100
1000
0000
0001
0000
0100
0100
,
0010
0000
0000
0000
1000
0000
0001
0000
0010
0000
0100
0000
1000
0000
0001
0000
0200
0000
0000
0000
0000
0000
0000
0000
0000
0000
0000
0000
0000
0000
0000
0300
,
0200
0000
0300
0200
0000
0300
0200
0000
0300
0200
0000
0300
0200
0000
0000
0000
0300
0000
0000
0000
0000
0000
0000
0000
0000
0000
0000
0000
0000
0000
0000
0000
;

//---------------dance-single - ----------------
#NOTES:
     dance-single:
     :
     Hard:
     8:
     0.473307,0.539815,0.357973,0.297041,0.270383,435.000000,388.000000,47.000000,39.000000,0.000000,0.000000,0.473307,0.539815,0.357973,0.297041,0.270383,435.000000,388.000000,47.000000,39.000000,0.000000,0.000000:
0000
0000
0000
0000
,
0000
0000
0000
0000
,
0000
0000
0000
0000
,
0000
0000
0000
0000
,
0101
0000
1000
0202
0000
0000
0303
0000
,
1001
0000
0010
2002
0000
0000
3003
0000
,
1100
0000
0010
2200
0000
0000
3300
0000
,
0010
0000
0000
0001
0000
0000
1000
0000
0010
0000
0100
0000
0010
0000
0100
0000
,
1001
0000
0100
1001
0000
0010
0100
0010
,
0101
0000
0010
1100
0000
0010
0100
0001
,
0000
0000
0000
0000
0000
0000
0000
0000
0000
0000
0000
0000
0000
0000
0000
0000
0001
0000
0000
1000
0000
0000
0100
0000
0010
0000
0100
0000
0010
0000
0100
0000
,
0010
0000
0001
0000
0100
0000
0000
0001
0000
0000
1000
0000
0010
0000
0000
1000
,
0000
0000
0100
0000
0010
0000
0000
0100
0000
0000
1000
0000
0010
0000
0000
0100
,
0000
0000
0001
0000
1000
0000
0000
0100
0000
0000
0010
0000
0001
0000
0000
0100
,
0010
0000
0000
1000
0000
0000
0001
0000
0000
0000
1000
0000
0100
0000
0010
0000
,
0001
0000
1000
0000
0100
0000
0000
0010
0000
0000
0100
0000
1000
0000
0000
0001
,
0000
0000
0100
0000
0010
0000
0000
1000
0000
0000
0100
0000
1000
0000
0000
0001
,
0000
0000
0010
0000
0100
0000
0000
0010
0000
0000
0001
0000
0100
0000
0000
0010
,
1000
0000
0000
0001
0000
0000
0100
0000
0000
0000
0010
0000
1000
0000
0001
0000
,
0010
0000
0001
0000
0200
0000
0000
1000
0000
0000
0310
0000
2000
0000
0000
0100
,
0000
0000
3010
0000
0002
0000
0000
1000
0000
0000
0013
0000
0200
0000
0000
0001
,
0000
0000
0310
0000
0002
0000
0000
1000
0000
0000
0103
0000
0020
0000
0000
1000
,
0000
0000
0130
0000
2000
0000
0000
0100
0000
0000
3001
0000
0020
0000
0000
0001
,
0000
0000
0130
0000
0002
0000
0000
0100
0000
0000
1003
0000
0020
0000
0000
1000
,
0000
0000
0130
0000
2000
0000
0000
0010
0000
0000
3001
0000
0200
0000
0000
0001
,
0000
0000
0310
0000
0002
0000
0000
0100
0000
0000
0013
0000
1000
0000
0001
0000
,
0000
0000
1001
0000
1001
0000
0000
0110
0000
0000
1000
0000
0001
0000
0100
0000
,
0101
0010
1000
0002
0000
0100
0100
0100
,
0103
0000
0010
0202
0000
0303
1000
0001
,
0100
0001
0010
2000
0000
0001
0001
0001
,
3001
0000
0010
0220
0000
0330
0100
1000
,
0001
1000
0010
0002
0000
0010
0010
0010
,
0013
0000
1000
0220
0000
0330
1000
0100
,
0010
0001
1000
0020
0000
0100
0100
0100
,
0130
0000
0001
2020
0000
3030
0100
0001
,
1000
0100
0001
0100
1000
0100
0010
0100
,
1000
0100
0001
0100
1000
0100
0010
0001
,
1000
0100
0001
0100
1000
0100
0010
0100
,
1000
0100
0001
0100
1000
0100
0010
0001
,
1000
0010
0100
0010
0001
0010
1000
0001
,
1000
0010
0100
0010
0001
0010
1000
0001
,
1000
0100
0010
0100
0001
0100
1000
0001
,
1000
0100
0001
0100
0010
0100
1000
0001
,
0100
0010
0100
0020
0000
0000
1030
0000
,
0001
1000
0100
0002
0000
0000
0103
0000
,
0010
0001
1000
0020
0000
0000
0130
0000
,
0001
0000
0000
1000
0000
0000
0200
0000
0000
0000
0010
0000
0310
0000
0000
0000
,
0001
1000
0010
0200
0000
0000
0310
0000
,
1000
0100
0010
0002
0000
0000
1003
0000
,
0010
0100
0010
2000
0000
0000
3100
0000
,
0000
0001
0000
1000
0000
0100
0000
0000
1000
0000
0010
0000
0100
0000
0000
0101
,
0000
0000
0001
0000
0010
0000
0000
1100
0000
0000
0100
0000
1000
0000
0000
1001
,
0000
0000
0100
0000
0010
0000
0000
1010
0000
0000
0001
0000
0010
0000
0000
0110
,
0000
0000
1000
0000
0001
0000
0000
1100
0000
0000
0010
0000
0100
0000
0000
1010
,
0000
0000
1000
0000
0001
0000
0000
0110
0000
0000
1000
0000
0100
0000
0000
0011
,
0000
0000
1000
0000
0001
0000
0000
0110
0000
0000
0001
0000
0100
0000
0000
0011
,
0000
0000
0100
0000
0010
0000
0000
1001
0000
0000
0100
0000
0001
0000
0000
1100
,
0000
0000
0100
0000
1000
0000
0000
0101
0000
0000
0010
0000
1000
0000
0000
0011
,
0000
0000
0100
0000
0010
0000
0000
1100
0000
0000
0010
0000
0100
0000
0000
0011
,
0000
0000
1000
0000
0001
0000
0000
1010
0000
0000
0100
0000
0010
0000
0000
1100
,
0000
0000
0010
0000
1000
0000
0000
0101
0000
0000
0001
0000
0010
0000
0000
1100
,
0000
0000
0001
0000
1000
0000
0000
0110
0000
0000
1000
0000
0010
0000
0000
1001
,
0000
0000
0100
0000
0010
0000
0000
0101
0000
0000
0010
0000
0100
0000
0000
1010
,
0000
0000
0100
0000
0010
0000
0000
1100
0000
0000
0010
0000
0100
0000
0000
0011
,
0000
0000
1000
0000
0010
0000
0000
1001
0000
0000
0100
0000
0001
0000
0000
0011
,
0000
0000
1000
0000
0100
0000
0000
0000
1000
0001
1000
0000
0010
0000
1000
0001
,
1000
0000
0100
0010
0100
0010
0100
0010
0200
0000
0000
0000
0000
0000
0000
0000
,
0000
0000
0300
0000
;

//---------------dance-single - ----------------
#NOTES:
     dance-single:
     :
     Medium:
     6:
     0.360149,0.359877,0.114247,0.053315,0.000000,331.000000,316.000000,15.000000,7.000000,0.000000,0.000000,0.360149,0.359877,0.114247,0.053315,0.000000,331.000000,316.000000,15.000000,7.000000,0.000000,0.000000:
0000
0000
0000
0000
,
0000
0000
0000
0000
,
0000
0000
0000
0000
,
0000
0000
0000
0000
,
1000
0000
0010
0200
0000
0000
0300
0000
,
0001
0000
0100
0020
0000
0000
0030
0000
,
1000
0000
0001
0020
0000
0000
0030
0000
,
0100
0000
1000
0002
0000
0000
0103
0000
,
0010
0000
1000
0020
0000
0000
0030
0000
,
0100
0000
0001
0200
0000
0000
0300
0000
,
0000
0000
0000
0000
0010
0010
0010
0010
,
0010
1000
0100
0000
0100
1000
0100
0000
,
1000
0001
1000
0000
0001
0100
0001
0000
,
1000
0001
1000
0000
0100
1000
0100
0000
,
1000
0001
1000
0000
0001
0100
0001
0000
,
1000
0010
1000
0000
0001
0010
0001
0000
,
1000
0010
1000
0000
0001
0010
0001
0000
,
0010
1000
0010
0000
0100
0001
0100
0000
,
0010
0001
0010
0000
0100
1000
0100
0000
,
1000
0001
1000
0000
0001
0100
0001
0000
,
1000
0010
1000
0000
0001
0010
0001
0000
,
1000
0001
1000
0000
0001
0100
0001
0000
,
1000
0001
1000
0000
0100
1000
0100
0000
,
1000
0001
1000
0000
0010
1000
0010
0000
,
1000
0001
1000
0000
0001
0010
0001
0000
,
0010
0100
0010
0000
0100
1000
0100
0000
,
0000
0000
0000
0000
,
0000
1100
0001
0101
,
0010
1000
0100
0000
0100
1000
0001
0000
,
1000
0110
0001
0110
,
0010
1000
0001
0000
0010
0000
0100
0000
,
0010
1001
0010
1001
,
0010
0001
0100
0000
0001
0100
0010
0000
,
1000
1001
0010
0101
,
1000
0001
0010
0000
0100
0000
1000
0000
,
0000
0001
0000
1000
0000
0010
0100
0010
,
0000
1000
0000
0001
0000
0010
0100
0010
,
0000
0001
0000
0100
0000
1000
0100
1000
,
0000
1000
0000
0010
0000
0001
0010
0001
,
0000
0010
0000
0100
0000
0010
0001
1000
,
0000
0010
0000
0100
0000
0010
1000
0001
,
0000
0100
0000
0010
0000
0100
0001
1000
,
0000
0100
0000
0010
0000
0100
1000
0001
,
0100
0010
1000
1001
,
0010
0100
0010
0011
,
1000
0001
0100
1001
,
0010
1000
0100
1100
,
0100
1000
0001
0110
,
1000
0001
0010
1010
,
0001
1000
0100
0101
,
0000
0000
0000
0000
1000
0100
1000
0000
,
0010
1000
0010
0000
0100
0001
1000
0000
,
0001
0010
0100
0000
0010
0001
0010
0000
,
0001
1000
0001
0000
0100
0001
0100
0000
,
0010
1000
0010
0000
1000
0001
1000
0000
,
0100
1000
0100
0000
1000
0001
0100
0000
,
0010
0100
0001
0000
1000
0010
0100
0000
,
0010
1000
0001
0000
0010
0100
0010
0000
,
0001
1000
0010
0000
1000
0100
1000
0000
,
0001
0010
0100
0000
0010
0001
1000
0000
,
0001
0100
0001
0000
1000
0010
0100
0000
,
0010
1000
0001
0000
1000
0100
0010
0000
,
0100
1000
0001
0000
1000
0100
0010
0000
,
0001
0100
1000
0000
1000
0100
0001
0000
,
0001
1000
0010
0000
0010
0100
0001
0000
,
0001
0010
1000
0000
1000
0010
0001
0000
,
0100
1000
0100
0001
0200
0000
0000
0000
,
0000
0000
0300
0000
;

//---------------dance-single - ----------------
#NOTES:
     dance-single:
     :
     Easy:
     4:
     0.244814,0.231349,0.000000,0.350356,0.000000,225.000000,225.000000,0.000000,46.000000,0.000000,0.000000,0.244814,0.231349,0.000000,0.350356,0.000000,225.000000,225.000000,0.000000,46.000000,0.000000,0.000000:
0000
0000
0000
0000
,
0000
0000
0000
0000
,
0000
0000
0000
0000
,
0000
0000
0000
0000
,
2000
0100
3100
0000
,
0002
0010
0013
0000
,
0200
0010
0310
0000
,
0002
1000
1003
0000
,
0020
0100
0130
0000
,
2000
0001
3001
0000
,
0000
0000
0100
0100
,
0100
0100
0100
0100
,
0001
0001
0001
0001
,
1000
0100
0001
0100
,
1000
0100
0001
0100
,
1000
1000
1000
1000
,
0010
0010
0010
0010
,
0001
0100
1000
0100
,
0001
0100
1000
0100
,
0001
0100
0001
0010
,
0001
0100
0001
0010
,
0001
0100
0001
0010
,
0001
0100
0001
0010
,
1000
0100
1000
0010
,
1000
0100
1000
0010
,
1000
0100
1000
0010
,
0000
0000
0000
0000
,
0000
0100
0100
0001
,
1000
0001
0100
0000
,
0010
1000
0100
1000
,
0001
1000
0100
0000
,
0010
0001
1000
0010
,
0100
0010
1000
0000
,
0100
1000
0001
0100
,
0010
0100
0001
0000
,
1000
0001
1000
0002
,
0000
0013
0100
0020
,
0000
0130
1000
0200
,
0000
1300
0001
0200
,
0000
0310
1000
0002
,
0000
1003
0010
2000
,
0000
3001
0010
0200
,
0000
1300
0001
1000
,
0100
0010
1000
1000
,
0010
0100
0010
0010
,
1000
0001
0100
0001
,
0010
1000
0100
1000
,
0100
0010
0001
0100
,
1000
0001
0010
1000
,
0001
1000
0100
0001
,
0000
0000
2000
3100
,
0020
0130
0002
0103
,
2000
3001
0200
0310
,
2000
3100
0020
0031
,
0200
1300
0200
0301
,
2000
3010
0002
0103
,
0020
1030
0200
0301
,
0020
0031
0200
1300
,
0002
1003
0020
0031
,
2000
3001
0020
1030
,
0002
1003
0200
0301
,
2000
3001
0200
1300
,
0002
1003
0020
0130
,
2000
3001
0200
0310
,
0002
1003
0020
1030
,
0002
0013
0200
1300
,
0002
1003
0200
0000
,
0000
0000
0300
0000
;

//---------------dance-single - ----------------
#NOTES:
     dance-single:
     :
     Beginner:
     2:
     0.125127,0.179938,0.000000,0.304657,0.000000,115.000000,115.000000,0.000000,40.000000,0.000000,0.000000,0.125127,0.179938,0.000000,0.304657,0.000000,115.000000,115.000000,0.000000,40.000000,0.000000,0.000000:
0000
0000
0000
0000
,
0000
0000
0000
0000
,
0000
0000
0000
0000
,
0000
0000
0000
0000
,
1000
0000
1000
0000
,
0001
0000
0001
0000
,
0100
0000
0100
0000
,
0010
0000
0010
0000
,
1000
0000
0100
0000
,
0001
0000
0100
0000
,
0000
0000
0000
0000
,
1000
0000
1000
0000
,
1000
0000
1000
0000
,
0001
0000
0001
0000
,
0001
0000
0001
0000
,
0100
0000
0100
0000
,
0100
0000
0100
0000
,
0010
0000
0010
0000
,
0010
0000
0010
0000
,
2000
0000
0000
3000
,
0002
0000
0000
0003
,
0200
0000
0000
0300
,
0020
0000
0000
0030
,
2000
0000
0000
3000
,
0200
0000
0000
0300
,
0020
0000
0000
0030
,
0000
0000
0000
0000
,
0000
0001
0000
0001
,
0000
1000
0000
1000
,
0000
0001
0000
0001
,
0000
1000
0000
1000
,
0000
0001
0000
0100
,
0000
1000
0000
0100
,
0000
0001
0000
0100
,
0000
1000
0000
0100
,
0000
0010
0010
0010
,
0000
0001
0001
0001
,
0000
1000
1000
1000
,
0000
0001
0001
0001
,
0000
0100
0100
0100
,
0000
1000
1000
1000
,
0000
0100
0100
0100
,
0000
0001
0001
0001
,
0001
0000
0000
0000
,
1000
0000
0000
0000
,
0010
0000
0000
0000
,
0100
0000
0000
0000
,
0001
0000
0000
0000
,
1000
0000
0000
0000
,
0100
0000
0000
0000
,
0000
0000
0020
0030
,
0002
0003
2000
3000
,
0002
0003
0020
0030
,
0200
0300
2000
3000
,
0002
0003
0200
0300
,
0020
0030
2000
3000
,
0200
0300
0020
0030
,
0002
0003
2000
3000
,
0002
0003
0200
0300
,
0020
0030
2000
3000
,
0200
0300
0020
0030
,
0002
0003
2000
3000
,
0200
0300
0020
0030
,
0002
0003
2000
3000
,
0002
0003
0200
0300
,
0020
0030
2000
3000
,
0002
0003
0200
0000
,
0000
0000
0300
0000
;

//---------------dance-double - ----------------
#NOTES:
     dance-double:
     :
     Challenge:
     11:
     0.709417,0.745459,0.380822,0.487452,0.769260,652.000000,602.000000,50.000000,64.000000,0.000000,6.000000,0.709417,0.745459,0.380822,0.487452,0.769260,652.000000,602.000000,50.000000,64.000000,0.000000,6.000000:
00000000
00000000
00000000
00000000
,
00000000
00000000
00000000
00000000
,
00000000
00000000
00000000
00000000
,
00000000
00000000
00000000
00000000
,
11000000
01000000
10000000
12000000
00000000
00100000
00100000
03100000
,
00110000
00010000
00100000
00120000
00000000
00100000
00100000
00130000
,
00011000
00010000
00001000
00012000
00000000
00000100
00000100
00003100
,
00000010
00000000
00000000
00001000
00001000
00000000
00000001
00000001
00000010
00000000
00000100
00000000
00010000
00000000
00001000
00000000
,
00011000
01000000
00100000
10010000
00000000
01000000
00100000
00001000
,
00011000
00000100
00000010
00001001
00000000
00000001
00000010
00001000
,
00000000
00000000
00000000
00000000
00000000
00000000
00000000
00000000
00000000
00000000
00000000
00000000
00000000
00000000
00000000
00000000
10000000
00000000
00000000
00010000
00000000
00000000
00001000
00000000
00000010
00000000
00000001
00000000
00000010
00000000
00010000
00000000
,
00001000
00010000
00001000
00000000
01000000
00100000
00000000
10000000
01000000
00100000
00001000
00000000
00010000
00000010
00000000
00000100
,
00000001
00001000
00000100
00000000
00010000
00001000
00000000
01000000
00100000
10000000
00010000
00000000
01000000
00001000
00000000
00010000
,
00000010
00001000
00000100
00000000
00000010
00000001
00000000
00001000
00000100
00010000
00001000
00000000
01000000
00100000
00000000
10000000
,
01000000
00100000
00001000
00000000
00010000
00000010
00000000
00001000
00000001
00000010
00000100
00000000
00000010
00000001
00000000
00001000
,
00000100
00010000
00001000
00000000
01000000
00100000
00000000
10000000
01000000
00100000
01000000
00000000
00100000
00001000
00000000
00010000
,
00001000
01000000
00100000
00000000
01000000
00001000
00000000
00010000
00000100
00000010
00000100
00000000
00010000
00001000
00000000
00010000
,
00000010
00000100
00000001
00000000
00000010
00000100
00000000
00010000
00001000
01000000
00100000
00000000
10000000
01000000
00000000
00100000
,
00001000
00010000
00000100
00000000
00001000
00000001
00000000
00000100
00000001
00001000
00000100
00000000
00010000
00001000
00000000
00100000
,
00010000
01000000
00200000
00000000
10000000
00000000
00000000
01300000
00001000
00010000
00000020
00000000
00000100
00000000
00000000
00001030
,
00000100
00010000
00002000
00000000
00100000
00000000
00000000
00013000
00000010
00000100
00000002
00000000
00001000
00000000
00000000
00000013
,
00000100
00010000
00002000
00000000
00100000
00000000
00000000
00013000
00001000
01000000
00200000
00000000
10000000
00000000
00000000
01300000
,
00010000
10000000
02000000
00000000
10000000
00000000
00000000
03100000
00001000
00010000
00000020
00000000
00000100
00000000
00000000
00001030
,
00000001
00000010
00000200
00000000
00010000
00000000
00000000
00001300
00000100
00010000
00002000
00000000
01000000
00000000
00000000
00103000
,
00010000
10000000
00200000
00000000
01000000
00000000
00000000
10300000
00010000
00100000
00002000
00000000
00010000
00000000
00000000
00003010
,
00000001
00000100
00000020
00000000
00000100
00000000
00000000
00001030
00000100
00010000
00002000
00000000
00100000
00000000
00000000
00013000
,
00000000
00000000
00011000
00000000
00110000
00000000
10000000
00100000
00000000
00000000
10100000
00000000
01100000
00000000
01010000
00000000
,
00101000
00010000
00000010
00000100
00000001
00000010
00000100
00001000
,
00000020
00000001
00000031
00000020
00001000
00001030
00000100
00010000
,
00001000
01000000
00001000
00010000
00001000
00000010
00001000
00010000
,
00000020
00010000
00010030
00020000
00000100
00030100
00010000
00001000
,
01000000
00100000
10000000
00010000
00100000
01000000
10000000
00100000
,
02000000
10000000
13000000
02000000
00010000
03010000
01000000
00001000
,
00010000
00100000
00010000
00001000
00010000
01000000
00010000
00001000
,
00000020
00000100
00000130
00020000
00001000
00031000
01000000
00100000
,
10000000
01000000
10010000
00100000
00001000
00010000
00001020
00000100
,
00000030
00000001
00001001
00000100
00000010
00001000
00010200
00001000
,
00000300
00010000
00011000
01000000
00100000
10000000
10020000
00100000
,
00030000
01000000
00101000
00010000
00000010
00000100
00002010
00000100
,
00003000
00000001
00001001
00000100
00000010
00010000
00012000
01000000
,
00003000
00100000
10100000
01000000
00100000
10000000
02001000
00010000
,
03000000
00001000
00011000
00000010
00000100
00000010
00002001
00000100
,
00003000
00000010
00000011
00001000
00000010
00000100
00000110
00000110
,
00001001
00000100
00000010
00020020
00000000
00000000
00001000
00030030
,
00011000
00010000
01000000
02020000
00000000
00000000
00100000
03030000
,
10010000
01000000
00100000
00202000
00000000
00000000
00010000
00303000
,
00011000
00000000
00000000
00001000
00001000
00000000
00010000
00010000
00000010
00000000
00000100
00000000
00000001
00000000
00001000
00000000
,
00001100
00000010
00000100
00002020
00000000
00000000
00010000
00003030
,
00011000
01000000
00100000
20200000
00000000
00000000
00001000
30300000
,
00011000
00000010
00000100
00002002
00000000
00000000
00003013
00000000
,
00000000
00000011
00000000
00010010
00000000
10100000
00000000
00000000
10000000
01000000
10000000
00010000
00100000
01000000
00000000
00100000
,
00001000
00010000
00000010
00010000
00001000
00010000
00000000
00000100
00000010
00000001
00000100
00000001
00000010
00000100
00000000
00000010
,
00000001
00001000
00000010
00001000
00000100
00010000
00000000
00001000
01000000
00100000
01000000
00010000
10000000
00010000
00000000
10000000
,
00100000
01000000
00100000
10000000
01000000
00100000
00000000
00001000
00010000
00000010
00010000
00001000
00010000
00000100
00000000
00000010
,
00000001
00000100
00000010
00001000
00000100
00010000
00000000
00001000
01000000
00100000
10000000
00010000
00100000
01000000
00000000
00100000
,
00001000
00010000
00000010
00000100
00000001
00001000
00000000
00000100
00000010
00000100
00010000
00001000
01000000
00100000
00000000
10000000
,
01000000
00100000
00001000
00010000
00000010
00000100
00000000
00000001
00000010
00000100
00010000
00001000
01000000
00100000
00000000
10000000
,
00010000
00100000
01000000
10000000
00010000
01000000
00000000
00001000
00010000
00000100
00001000
00000010
00000100
00000001
00000000
00000010
,
00000100
00010000
00001000
00100000
00001000
00010000
00000000
00000100
00000010
00000001
00000100
00000000
00000020
00001000
00000000
00001030
,
00000010
00010000
00001000
00000000
00200000
01000000
00000000
01300000
00100000
00001000
00010000
00000000
00000020
00000100
00000000
00000130
,
00000001
00001000
00000100
00000000
00020000
00001000
00000000
00031000
00010000
01000000
00100000
00000000
02000000
10000000
00000000
13000000
,
00010000
01000000
00100000
00000000
20000000
00010000
00000000
30010000
10000000
00100000
01000000
00000000
00020000
00100000
00000000
00130000
,
00001000
00010000
00000010
00000000
00000200
00000001
00000000
00000301
00000100
00000010
00001000
00000000
00000200
00010000
00000000
00010300
,
00001000
01000000
00010000
00000000
00200000
00001000
00000000
00301000
00100000
00010000
01000000
00000000
00020000
10000000
00000000
10030000
,
00010000
00100000
01000000
00000000
00200000
00001000
00000000
00301000
00100000
00010000
01000000
00000000
00020000
00100000
00000000
00130000
,
00001000
00010000
00000010
00000000
00000200
00000001
00000000
00000301
00000100
00000010
00010000
00000000
00011000
00000000
00001000
01000000
,
00100000
00000000
00000000
00000000
10000000
00000000
00010000
00000000
01000000
00000000
00100000
00000000
10000000
00000000
00010000
00000000
02000000
00000000
00000000
00000000
00000000
00000000
00000000
00000000
00000000
00000000
00000000
00000000
00000000
00000000
00000000
03000000
,
02000000
00000000
03000000
02000000
00000000
03000000
02000000
00000000
03000000
02000000
00000000
03000000
02000000
00000000
00000000
00000000
03000000
00000000
00000000
00000000
00000000
00000000
00000000
00000000
00000000
00000000
00000000
00000000
00000000
00000000
00000000
00000000
;

//---------------dance-double - ----------------
#NOTES:
     dance-double:
     :
     Hard:
     8:
     0.473307,0.539815,0.357973,0.297041,0.270383,435.000000,388.000000,47.000000,39.000000,0.000000,0.000000,0.473307,0.539815,0.357973,0.297041,0.270383,435.000000,388.000000,47.000000,39.000000,0.000000,0.000000:
00000000
00000000
00000000
00000000
,
00000000
00000000
00000000
00000000
,
00000000
00000000
00000000
00000000
,
00000000
00000000
00000000
00000000
,
00000110
00000000
00001000
00000220
00000000
00000000
00000330
00000000
,
00011000
00000000
00100000
00022000
00000000
00000000
00033000
00000000
,
11000000
00000000
00100000
22000000
00000000
00000000
33000000
00000000
,
00100000
00000000
00000000
00001000
00000000
00000000
00010000
00000000
00000010
00000000
00000100
00000000
00000010
00000000
00000100
00000000
,
00001001
00000000
00000100
00001001
00000000
00000010
00000100
00010000
,
00011000
00000000
00100000
01010000
00000000
10000000
00100000
00010000
,
00000000
00000000
00000000
00000000
00000000
00000000
00000000
00000000
00000000
00000000
00000000
00000000
00000000
00000000
00000000
00000000
00010000
00000000
00000000
00100000
00000000
00000000
00001000
00000000
00010000
00000000
00001000
00000000
00010000
00000000
00001000
00000000
,
00010000
00000000
00000010
00000000
00000100
00000000
00000000
00000001
00000000
00000000
00001000
00000000
00000100
00000000
00000000
00010000
,
00000000
00000000
00001000
00000000
01000000
00000000
00000000
00010000
00000000
00000000
10000000
00000000
01000000
00000000
00000000
00100000
,
00000000
00000000
00001000
00000000
00010000
00000000
00000000
00000010
00000000
00000000
00001000
00000000
00000001
00000000
00000000
00000010
,
00000100
00000000
00000000
00001000
00000000
00000000
00000010
00000000
00000000
00000000
00000100
00000000
00000001
00000000
00001000
00000000
,
00000100
00000000
00000010
00000000
00000100
00000000
00000000
00010000
00000000
00000000
00001000
00000000
00100000
00000000
00000000
00010000
,
00000000
00000000
10000000
00000000
00100000
00000000
00000000
01000000
00000000
00000000
00001000
00000000
00100000
00000000
00000000
00010000
,
00000000
00000000
10000000
00000000
00100000
00000000
00000000
01000000
00000000
00000000
00001000
00000000
00100000
00000000
00000000
00001000
,
00010000
00000000
00000000
00000010
00000000
00000000
00000100
00000000
00000000
00000000
00000001
00000000
00001000
00000000
00000100
00000000
,
00010000
00000000
00001000
00000000
02000000
00000000
00000000
00100000
00000000
00000000
03010000
00000000
00200000
00000000
00000000
00001000
,
00000000
00000000
00310000
00000000
00020000
00000000
00000000
00000010
00000000
00000000
00030010
00000000
00000002
00000000
00000000
00000100
,
00000000
00000000
00000103
00000000
00000020
00000000
00000000
00001000
00000000
00000000
00000130
00000000
00002000
00000000
00000000
00000100
,
00000000
00000000
00003010
00000000
00020000
00000000
00000000
00000100
00000000
00000000
00031000
00000000
02000000
00000000
00000000
00100000
,
00000000
00000000
13000000
00000000
20000000
00000000
00000000
01000000
00000000
00000000
30010000
00000000
00200000
00000000
00000000
10000000
,
00000000
00000000
01300000
00000000
20000000
00000000
00000000
00010000
00000000
00000000
30100000
00000000
00200000
00000000
00000000
00010000
,
00000000
00000000
01300000
00000000
00002000
00000000
00000000
00100000
00000000
00000000
00013000
00000000
00001000
00000000
00010000
00000000
,
00000000
00000000
00011000
00000000
00011000
00000000
00000000
00010010
00000000
00000000
00000100
00000000
00000001
00000000
00001000
00000000
,
00001100
00001000
00000001
00000200
00000000
00000010
00000010
00000010
,
00000310
00000000
00001000
00022000
00000000
00033000
01000000
00100000
,
10000000
00010000
00100000
02000000
00000000
10000000
10000000
10000000
,
13000000
00000000
00100000
02020000
00000000
03030000
00100000
00001000
,
00010000
00000010
00000100
00000002
00000000
00000010
00000010
00000010
,
00000013
00000000
00001000
00002200
00000000
00003300
00000010
00000100
,
00000010
00010000
00001000
00200000
00000000
01000000
01000000
01000000
,
01300000
00000000
10000000
02002000
00000000
03003000
01000000
00100000
,
10000000
01000000
00100000
00010000
01000000
00001000
00100000
00010000
,
01000000
00001000
00010000
00000010
00000100
00000001
00000010
00000100
,
00001000
00000001
00000010
00000100
00010000
00001000
01000000
00100000
,
10000000
00010000
01000000
00100000
10000000
00010000
00100000
00001000
,
00010000
00000010
00001000
00000100
00010000
00000010
00001000
00000100
,
00010000
00001000
01000000
00100000
10000000
00010000
01000000
00100000
,
10000000
00010000
00100000
00001000
00010000
00000010
00000100
00000001
,
00001000
00000100
00010000
00001000
01000000
00100000
10000000
00010000
,
01000000
00100000
01000000
00020000
00000000
00000000
10030000
00000000
,
00100000
00001000
00010000
00000020
00000000
00000000
00000130
00000000
,
00000001
00001000
00000100
00000020
00000000
00000000
00000130
00000000
,
00010000
00000000
00000000
00001000
00000000
00000000
02000000
00000000
00000000
00000000
00100000
00000000
03100000
00000000
00000000
00000000
,
00010000
10000000
00100000
02000000
00000000
00000000
03100000
00000000
,
10000000
01000000
00100000
00002000
00000000
00000000
00013000
00000000
,
00000010
00000100
00000010
00002000
00000000
00000000
00003001
00000000
,
00000000
00000010
00000000
00010000
00000000
01000000
00000000
00000000
10000000
00000000
00010000
00000000
01000000
00000000
00000000
10010000
,
00000000
00000000
01000000
00000000
00100000
00000000
00000000
10100000
00000000
00000000
10000000
00000000
00010000
00000000
00000000
00101000
,
00000000
00000000
00010000
00000000
00000010
00000000
00000000
00001010
00000000
00000000
00000100
00000000
00000001
00000000
00000000
00001001
,
00000000
00000000
00000010
00000000
00000100
00000000
00000000
00010100
00000000
00000000
00001000
00000000
01000000
00000000
00000000
01010000
,
00000000
00000000
10000000
00000000
00100000
00000000
00000000
01100000
00000000
00000000
00010000
00000000
10000000
00000000
00000000
10010000
,
00000000
00000000
10000000
00000000
01000000
00000000
00000000
00101000
00000000
00000000
00010000
00000000
00000010
00000000
00000000
00000110
,
00000000
00000000
00001000
00000000
00000100
00000000
00000000
00001001
00000000
00000000
00000001
00000000
00000010
00000000
00000000
00000110
,
00000000
00000000
00010000
00000000
00001000
00000000
00000000
01010000
00000000
00000000
01000000
00000000
00100000
00000000
00000000
10010000
,
00000000
00000000
10000000
00000000
01000000
00000000
00000000
01100000
00000000
00000000
00100000
00000000
00001000
00000000
00000000
00011000
,
00000000
00000000
00010000
00000000
00000010
00000000
00000000
00000110
00000000
00000000
00000001
00000000
00001000
00000000
00000000
00001100
,
00000000
00000000
00010000
00000000
00001000
00000000
00000000
01100000
00000000
00000000
10000000
00000000
00100000
00000000
00000000
10010000
,
00000000
00000000
01000000
00000000
00100000
00000000
00000000
11000000
00000000
00000000
10000000
00000000
00010000
00000000
00000000
01001000
,
00000000
00000000
00010000
00000000
00001000
00000000
00000000
00001010
00000000
00000000
00000100
00000000
00000001
00000000
00000000
00001001
,
00000000
00000000
00000010
00000000
00000100
00000000
00000000
00010010
00000000
00000000
00000100
00000000
00001000
00000000
00000000
00011000
,
00000000
00000000
00001000
00000000
01000000
00000000
00000000
10010000
00000000
00000000
00100000
00000000
01000000
00000000
00000000
01001000
,
00000000
00000000
00010000
00000000
00001000
00000000
00000000
00000000
00000100
00001000
00000100
00000000
00000010
00000000
00000001
00001000
,
00000001
00000000
00000100
00000010
00000100
00000010
00000100
00000010
00000200
00000000
00000000
00000000
00000000
00000000
00000000
00000000
,
00000000
00000000
00000300
00000000
;

//---------------dance-double - ----------------
#NOTES:
     dance-double:
     :
     Medium:
     6:
     0.362325,0.359877,0.114247,0.053315,0.000000,333.000000,318.000000,15.000000,7.000000,0.000000,0.000000,0.362325,0.359877,0.114247,0.053315,0.000000,333.000000,318.000000,15.000000,7.000000,0.000000,0.000000:
00000000
00000000
00000000
00000000
,
00000000
00000000
00000000
00000000
,
00000000
00000000
00000000
00000000
,
00000000
00000000
00000000
00000000
,
10000000
00000000
01000000
20000000
00000000
00000000
30000000
00000000
,
00001000
00000000
00010000
00002000
00000000
00000000
00003000
00000000
,
00000010
00000000
00000001
00000020
00000000
00000000
00000030
00000000
,
00000100
00000000
00001000
00000200
00000000
00000000
00010300
00000000
,
00001000
00000000
01000000
00200000
00000000
00000000
00300000
00000000
,
01000000
00000000
00001000
02000000
00000000
00000000
03000000
00000000
,
00000000
00000000
00000000
00000000
00001000
00010000
00001000
00010000
,
00001000
01000000
00010000
00000000
01000000
00100000
01000000
00000000
,
00100000
10000000
00100000
00000000
10000000
00010000
10000000
00000000
,
00010000
00100000
00010000
00000000
01000000
00001000
01000000
00000000
,
00001000
00010000
00001000
00000000
00010000
00000010
00000100
00000000
,
00000010
00001000
00000010
00000000
00001000
00000001
00000100
00000000
,
00000001
00000010
00000001
00000000
00000010
00000100
00010000
00000000
,
00001000
00010000
00001000
00000000
01000000
00010000
10000000
00000000
,
01000000
10000000
01000000
00000000
00100000
00001000
00010000
00000000
,
00000010
00000100
00000010
00000000
00001000
00000001
00001000
00000000
,
00000100
00010000
00000100
00000000
00010000
00001000
00010000
00000000
,
00001000
01000000
00001000
00000000
01000000
00100000
01000000
00000000
,
00100000
10000000
00100000
00000000
10000000
00010000
10000000
00000000
,
01000000
10000000
00010000
00000000
01000000
00001000
00010000
00000000
,
00000010
00001000
00000001
00000000
00000010
00000100
00000010
00000000
,
00000001
00001000
00000100
00000000
00010000
00001000
00010000
00000000
,
00000000
00000000
00000000
00000000
,
00000000
00011000
01000000
01010000
,
00100000
10000000
01000000
00000000
01000000
00100000
00001000
00000000
,
00010000
00011000
00000100
00011000
,
00000010
00000100
00000001
00000000
00000010
00000100
00010000
00000000
,
00001000
01010000
00100000
01010000
,
00100000
10000000
00010000
00000000
00100000
01000000
10000000
00000000
,
00100000
01001000
00010000
00001010
,
00000100
00000010
00001000
00000000
00000001
00000010
00000100
00000000
,
00000000
00010000
00000000
00001000
00000000
01000000
00100000
01000000
,
00000000
00001000
00000000
00010000
00000000
00000010
00000100
00000010
,
00000000
00010000
00000000
00001000
00000000
00100000
01000000
00100000
,
00000000
00001000
00000000
00010000
00000000
00000100
00000010
00000100
,
00000000
00001000
00000000
00000001
00000000
00000100
00000010
00010000
,
00000000
00001000
00000000
01000000
00000000
00100000
10000000
00010000
,
00000000
00100000
00000000
01000000
00000000
00100000
00001000
00010000
,
00000000
00000010
00000000
00000100
00000000
00000010
00010000
00001000
,
00100000
01000000
10000000
10010000
,
01000000
00001000
00010000
00011000
,
00000010
00000100
00000001
00001001
,
00000100
00000010
00010000
00011000
,
01000000
00100000
10000000
11000000
,
00100000
01000000
00001000
00011000
,
00000010
00000100
00000001
00001001
,
00000000
00000000
00000000
00000000
00000100
00000001
00000100
00000000
,
00000010
00010000
00001000
00000000
01000000
00100000
01000000
00000000
,
00010000
10000000
00100000
00000000
10000000
01000000
00100000
00000000
,
00001000
00010000
00000010
00000000
00000100
00000001
00001000
00000000
,
00000100
00010000
00001000
00000000
01000000
00100000
01000000
00000000
,
00010000
10000000
00100000
00000000
01000000
00001000
00010000
00000000
,
00000010
00001000
00000100
00000000
00010000
00001000
01000000
00000000
,
00100000
10000000
01000000
00000000
00100000
00001000
00010000
00000000
,
00000010
00010000
00001000
00000000
01000000
00001000
00010000
00000000
,
00000010
00000100
00000001
00000000
00000010
00000100
00001000
00000000
,
00010000
00001000
01000000
00000000
00100000
10000000
00010000
00000000
,
00100000
01000000
10000000
00000000
00010000
01000000
00001000
00000000
,
00010000
00000010
00000100
00000000
00000010
00001000
00000100
00000000
,
00010000
00001000
01000000
00000000
00100000
10000000
00010000
00000000
,
00100000
00001000
00010000
00000000
00000010
00000100
00000001
00000000
,
00000010
00000100
00010000
00000000
00001000
01000000
00100000
00000000
,
01000000
10000000
01000000
00010000
02000000
00000000
00000000
00000000
,
00000000
00000000
03000000
00000000
;

//---------------dance-double - ----------------
#NOTES:
     dance-double:
     :
     Easy:
     4:
     0.244814,0.231349,0.000000,0.350356,0.000000,225.000000,225.000000,0.000000,46.000000,0.000000,0.000000,0.244814,0.231349,0.000000,0.350356,0.000000,225.000000,225.000000,0.000000,46.000000,0.000000,0.000000:
// measure 0
00000000
00000000
00000000
00000000
,  // measure 1
00000000
00000000
00000000
00000000
,  // measure 2
00000000
00000000
00000000
00000000
,  // measure 3
00000000
00000000
00000000
00000000
,  // measure 4
00000020
00000100
00000130
00000000
,  // measure 5
00020000
00001000
00031000
00000000
,  // measure 6
02000000
00100000
03100000
00000000
,  // measure 7
20000000
00010000
30010000
00000000
,  // measure 8
00200000
00001000
00301000
00000000
,  // measure 9
00020000
00000100
00030100
00000000
,  // measure 10
00000000
00000000
00000010
00000010
,  // measure 11
00000010
00000010
00000010
00000010
,  // measure 12
00010000
00010000
00010000
00010000
,  // measure 13
00001000
01000000
00010000
01000000
,  // measure 14
00001000
01000000
00010000
01000000
,  // measure 15
00100000
00100000
00100000
00100000
,  // measure 16
10000000
10000000
10000000
10000000
,  // measure 17
00010000
00100000
00001000
00010000
,  // measure 18
00000010
00010000
00001000
00100000
,  // measure 19
00010000
01000000
00010000
00100000
,  // measure 20
00010000
01000000
00010000
00100000
,  // measure 21
00010000
01000000
00010000
00100000
,  // measure 22
00010000
01000000
00010000
00100000
,  // measure 23
00001000
00010000
00001000
00000010
,  // measure 24
00001000
00010000
00001000
00000010
,  // measure 25
00001000
00010000
00001000
00000010
,  // measure 26
00000000
00000000
00000000
00000000
,  // measure 27
00000000
00000001
00000010
00000001
,  // measure 28
00000100
00000010
00001000
00000000
,  // measure 29
00000100
00010000
00001000
01000000
,  // measure 30
00100000
01000000
00010000
00000000
,  // measure 31
10000000
00100000
01000000
00100000
,  // measure 32
10000000
00010000
00100000
00000000
,  // measure 33
00001000
00010000
00000010
00001000
,  // measure 34
00000100
00010000
00001000
00000000
,  // measure 35
01000000
00100000
10000000
02000000
,  // measure 36
00000000
03100000
00001000
00020000
,  // measure 37
00000000
00030010
00000100
00000020
,  // measure 38
00000000
00001030
00000100
00002000
,  // measure 39
00000000
00003001
00000100
00000020
,  // measure 40
00000000
00010030
00001000
00020000
,  // measure 41
00000000
00031000
01000000
00200000
,  // measure 42
00000000
10300000
00010000
10000000
,  // measure 43
01000000
00100000
00001000
00010000
,  // measure 44
00000010
00010000
00001000
01000000
,  // measure 45
00001000
00010000
00000010
00000100
,  // measure 46
00000001
00000010
00000100
00010000
,  // measure 47
00001000
01000000
00100000
01000000
,  // measure 48
00010000
10000000
01000000
00100000
,  // measure 49
00001000
00010000
00000010
00000100
,  // measure 50
00000000
00000000
00000020
00001030
,  // measure 51
00000200
00000310
00000002
00001003
,  // measure 52
00000020
00000130
00000002
00001003
,  // measure 53
00000200
00010300
00002000
01003000
,  // measure 54
00020000
10030000
02000000
03100000
,  // measure 55
00020000
10030000
00200000
01300000
,  // measure 56
00020000
00130000
00002000
00013000
,  // measure 57
00000020
00001030
00000200
00010300
,  // measure 58
00002000
01003000
00200000
10300000
,  // measure 59
02000000
03100000
00002000
00013000
,  // measure 60
00000020
00000130
00000002
00000013
,  // measure 61
00000200
00010300
00002000
01003000
,  // measure 62
00200000
10300000
00020000
10030000
,  // measure 63
02000000
03100000
00002000
00013000
,  // measure 64
00000020
00000130
00000002
00000013
,  // measure 65
00000200
00010300
00002000
01003000
,  // measure 66
00200000
10300000
02000000
00000000
,  // measure 67
00000000
00000000
03000000
00000000
;
