#TITLE:Harder, Better, Faster, Stronger;
#SUBTITLE:;
#ARTIST:Daft Punk;
#TITLETRANSLIT:;
#SUBTITLETRANSLIT:;
#ARTISTTRANSLIT:;
#GENRE:Discovery;
#CREDIT:;
#BANNER:Harder, Better, Faster, Stronger-bn.png;
#BACKGROUND:16Over.png;
#LYRICSPATH:;
#CDTITLE:;
#MUSIC:Harder, Better, Faster, Stronger.mp3;
#OFFSET:-0.038000;
#SAMPLESTART:38.902000;
#SAMPLELENGTH:15.547000;
#LASTBEATHINT:250.501007;
#SELECTABLE:YES;
#DISPLAYBPM:124.000000;
#BPMS:0.000000=123.500000
;
#STOPS:
;
#BGCHANGES:14.000=Harder.png=1.000=1=0=1===CrossFade==,
80.000=01Work It.png=1.000=0=0=1=====,
81.000=Harder.png=1.000=0=0=1=====,
82.000=02Make It.png=1.000=0=0=1=====,
83.000=Harder.png=1.000=0=0=1=====,
84.000=03Do It.png=1.000=0=0=1=====,
85.000=Harder.png=1.000=0=0=1=====,
86.000=04Makes Us.png=1.000=0=0=1=====,
87.000=Harder.png=1.000=0=0=1=====,
97.000=05Harder.png=1.000=0=0=1=====,
98.000=Harder.png=1.000=0=0=1=====,
99.000=06Better.png=1.000=0=0=1=====,
100.000=Harder.png=1.000=0=0=1=====,
101.000=07Faster.png=1.000=0=0=1=====,
102.000=Harder.png=1.000=0=0=1=====,
103.000=08Stronger.png=1.000=0=0=1=====,
104.000=Harder.png=1.000=0=0=1=====,
112.000=09More Than.png=1.000=0=0=1=====,
113.000=Harder.png=1.000=0=0=1=====,
114.000=10Hour.png=1.000=0=0=1=====,
115.000=Harder.png=1.000=0=0=1=====,
116.000=11Our.png=1.000=0=0=1=====,
117.000=Harder.png=1.000=0=0=1=====,
118.000=12Never.png=1.000=0=0=1=====,
119.000=Harder.png=1.000=0=0=1=====,
129.000=13Ever.png=1.000=0=0=1=====,
130.000=Harder.png=1.000=0=0=1=====,
131.000=14After.png=1.000=0=0=1=====,
132.000=Harder.png=1.000=0=0=1=====,
133.000=15Work Is.png=1.000=0=0=1=====,
134.000=Harder.png=1.000=0=0=1=====,
135.000=09More Than.png=1.000=0=0=1=====,
136.000=Harder.png=1.000=0=0=1=====,
144.000=01Work It.png=1.000=0=0=1=====,
145.000=Harder.png=1.000=0=0=1=====,
146.000=02Make It.png=1.000=0=0=1=====,
147.000=Harder.png=1.000=0=0=1=====,
148.000=03Do It.png=1.000=0=0=1=====,
149.000=Harder.png=1.000=0=0=1=====,
150.000=04Makes Us.png=1.000=0=0=1=====,
151.000=Harder.png=1.000=0=0=1=====,
161.000=05Harder.png=1.000=0=0=1=====,
162.000=Harder.png=1.000=0=0=1=====,
163.000=06Better.png=1.000=0=0=1=====,
164.000=Harder.png=1.000=0=0=1=====,
165.000=07Faster.png=1.000=0=0=1=====,
166.000=Harder.png=1.000=0=0=1=====,
167.000=08Stronger.png=1.000=0=0=1=====,
168.000=16Over.png=1.000=1=0=1===CrossFade==,
174.000=Harder.png=1.000=1=0=1===CrossFade==,
176.000=01Work It.png=1.000=0=0=1=====,
177.000=05Harder.png=1.000=0=0=1=====,
178.000=02Make It.png=1.000=0=0=1=====,
179.000=06Better.png=1.000=0=0=1=====,
180.000=03Do It.png=1.000=0=0=1=====,
181.000=07Faster.png=1.000=0=0=1=====,
182.000=04Makes Us.png=1.000=0=0=1=====,
183.000=08Stronger.png=1.000=0=0=1=====,
184.000=09More Than.png=1.000=0=0=1=====,
185.000=13Ever.png=1.000=0=0=1=====,
186.000=10Hour.png=1.000=0=0=1=====,
187.000=14After.png=1.000=0=0=1=====,
188.000=11Our.png=1.000=0=0=1=====,
189.000=15Work Is.png=1.000=0=0=1=====,
190.000=12Never.png=1.000=0=0=1=====,
191.000=16Over.png=1.000=0=0=1=====,
192.000=01Work It.png=1.000=0=0=1=====,
193.000=05Harder.png=1.000=0=0=1=====,
194.000=02Make It.png=1.000=0=0=1=====,
195.000=06Better.png=1.000=0=0=1=====,
196.000=03Do It.png=1.000=0=0=1=====,
197.000=07Faster.png=1.000=0=0=1=====,
198.000=04Makes Us.png=1.000=0=0=1=====,
199.000=08Stronger.png=1.000=0=0=1=====,
200.000=Harder.png=1.000=0=0=1=====,
208.000=09More Than.png=1.000=0=0=1=====,
209.000=13Ever.png=1.000=0=0=1=====,
210.000=10Hour.png=1.000=0=0=1=====,
211.000=14After.png=1.000=0=0=1=====,
212.000=11Our.png=1.000=0=0=1=====,
213.000=15Work Is.png=1.000=0=0=1=====,
214.000=12Never.png=1.000=0=0=1=====,
215.000=16Over.png=1.000=0=0=1=====,
216.000=Harder.png=1.000=0=0=1=====,
224.000=01Work It.png=1.000=0=0=1=====,
225.000=05Harder.png=1.000=0=0=1=====,
226.000=02Make It.png=1.000=0=0=1=====,
227.000=06Better.png=1.000=0=0=1=====,
228.000=03Do It.png=1.000=0=0=1=====,
229.000=07Faster.png=1.000=0=0=1=====,
230.000=04Makes Us.png=1.000=0=0=1=====,
231.000=08Stronger.png=1.000=0=0=1=====,
232.000=09More Than.png=1.000=0=0=1=====,
233.000=13Ever.png=1.000=0=0=1=====,
234.000=10Hour.png=1.000=0=0=1=====,
235.000=14After.png=1.000=0=0=1=====,
236.000=11Our.png=1.000=0=0=1=====,
237.000=15Work Is.png=1.000=0=0=1=====,
238.000=12Never.png=1.000=0=0=1=====,
239.000=09More Than.png=1.000=0=0=1=====,
240.000=05Harder.png=1.000=0=0=1===CrossFade_Fastest==,
241.000=06Better.png=1.000=0=0=1===CrossFade_Fastest==,
242.000=07Faster.png=1.000=0=0=1===CrossFade_Fastest==,
243.000=08Stronger.png=1.000=0=0=1===CrossFade_Fastest==,
244.000=05Harder.png=1.000=0=0=1===CrossFade_Fastest==,
245.000=06Better.png=1.000=0=0=1===CrossFade_Fastest==,
246.000=07Faster.png=1.000=0=0=1===CrossFade_Fastest==,
247.000=08Stronger.png=1.000=0=0=1===CrossFade_Fastest==,
248.000=16Over.png=1.000=0=0=1===CrossFade_Fastest==,
99999=-nosongbg-=1.000=0=0=0 // don't automatically add -songbackground-
;
#KEYSOUNDS:;
#ATTACKS:;

//---------------dance-single - ----------------
#NOTES:
     dance-single:
     :
     Challenge:
     9:
     0.591426,0.590352,1.000000,0.000000,0.000000,371.000000,128.000000,0.000000,0.000000,0.000000,0.000000,0.591426,0.590352,1.000000,0.000000,0.000000,371.000000,128.000000,0.000000,0.000000,0.000000,0.000000:
0000
0000
0000
0000
,
0000
0000
0000
0000
,
0000
0000
0000
0000
,
0000
0000
0000
0000
,
1100
0001
0010
0000
0101
1000
0010
0000
,
1010
0001
0100
0000
0011
1000
0100
0000
,
0101
1100
1010
0011
,
0101
0011
1010
1100
,
0101
1000
0100
0000
1100
0001
0100
0000
,
1010
0001
0010
0000
0011
1000
0010
0000
,
1010
0011
0101
1100
,
1010
1100
0101
0011
,
1010
0100
0010
0000
0011
0100
0010
0000
,
0101
0010
0100
0000
1100
0010
0100
0000
,
0101
1001
1100
0110
,
0011
1001
1010
0110
,
0110
1000
0001
0000
1001
0100
0010
0000
,
0110
0001
1000
0000
1001
0010
0100
0000
,
0101
0011
1010
0110
,
1100
0101
0011
1001
,
1000
1000
0101
0000
0001
0001
1100
0000
,
1000
1000
0011
0000
0001
0001
1010
0000
,
0101
1000
1100
0001
0101
1000
1100
0001
,
0101
1000
1100
0001
0101
1000
1100
0000
,
0011
0000
1000
0100
1010
0000
0001
0100
,
0011
0000
1000
0010
1100
0000
0001
0010
,
0101
0010
1100
0010
0101
0010
1100
0010
,
0101
0010
1100
0010
0101
0010
1100
0000
,
0010
1000
0101
0000
0010
0001
1100
0000
,
0100
0001
1010
0000
0100
1000
0011
0000
,
1010
0001
0011
1000
1010
0001
0011
1000
,
1010
0001
0011
1000
1010
0001
0011
0000
,
1100
0000
0001
0100
1100
0000
1000
0010
,
0011
0000
0001
0010
1010
0000
1000
0100
,
0101
0010
0011
1000
1010
0100
1100
0001
,
0101
0010
0011
1000
1010
0100
1100
0000
,
0001
1000
0011
0000
1000
0001
1010
0000
,
0001
1000
0011
0000
1000
0001
1010
0000
,
0110
1000
0110
0001
0110
1000
0110
0001
,
0110
1000
0110
0001
0110
1000
0110
0000
,
1010
0000
0001
1000
0101
0000
1000
0001
,
1100
0000
0001
1000
0101
0000
1000
0001
,
1000
0100
0001
0100
1000
0100
0001
0100
,
1000
0100
0001
0100
1000
0100
0001
0100
,
1000
0010
0100
0001
1000
0010
0100
0010
,
1000
0100
0010
0001
1000
0001
0100
0010
,
1000
0100
0001
1000
0010
0001
0100
0010
,
1000
0001
0100
0010
1000
0100
0001
0100
,
1000
0010
0100
0001
0001
0010
0100
1000
,
1000
0001
0100
0010
0010
1000
0100
0010
,
0011
1010
1100
0101
,
0011
0101
1100
1010
,
0001
1000
0010
0100
1000
0100
0001
0010
,
0100
1000
0010
0001
0100
0010
1000
0100
,
1100
0101
0110
1001
,
0101
1100
0110
1001
,
1000
0010
0001
0100
0010
1000
0100
0010
,
1000
0100
0001
0010
0010
0100
1000
0001
,
0100
1000
0010
0001
1000
0100
0001
0010
,
0100
0001
0010
1000
0001
0010
1000
0100
,
0010
1000
0010
0001
0010
1000
0010
0001
,
0010
1000
0010
0001
0010
1000
0010
0001
;

//---------------dance-single - ----------------
#NOTES:
     dance-single:
     :
     Hard:
     8:
     0.504904,0.796469,0.373345,0.663724,0.033186,301.000000,45.000000,80.000000,76.000000,0.000000,0.000000,0.504904,0.796469,0.373345,0.663724,0.033186,301.000000,45.000000,80.000000,76.000000,0.000000,0.000000:
0000
0000
0000
0000
,
0000
0000
0000
0000
,
0000
0000
0000
0000
,
0000
0000
0000
0000
,
1000
0010
0000
0000
0001
1000
0000
0000
,
0010
0001
0000
0000
0100
1000
0000
0000
,
0011
1010
1100
0101
,
0011
0101
1100
1010
,
0100
0001
0000
0000
1000
0100
0000
0000
,
0100
0001
0000
0000
1000
0010
0000
0000
,
1010
0101
1010
0101
,
0011
1100
0011
1100
,
0001
1000
0000
0000
0010
0001
0000
0000
,
1000
0010
0000
0000
0100
1000
0000
0000
,
0101
1100
1010
0011
,
0101
0011
1010
1100
,
0001
1000
0000
0000
0010
0100
0000
0000
,
1000
0010
0000
0000
0001
0100
0000
0000
,
0110
1001
0110
1001
,
0011
1100
1010
0101
,
0001
1000
0MM0
0000
0010
0100
M00M
0000
,
0001
1000
0MM0
0000
0010
0100
M00M
0000
,
0010
1000
0010
0100
0010
1000
0010
0100
,
0001
0100
0010
0100
0001
0100
0001
0000
,
1001
0000
1000
0001
M0M0
0000
0100
0001
,
MM00
0000
0100
1000
0M0M
0000
0001
1000
,
01MM
1000
0100
0010
0100
0001
0100
0010
,
0100
1000
0001
1000
0010
1000
0010
0000
,
0001
1000
0MMM
0000
0010
0001
MMM0
0000
,
0100
1000
0MMM
0000
1000
0001
MMM0
0000
,
1000
0001
0100
1000
0100
0001
0100
1000
,
0001
0010
1000
0010
0001
0010
1000
0000
,
1001
0000
0010
0010
MM0M
0000
01M0
0100
,
M0MM
0000
0M01
0001
MMM0
0000
100M
1000
,
1MMM
0000
M011
0000
1100
0000
0001
1000
,
0001
0000
1010
0000
0101
0000
1000
0001
,
1000
0000
0000
0100
0000
0000
M0MM
0000
0M00
0000
0000
0000
0010
0000
0000
0100
0000
0000
M0MM
0000
0M00
0000
0000
0000
,
0001
0000
0000
0010
0000
0000
MM0M
0000
00M0
0000
0000
0000
0100
0000
0000
1000
0000
0000
0MMM
0000
M000
0000
0000
0000
,
0001
0100
1000
0100
0010
0100
0001
0100
,
1000
0100
0001
0100
0010
0100
0001
0000
,
1001
0000
0000
0000
0000
0000
0010
0000
0000
1000
0000
0000
0MMM
0000
M000
0000
0000
0000
0100
0000
0000
0001
0000
0000
,
MMM0
0000
000M
0000
0000
0000
1000
0000
0000
0100
0000
0000
M0MM
0000
0M00
0000
0000
0000
0001
0000
0000
1000
0000
0000
,
0MMM
M000
0000
0000
0000
0000
0000
0000
0000
0000
0000
0000
,
0000
0000
0000
0000
,
0002
0103
0020
1030
0200
1300
0002
0013
,
0200
1300
0020
0130
2000
3100
0002
0103
,
0002
0013
0200
0310
2000
3010
0200
0310
,
0200
1300
0002
0013
0002
0103
2000
3100
,
0002
0203
0320
2030
3200
0320
0230
2300
,
3002
0023
0230
2300
3020
2030
3200
0320
,
0031
0000
1000
0000
0010
0000
0100
0010
,
0110
0000
1010
0000
1100
0000
0001
1000
,
0002
0023
0230
0320
0032
0203
0320
0230
,
2300
3020
0230
0320
2030
3200
0320
0032
,
1003
0000
0001
0000
0100
0000
0010
0100
,
0110
0000
0101
0000
1100
0000
0001
1000
,
0002
0023
0230
2300
3002
2003
3020
0230
,
0302
0203
0320
2030
3002
0023
0230
2300
,
3002
0203
2300
3200
0302
0203
0320
0230
,
0302
2003
3200
0320
0032
2003
3020
0230
,
0300
0000
0000
0000
;

//---------------dance-single - ----------------
#NOTES:
     dance-single:
     :
     Medium:
     6:
     0.302232,0.297431,0.033186,0.000000,0.000000,251.000000,4.000000,0.000000,0.000000,0.000000,0.000000,0.302232,0.297431,0.033186,0.000000,0.000000,251.000000,4.000000,0.000000,0.000000,0.000000,0.000000:
0000
0000
0000
0000
,
0000
0000
0000
0000
,
0000
0000
0000
0000
,
0000
0000
0000
0000
,
1000
0001
0000
0000
0100
0001
0000
0000
,
1000
0010
0000
0000
0100
0010
0000
0000
,
1000
0001
0010
0100
,
1000
0010
0100
0001
,
1000
0100
0000
0000
0010
0100
0000
0000
,
1000
0001
0000
0000
0010
0001
0000
0000
,
1000
0010
0001
0100
,
1000
0010
0001
0100
,
0010
1000
0000
0000
0100
0010
0000
0000
,
0001
1000
0000
0000
0010
0100
0000
0000
,
0010
1000
0001
0010
,
0100
1000
0001
0100
,
0010
0100
0000
0000
0001
0010
0000
0000
,
0100
1000
0000
0000
0010
1000
0000
0000
,
0100
0010
0001
1000
,
0010
0100
0001
0010
,
0100
1000
0000
0000
0001
0010
0000
0000
,
0001
0100
0000
0000
0010
1000
0000
0000
,
1000
0001
0100
0000
0010
0000
1000
0000
,
0001
1000
0100
0000
0010
0000
0001
0000
,
1000
0000
0010
1000
0000
0000
0001
0010
,
0000
0000
0100
1000
0000
0000
0001
0100
,
0001
1000
0010
0100
,
0001
0010
0100
1000
,
0010
1000
0000
0000
0100
0001
0000
0000
,
0100
1000
0000
0000
0010
0001
0000
0000
,
1000
0001
0100
0010
,
1000
0001
0100
0010
,
0100
0000
0001
0010
0000
0000
0100
1000
,
0000
0000
0010
1000
0000
0000
0001
0010
,
0100
1000
0001
0010
,
0001
0100
0010
1000
,
0001
1000
0000
0000
0010
1000
0000
0000
,
1000
0001
0000
0000
0010
0001
0000
0000
,
0001
0100
0010
0000
1000
0000
0001
0000
,
1000
0100
0010
0000
0001
0000
1000
0000
,
0010
0000
1000
0100
0000
0000
0001
0100
,
0000
0000
1000
0100
0000
0000
0001
0100
,
0000
0000
0000
0000
,
0000
0000
0000
0000
,
0010
1000
0100
0000
0100
1000
0010
0000
,
1000
0001
0100
0000
0100
0001
1000
0000
,
0001
1000
0010
0000
0010
1000
0001
0000
,
0010
0001
0100
0000
0100
0001
0010
0000
,
0010
0001
1000
0000
1000
0100
0010
0000
,
0010
0001
0100
0000
0100
0010
1000
0000
,
0001
0000
1000
0000
0110
0000
0100
0010
,
0100
0000
0010
0000
1001
0000
1000
0001
,
1000
0100
0010
0000
0010
0001
0100
0000
,
0100
0001
1000
0000
1000
0100
0010
0000
,
0001
0000
1000
0000
1010
0000
0010
0100
,
0010
0000
0100
0000
0101
0000
0001
1000
,
0100
1000
0010
0000
0010
0001
0010
0000
,
0100
0001
0010
0000
0010
1000
0010
0000
,
0100
0001
1000
0000
0100
1000
0001
0000
,
0010
1000
0001
0000
0010
0001
1000
0000
;

//---------------dance-single - ----------------
#NOTES:
     dance-single:
     :
     Easy:
     4:
     0.258378,0.223074,0.000000,0.199117,0.000000,194.000000,0.000000,24.000000,0.000000,0.000000,0.000000,0.258378,0.223074,0.000000,0.199117,0.000000,194.000000,0.000000,24.000000,0.000000,0.000000,0.000000:
// measure 0
0000
0000
0000
0000
,  // measure 1
0000
0000
0000
0000
,  // measure 2
0000
0000
0000
0000
,  // measure 3
0000
0000
0000
0000
,  // measure 4
1000
0100
0001
0100
,  // measure 5
1000
0100
0001
0100
,  // measure 6
0010
0010
0010
0010
,  // measure 7
0100
0100
0100
0100
,  // measure 8
0001
0100
1000
0100
,  // measure 9
0001
0100
1000
0100
,  // measure 10
0010
0010
0010
0010
,  // measure 11
0100
0100
0100
0100
,  // measure 12
1000
0010
0001
0010
,  // measure 13
1000
0010
0001
0010
,  // measure 14
0100
0100
0100
0100
,  // measure 15
0010
0010
0010
0010
,  // measure 16
0001
0010
1000
0010
,  // measure 17
0001
0010
1000
0010
,  // measure 18
0100
0100
0100
0100
,  // measure 19
0010
0010
0010
0000
,  // measure 20
2000
3000
0200
0300
,  // measure 21
0002
0003
0200
0300
,  // measure 22
0010
1000
0010
0001
,  // measure 23
0010
1000
0010
0001
,  // measure 24
0100
0020
0030
2000
,  // measure 25
3000
0020
0030
0002
,  // measure 26
0103
1000
0100
0001
,  // measure 27
0100
1000
0100
0001
,  // measure 28
2000
3000
0200
0300
,  // measure 29
0002
0003
0200
0300
,  // measure 30
1000
0100
0001
0100
,  // measure 31
1000
0100
0001
0100
,  // measure 32
1000
0020
0030
0002
,  // measure 33
0003
0020
0030
2000
,  // measure 34
3010
0001
0010
1000
,  // measure 35
0010
0001
0010
1000
,  // measure 36
0002
0003
0020
0030
,  // measure 37
2000
3000
0020
0030
,  // measure 38
0001
0010
1000
0010
,  // measure 39
0001
0010
1000
0010
,  // measure 40
0001
2000
3000
0200
,  // measure 41
0300
0002
0003
0200
,  // measure 42
0300
0000
0000
0000
,  // measure 43
0000
0000
0000
0000
,  // measure 44
1000
0100
0001
0100
,  // measure 45
1000
0010
0100
0001
,  // measure 46
0001
0010
1000
0010
,  // measure 47
0001
0100
0010
1000
,  // measure 48
1000
0100
0001
0100
,  // measure 49
1000
0010
0100
0001
,  // measure 50
0001
0100
1000
0100
,  // measure 51
0001
0010
0100
1000
,  // measure 52
0010
1000
0001
0100
,  // measure 53
0100
1000
0100
0001
,  // measure 54
0010
0001
1000
0100
,  // measure 55
0100
0001
0100
1000
,  // measure 56
0010
1000
0100
0001
,  // measure 57
0010
1000
0100
0001
,  // measure 58
0100
1000
0010
0001
,  // measure 59
0100
1000
0010
0001
;

//---------------dance-single - ----------------
#NOTES:
     dance-single:
     :
     Beginner:
     1:
     0.117337,0.148093,0.000000,0.000000,0.000000,99.000000,0.000000,0.000000,0.000000,0.000000,0.000000,0.117337,0.148093,0.000000,0.000000,0.000000,99.000000,0.000000,0.000000,0.000000,0.000000,0.000000:
0000
0000
0000
0000
,
0000
0000
0000
0000
,
0000
0000
0000
0000
,
0000
0000
0000
0000
,
1000
0000
0001
0000
,
0100
0000
0010
0000
,
1000
0000
0000
0000
,
0001
0000
0000
0000
,
0010
0000
0001
0000
,
0100
0000
0010
0000
,
1000
0000
0000
0000
,
0001
0000
0000
0000
,
1000
0000
0100
0000
,
0001
0000
0100
0000
,
1000
0000
0000
0000
,
0001
0000
0000
0000
,
0100
0000
0010
0000
,
1000
0000
0001
0000
,
0100
0000
0000
0000
,
0010
0000
0000
0000
,
1000
0000
0001
0000
,
1000
0000
0001
0000
,
0100
0000
0000
0000
,
0010
0000
0000
0000
,
0000
1000
0000
0001
,
0000
0010
0000
0100
,
0100
0000
0000
0000
,
0010
0000
0000
0000
,
0001
0000
1000
0000
,
0010
0000
0100
0000
,
0001
0000
0000
0000
,
1000
0000
0000
0000
,
0000
0010
0000
1000
,
0000
0100
0000
0010
,
0010
0000
0000
0000
,
0001
0000
0000
0000
,
1000
0000
0001
0000
,
0100
0000
0010
0000
,
1000
0000
0000
0000
,
0001
0000
0000
0000
,
0000
0100
0000
0010
,
0000
1000
0000
0100
,
0100
0000
0000
0000
,
0000
0000
0000
0000
,
0001
0001
0001
0000
,
1000
0000
0010
0000
,
1000
1000
1000
0000
,
0001
0000
0100
0000
,
0010
0010
0010
0000
,
0100
0000
0001
0000
,
1000
0000
1000
0000
,
0001
0000
0001
0000
,
0010
0010
0010
0000
,
0100
0000
1000
0000
,
0001
0000
0001
0000
,
1000
0000
1000
0000
,
0010
0010
0010
0000
,
0100
0100
0100
0000
,
0001
0001
0001
0000
,
1000
1000
1000
0000
;
