#TITLE:HOT TO GO!;
#SUBTITLE:;
#ARTIST:Chappell Roan;
#TITLETRANSLIT:;
#SUBTITLETRANSLIT:;
#ARTISTTRANSLIT:;
#GENRE:The Rise and Fall of a Midwest Princess;
#CREDIT:[Ness];
#BANNER:HOT TO GO!.png;
#BACKGROUND:Black.png;
#LYRICSPATH:HOT TO GO!.lrc;
#CDTITLE:;
#MUSIC:HOT TO GO!.mp3;
#OFFSET:-0.086000;
#SAMPLESTART:58.343651;
#SAMPLELENGTH:13.714283;
#LASTBEATHINT:299.000000;
#SELECTABLE:YES;
#BPMS:0.000000=140.000000
;
#STOPS:
;
#BGCHANGES:0.000=HOT TO GO!.avi=1.000=0=0=0=StretchNoLoop====,
99999=-nosongbg-=1.000=0=0=0 // don't automatically add -songbackground-
;
#KEYSOUNDS:;
#ATTACKS:;

//---------------dance-single - ----------------
#NOTES:
     dance-single:
     :
     Hard:
     7:
     0.565527,0.577470,0.614413,0.108883,0.058330,509.000000,430.000000,79.000000,14.000000,0.000000,0.000000,0.565527,0.577470,0.614413,0.108883,0.058330,509.000000,430.000000,79.000000,14.000000,0.000000,0.000000:
0000
0000
0000
0000
,
0000
0000
0000
0000
,
0002
0000
0103
0001
1000
0000
1001
0000
,
0020
0000
1030
0100
0010
0000
0110
0000
,
0200
0000
1300
0001
0100
0000
1001
0000
,
2000
0000
3010
0100
0001
0000
0110
0000
,
0001
0001
0010
0100
1000
0000
1100
0000
,
1000
1000
0010
0100
0001
0000
0011
0000
,
0001
0001
0100
0001
1000
0100
1000
0000
,
0010
0000
0010
0000
1000
0000
0001
0000
1000
0001
0000
0000
0100
0000
0020
0000
,
0000
1030
0100
0010
0100
0000
0010
0001
,
0100
0000
0101
0000
1010
0000
1000
0002
,
0000
0013
0100
1000
0010
0000
1000
0001
,
1000
0000
1100
0000
0101
0000
0001
2000
,
0000
3100
1000
0010
0100
0000
0110
0000
,
0011
0000
1010
0000
1000
0001
0000
1001
,
0000
0001
0100
0010
1000
0000
0001
1000
,
0200
0000
0000
0000
0310
0000
0000
0000
0001
0100
0000
0000
0010
0000
2000
0000
,
0000
3100
0010
0001
1000
0100
0010
0001
,
2000
0000
3001
0100
0000
0010
0100
0010
,
0100
0001
1000
0010
0100
0001
1000
0010
,
0200
0000
0301
0010
0000
0100
1000
0100
,
0010
0001
1000
0100
0010
0001
1000
0100
,
0020
0000
0031
1000
0000
0100
0010
0100
,
1000
0010
0100
0001
0000
0101
0000
1010
,
0000
0001
0010
0100
0000
2002
0000
3003
,
0100
0000
0001
0000
1000
0000
0100
0000
1000
0000
0010
0100
0000
0000
0000
0000
,
0010
0000
1000
0000
0001
0000
0010
0000
0001
0000
0100
0010
0000
0000
0000
0000
,
1000
0000
0001
0000
1000
0000
0100
0000
0010
0000
0001
1000
0000
0000
0000
0000
,
0001
0000
0100
0000
0001
0000
1000
0000
0100
0000
0010
0100
0000
0000
0000
0000
,
1000
0000
1000
0000
0001
0000
0001
0000
0100
0000
0010
0100
0000
0000
0000
0000
,
0001
0000
1000
0000
0010
0000
0100
0000
0001
0000
1000
0001
0000
0000
0000
0000
,
0010
0000
0001
0000
1000
0000
0001
0000
0100
0000
0010
0100
0000
0000
0000
0000
,
0100
0000
0001
0000
1000
0000
0100
0000
1000
0001
1000
0001
1000
0000
0001
0000
,
1001
0101
1001
1100
,
1001
0000
0010
1000
0001
0000
1000
0000
,
0101
1010
1100
0101
,
0110
0000
0001
1000
0100
0000
0010
0000
,
0011
1100
0011
0011
,
1100
0000
0010
1000
0100
0000
0001
0000
,
1010
0101
1010
1010
,
0101
0000
0000
0000
0010
0000
0100
0000
0001
1000
0001
1000
0001
0000
1000
0000
,
0100
0010
0100
0000
0001
1000
0010
0100
,
0001
1000
0001
0000
0100
0010
0001
1000
,
0100
0010
0001
0000
1000
0010
0100
1000
,
0001
0100
0010
0000
1000
0010
0001
0000
,
1000
0100
1000
0001
0100
0010
0100
0001
,
1000
0100
1000
0001
0100
0001
0010
0000
,
0001
0010
0001
1000
0010
1000
0100
0010
,
0100
1000
0010
0100
0110
0000
0110
0000
,
1001
1010
1001
0101
,
1001
0000
0001
1000
0010
0000
0100
0000
,
1100
0011
1010
0101
,
0110
0000
1000
0100
0010
0001
0100
0000
,
1010
0101
0011
1100
,
0110
0000
1000
0001
0100
0000
0010
0000
,
0101
1001
1100
0110
,
1001
0000
0000
0000
1000
0000
0001
0000
0100
0010
0100
0010
0100
0000
0001
0000
,
1000
1100
0011
0101
,
1010
0000
0001
1000
0010
0100
0001
0000
,
1100
1010
0101
0011
,
0110
0000
0001
1000
0010
0100
0001
0000
,
1010
1001
1100
1001
,
0011
0000
1000
0001
0100
0010
0100
0000
,
1001
0101
0110
1100
,
1001
0000
1000
0001
0010
0100
1000
0010
,
0100
0000
0001
1000
0100
1000
0001
0000
,
1000
0000
0010
1000
0001
1000
0010
0000
,
0100
0000
0001
0010
0100
0010
0001
0000
,
0100
0000
0001
1000
0100
1000
0001
0000
,
0010
0000
0100
1000
0010
1000
0100
0000
,
0010
0000
0001
0100
0010
0100
0001
0000
,
1000
0000
0010
1000
0100
1000
0010
0000
,
0100
0000
0001
1000
0010
0100
0001
0000
,
1000
0001
1001
0000
0000
0000
0000
0000
;

//---------------dance-single - ----------------
#NOTES:
     dance-single:
     :
     Challenge:
     9:
     0.658855,0.750712,0.342205,0.209989,0.513307,593.000000,549.000000,44.000000,27.000000,171.000000,0.000000,0.658855,0.750712,0.342205,0.209989,0.513307,593.000000,549.000000,44.000000,27.000000,171.000000,0.000000:
0000
0000
0000
0000
,
0000
0000
0000
0000
,
0100
0100
0001
0001
1000
1000
0001
0001
,
0100
0100
0010
0010
0001
0001
0010
0010
,
0100
0100
0001
0001
1000
1000
0001
0001
,
0100
0100
1000
1000
0010
0010
1000
1000
,
0100
1000
0001
0100
0001
0001
0010
0001
,
1000
0010
0100
0001
0010
0010
0100
1000
,
0001
0100
0010
1000
0100
0100
1000
0010
,
0100
0000
0001
0000
0010
0000
0100
0000
1000
0001
1000
0100
0010
0001
0200
0000
,
0000
0310
1000
0001
0100
0000
0110
2000
,
0010
3000
0011
0000
0010
1000
0001
0200
,
0000
0301
0010
0100
1000
0000
0110
0002
,
0010
0003
1010
0000
1000
0001
0100
0020
,
0000
1030
0100
0010
0001
0000
1001
0200
,
0010
0300
0110
0000
0101
0100
1000
0120
,
0000
1030
0010
0001
0010
0000
1000
0001
,
1100
0000
0000
0000
0110
0000
0000
0000
0001
1000
0010
0100
0001
1000
0010
0100
,
0001
0010
0001
1000
0100
0000
0110
0000
,
1010
0000
0002
0023
0000
0032
0023
0032
,
0103
0010
1000
0100
1000
0000
0110
0000
,
0101
0000
2000
3200
0000
2300
3020
2030
,
3001
1000
0010
0100
0001
0000
0110
0000
,
1001
0000
0100
0020
0000
1030
0100
0010
,
0001
1000
0100
1000
0000
0101
0000
1010
,
0000
0000
0001
0000
0010
0000
0001
0000
1000
0100
1000
0001
0100
0000
0010
1000
,
0001
0000
0100
0000
1000
0000
0100
0000
0001
0000
1000
0001
0000
0000
0010
0000
,
0001
0000
1000
0000
0010
0000
1000
0000
0100
0000
1000
0010
0000
0000
0100
0000
,
0001
0000
0010
0000
0100
0000
1000
0000
0001
0000
0100
0010
0000
0000
1000
0000
,
0100
0000
0001
0000
0100
0000
1000
0000
0010
0000
1000
0001
0000
0000
0000
0000
,
0011
0000
1000
0000
0010
0000
0010
0000
0100
0000
0001
0100
0000
0000
0001
0000
,
1000
0000
0100
0000
0010
0000
0100
0000
1000
0000
0010
1000
0000
0000
0001
0000
,
1000
0000
0100
0000
0010
0000
0001
0000
1000
0000
0001
0100
0000
0000
0010
0000
,
1000
0000
0100
0000
0010
0000
0001
0000
1000
0001
0100
0010
1000
0000
0100
0010
,
0100
M00M
M00M
M01M
M00M
MMMM
MMMM
M00M
M00M
M11M
M00M
0000
,
1001
0000
0000
0000
0000
0000
0MM1
0000
M000
0100
M00M
0000
M01M
0000
M00M
0000
0MM0
0000
0000
0000
0000
0000
0000
0000
,
1MMM
0MM0
0MM0
1MM1
0MM0
0MM0
0101
0000
MMMM
1MM1
0MM0
0MM0
,
1MM0
0000
0MM0
0000
0000
0000
0001
0000
0MM0
1000
000M
0000
M10M
0000
M00M
0000
M00M
0000
0MM0
0000
0000
0000
0000
0000
,
1001
0MM0
M00M
M11M
M000
M000
M100
M0MM
M0MM
011M
M00M
M00M
,
1MM1
0000
0000
0000
0000
0000
0MM1
0000
M00M
0010
M00M
0000
M10M
0000
M00M
0000
0MM0
0000
1001
0000
0000
0000
0000
0000
,
0101
1100
0011
1010
,
0001
0000
0010
0000
1000
0000
0100
0000
0010
0001
1000
0100
0010
0000
0001
1000
,
0001
0000
0100
0010
1000
0000
0100
1000
0000
0001
0000
1000
0010
0000
0100
0000
,
0001
0000
1000
0001
0010
0000
0100
1000
0000
0010
0000
0100
0010
0000
1000
0000
,
0001
0000
1000
0100
1000
0000
0001
0000
0100
0000
0010
0100
0000
0001
0010
0000
,
0100
0000
1000
0001
0100
0000
0010
0000
1000
0000
0100
2000
0000
0000
3001
0000
,
0100
0000
0010
1000
0001
0000
0010
0100
0000
0010
0000
0001
1000
0000
0001
0000
,
0100
0000
0010
1000
0100
0000
1000
0000
0001
0100
0000
0001
0000
1000
0001
0000
,
1000
0000
0010
1000
0001
0000
1000
0000
0100
0000
1000
0001
0000
0100
0010
0000
,
1000
0000
0100
0010
0001
0000
1000
0000
0001
0100
0001
1000
0010
0100
0001
0100
,
0010
1000
1001
0010
1001
0100
1001
0001
,
0011
0000
1000
0100
0001
0010
1000
0000
,
1010
0100
1001
0100
0011
0010
1001
1000
,
0010
1000
0100
0001
0010
0100
0010
0000
,
0011
1000
0001
0100
0001
1000
0100
1000
,
1010
0100
0010
1000
0100
0010
0001
0000
,
1000
0001
0100
1000
0001
0010
1000
0100
,
0010
0000
0001
1000
0100
0000
1000
0010
0100
0000
0001
1000
0010
0100
0001
1000
,
0100
000M
0010
M000
0001
00M0
1000
0M00
0010
M000
0100
00M0
0001
0M00
1000
000M
,
0100
M000
0010
000M
0100
00M0
1000
0M00
0010
000M
0100
00M0
0000
M000
0000
0M00
,
0001
00M0
1000
000M
0100
M000
0001
0M00
1000
000M
0010
M000
0001
00M0
0100
000M
,
0010
0M00
1000
00M0
0100
M000
0001
0M00
0010
000M
0000
M000
0000
00M0
0000
0000
,
010M
10M0
0M01
M100
001M
1M00
00M1
M010
,
010M
10M0
001M
M100
00M1
1M00
010M
M000
,
0M10
M001
10M0
0M10
M100
00M1
100M
01M0
,
M010
0000
0M01
0000
10M0
0000
001M
0000
M100
0000
00M1
0000
0M10
0000
010M
1000
,
02M0
0000
0000
0000
1300
0000
0001
1000
0010
0000
0100
0000
0001
0000
1000
0000
,
0200
0000
0000
0000
0310
0000
0001
1000
0100
0000
0010
0000
0001
0000
0100
0000
,
0020
0000
0000
0000
1030
0000
0010
0100
0001
0000
1000
0000
0100
0000
0010
0000
,
0002
0000
0000
0000
1003
0000
0001
1000
0100
0000
0010
0000
0001
0000
0100
0000
,
0002
0000
0000
0000
1003
0000
0010
0100
0001
0000
1000
0000
0100
0000
1000
0000
,
0002
0000
0000
0000
0103
0000
0001
1000
0010
0000
1000
0000
0001
0000
0010
0000
,
0200
0000
0000
0000
1300
0000
0010
1000
0001
0000
1000
0000
0100
0000
0010
0000
,
0002
0000
0000
0000
1003
0000
0001
0100
0010
0000
1000
0000
0100
0000
1000
0000
,
0001
0100
1001
0000
0000
0000
0000
0000
;

//---------------dance-single - ----------------
#NOTES:
     dance-single:
     :
     Medium:
     5:
     0.396646,0.433103,0.256654,0.155548,0.000000,357.000000,324.000000,33.000000,20.000000,0.000000,0.000000,0.396646,0.433103,0.256654,0.155548,0.000000,357.000000,324.000000,33.000000,20.000000,0.000000,0.000000:
0000
0000
0000
0000
,
0000
0000
0000
0000
,
0100
0000
1000
0010
1000
0000
0100
0000
,
0010
0000
0001
0100
0001
0000
0010
0000
,
0100
0000
1000
0001
1000
0000
0010
0000
,
0100
0000
0001
1000
0001
0000
0010
0000
,
1000
0000
0010
1000
0010
0000
0001
0000
,
0100
0000
0001
0010
0001
0000
0100
0000
,
1000
0000
0100
1000
0100
0000
0001
0000
,
0010
0000
0100
0001
0100
0000
0110
0000
,
0001
0010
0100
1000
,
0001
0000
1000
0000
0001
0100
0000
0000
,
0010
0000
0110
0000
0100
0000
0100
0001
,
1000
0000
0001
0000
1000
0100
0000
0000
,
0010
0000
0100
0000
1000
0000
0001
1000
,
0001
0000
0100
0000
0010
0100
0000
0000
,
0001
0000
0010
0000
0100
0000
1000
0001
,
1000
0000
0100
0000
1000
0001
0000
0000
,
1001
0010
1001
0100
,
0002
0100
1003
0000
,
1001
0010
1001
0100
,
2000
0010
3001
1001
,
1000
0001
0100
0001
1000
0000
0100
0000
,
0020
0000
0130
0110
,
1000
0010
1000
0000
0100
0000
0001
0000
,
0001
0010
0001
0000
0100
0000
1000
0000
,
0001
0100
0001
0100
0001
0000
1000
0000
,
0010
1000
0010
1000
0010
0000
0100
0000
,
0001
1000
0001
1000
0001
0000
0010
0000
,
0100
1000
0100
1000
0100
0000
0010
0000
,
0001
1000
0001
1000
0001
0000
0100
0000
,
0010
0100
0010
0100
0010
0000
1000
0000
,
0001
1000
0001
1000
0001
0000
0010
0000
,
0100
1000
0100
1000
0100
0000
0010
0000
,
0001
1001
0010
0010
,
1001
0000
0000
0100
0010
0100
0000
0000
,
0001
0010
1000
0110
,
0001
0000
0000
0010
0100
0010
0000
0000
,
0100
1001
0010
0010
,
1001
0000
0000
0001
1000
0100
0000
0000
,
0001
1000
0100
0101
,
0010
0000
0000
1000
0001
0100
0000
0000
,
0001
0000
0011
0000
0010
0001
0010
0000
,
1000
1100
0200
0310
,
0100
1000
0001
0000
0100
0000
0110
0000
,
0001
1000
0010
0100
0001
0000
0000
0000
,
0010
0100
0010
0000
0100
0000
0110
0000
,
1000
0100
1000
0000
0001
0000
1001
0000
,
0001
0100
0001
0000
0010
0000
0110
0000
,
1000
0010
1000
0000
1001
0000
0110
0000
,
2002
0000
0000
3003
,
0020
0000
0000
0030
,
0200
0000
0000
0300
,
0001
0000
0000
0010
0100
1000
0000
0000
,
0100
1001
0010
0100
,
0001
0000
0000
1000
0001
0100
0000
0000
,
0010
1001
0010
0010
,
0220
0330
2002
3003
,
0010
1010
0010
0010
,
1001
0000
0010
0001
0010
0100
1000
0000
,
0001
0101
0001
0001
,
1000
0000
0010
1000
0001
1000
0010
0000
,
0100
0110
0001
0001
,
0010
0000
0001
1000
0001
0100
0001
0000
,
1000
1001
0010
0010
,
0110
0000
1000
0100
0010
0001
0100
0000
,
0020
0000
0000
0000
0130
0001
1000
0000
,
0200
0000
0000
0000
0310
0100
1000
0000
,
0002
0000
0000
0000
0013
0001
1000
0000
,
0200
0000
0000
0000
0310
0001
0100
0000
,
2000
0000
0000
0000
3001
1000
0010
0000
,
0200
0000
0000
0000
0301
0010
0100
0000
,
0020
0000
0000
0000
0031
1000
0100
0000
,
0002
0000
0000
0000
1003
0001
0100
0000
,
0001
1000
0001
0000
0000
0000
0000
0000
;

//---------------dance-single - ----------------
#NOTES:
     dance-single:
     :
     Easy:
     3:
     0.255542,0.288735,0.101106,0.217767,0.000000,230.000000,217.000000,13.000000,28.000000,0.000000,0.000000,0.255542,0.288735,0.101106,0.217767,0.000000,230.000000,217.000000,13.000000,28.000000,0.000000,0.000000:
// measure 0
0000
0000
0000
0000
,  // measure 1
0000
0000
0000
0000
,  // measure 2
0001
0010
0001
0000
,  // measure 3
1000
0001
0010
0000
,  // measure 4
0100
1000
0010
0000
,  // measure 5
1000
0001
0100
0000
,  // measure 6
0010
1000
0010
1000
,  // measure 7
0001
0010
0100
0010
,  // measure 8
0001
0010
0001
0010
,  // measure 9
0100
1000
0001
1000
,  // measure 10
0200
0300
0020
0030
,  // measure 11
0001
1000
1001
0000
,  // measure 12
0020
0030
0200
0300
,  // measure 13
1000
0001
1001
0000
,  // measure 14
0002
0003
0020
0030
,  // measure 15
0100
1000
1100
0000
,  // measure 16
2000
3000
0020
0030
,  // measure 17
0100
0001
0101
0000
,  // measure 18
1000
0001
1000
0001
,  // measure 19
0200
0000
0310
0000
,  // measure 20
0001
1000
0001
1000
,  // measure 21
0020
0000
0130
0000
,  // measure 22
1000
0100
0001
0100
,  // measure 23
0020
0000
0130
0000
,  // measure 24
0002
0010
0013
0000
,  // measure 25
2000
0010
3010
0000
,  // measure 26
0110
0000
1001
0000
,  // measure 27
1000
0001
0100
0000
,  // measure 28
0010
0100
0001
0000
,  // measure 29
0010
0100
1000
0000
,  // measure 30
0110
0000
1001
0000
,  // measure 31
1000
0001
0100
0000
,  // measure 32
0010
1000
0100
0000
,  // measure 33
0110
0000
1001
0000
,  // measure 34
0001
1000
0010
0100
,  // measure 35
0002
0000
2003
0000
,  // measure 36
3100
0010
0001
1000
,  // measure 37
0020
0000
0230
0000
,  // measure 38
0301
0010
0100
1000
,  // measure 39
0200
0000
0320
0000
,  // measure 40
0130
1000
0010
0100
,  // measure 41
0002
0000
2003
0000
,  // measure 42
3100
0010
0100
0000
,  // measure 43
1000
0010
0100
0000
,  // measure 44
0001
0001
0010
0010
,  // measure 45
0100
0100
1000
1000
,  // measure 46
0010
1000
0100
0000
,  // measure 47
1000
0001
0100
0000
,  // measure 48
0010
0100
0001
0000
,  // measure 49
1000
1000
0100
0100
,  // measure 50
0020
0000
0000
0030
,  // measure 51
0002
0000
0000
0003
,  // measure 52
2000
0000
0000
3000
,  // measure 53
0010
0100
0010
0000
,  // measure 54
1000
0100
0010
0001
,  // measure 55
1000
0001
0100
0000
,  // measure 56
0001
0010
0100
1000
,  // measure 57
0110
0000
1001
0000
,  // measure 58
0010
1000
0010
0100
,  // measure 59
0001
0100
0010
0000
,  // measure 60
1000
0100
0001
0100
,  // measure 61
1000
0001
0100
0000
,  // measure 62
0001
0010
1000
0010
,  // measure 63
0001
1000
0010
0000
,  // measure 64
0100
0001
0010
0100
,  // measure 65
1000
0001
0100
0000
,  // measure 66
0020
0000
1030
0000
,  // measure 67
0002
0000
0103
0000
,  // measure 68
2000
0000
3100
0000
,  // measure 69
0002
0000
0013
0000
,  // measure 70
0100
0010
0100
0010
,  // measure 71
0001
1000
0001
1000
,  // measure 72
0001
0100
0001
0100
,  // measure 73
0010
1000
0010
1000
,  // measure 74
0010
1001
0000
0000
;

//---------------dance-single - ----------------
#NOTES:
     dance-single:
     :
     Beginner:
     1:
     0.172213,0.202115,0.015555,0.085551,0.000000,155.000000,153.000000,2.000000,11.000000,0.000000,0.000000,0.172213,0.202115,0.015555,0.085551,0.000000,155.000000,153.000000,2.000000,11.000000,0.000000,0.000000:
// measure 0
0000
0000
0000
0000
,  // measure 1
0000
0000
0000
0000
,  // measure 2
0010
0000
1000
0000
,  // measure 3
0010
0000
0001
0000
,  // measure 4
0010
0000
1000
0000
,  // measure 5
0010
0000
0001
0000
,  // measure 6
1000
0000
0001
0000
,  // measure 7
1000
0000
0001
0000
,  // measure 8
0100
0000
0010
0000
,  // measure 9
0100
0000
0010
0000
,  // measure 10
1000
0000
0100
0000
,  // measure 11
0010
0010
0010
0000
,  // measure 12
0001
0000
1000
0000
,  // measure 13
0010
0010
0010
0000
,  // measure 14
1000
0000
0001
0000
,  // measure 15
0100
0100
0100
0000
,  // measure 16
0001
0000
1000
0000
,  // measure 17
0100
0100
0100
0000
,  // measure 18
0010
0000
0010
0000
,  // measure 19
0100
0000
0100
0000
,  // measure 20
0010
0000
0010
0000
,  // measure 21
0100
0000
0100
0000
,  // measure 22
1000
0000
1000
0000
,  // measure 23
0001
0000
0001
0000
,  // measure 24
0010
0000
0100
0000
,  // measure 25
1000
0000
0001
0000
,  // measure 26
0010
0010
0010
0000
,  // measure 27
0100
0100
0100
0000
,  // measure 28
0010
0010
0010
0000
,  // measure 29
0100
0100
0100
0000
,  // measure 30
0010
0010
0010
0000
,  // measure 31
0100
0100
0100
0000
,  // measure 32
0010
0010
0010
0000
,  // measure 33
0100
0100
0100
0000
,  // measure 34
0001
0000
0000
0000
,  // measure 35
0010
0000
1000
0000
,  // measure 36
0010
0010
0010
0000
,  // measure 37
1000
0000
0100
0000
,  // measure 38
0001
0001
0001
0000
,  // measure 39
0010
0000
1000
0000
,  // measure 40
0001
0001
0001
0000
,  // measure 41
0100
0000
0010
0000
,  // measure 42
1000
0000
0100
0000
,  // measure 43
0010
0000
0001
0000
,  // measure 44
1000
0000
0001
0000
,  // measure 45
0100
0000
0010
0000
,  // measure 46
1000
0000
0010
0000
,  // measure 47
1000
0000
0001
0000
,  // measure 48
0010
0000
0001
0000
,  // measure 49
1000
0000
0001
0000
,  // measure 50
1001
0000
0000
0000
,  // measure 51
0020
0000
0030
0000
,  // measure 52
2000
0000
3000
0000
,  // measure 53
0002
0000
0003
0000
,  // measure 54
0010
0010
0010
0000
,  // measure 55
0001
0000
1000
0000
,  // measure 56
0010
0010
0010
0000
,  // measure 57
0100
0000
0001
0000
,  // measure 58
1000
1000
1000
0000
,  // measure 59
0010
0000
0010
0000
,  // measure 60
1000
1000
1000
0000
,  // measure 61
0100
0000
0100
0000
,  // measure 62
0010
0010
0010
0000
,  // measure 63
0001
0000
0001
0000
,  // measure 64
0100
0100
0100
0000
,  // measure 65
0010
0000
0010
0000
,  // measure 66
2000
0000
3000
0000
,  // measure 67
0200
0000
0300
0000
,  // measure 68
0020
0000
0030
0000
,  // measure 69
0002
0000
0003
0000
,  // measure 70
2000
0000
3000
0000
,  // measure 71
0002
0000
0003
0000
,  // measure 72
0200
0000
0300
0000
,  // measure 73
0020
0000
0000
0030
,  // measure 74
0000
1001
0000
0000
;
