#VERSION:0.83;
#TITLE:Grand Galaxy Anthem;
#SUBTITLE:;
#ARTIST:Ryan Henwood;
#TITLETRANSLIT:;
#SUBTITLETRANSLIT:;
#ARTISTTRANSLIT:;
#GENRE:Lovers In A Dangerous Spacetime;
#ORIGIN:;
#CREDIT:;
#BANNER:Grand Galaxy Anthem-bn.png;
#BACKGROUND:Grand Galaxy Anthem-bg.png;
#PREVIEWVID:Grand Galaxy Anthem-preview.avi;
#JACKET:Grand Galaxy Anthem-jacket.png;
#CDIMAGE:;
#DISCIMAGE:;
#LYRICSPATH:;
#CDTITLE:;
#MUSIC:Grand Galaxy Anthem.mp3;
#OFFSET:-0.004000;
#SAMPLESTART:55.988499;
#SAMPLELENGTH:24.000000;
#SELECTABLE:YES;
#BPMS:0.000=120.000;
#STOPS:;
#DELAYS:;
#WARPS:;
#TIMESIGNATURES:0.000=4=4;
#TICKCOUNTS:0.000=2;
#COMBOS:0.000=1;
#SPEEDS:0.000=1.000=0.000=0;
#SCROLLS:0.000=1.000;
#FAKES:;
#LABELS:0.000=Song Start;
#LASTSECONDHINT:146.588501;
#BGCHANGES:0.000=Grand Galaxy Anthem-video.avi=1.000=1=0=0=StretchNoLoop==CrossFade==,
99999=-nosongbg-=1.000=0=0=0 // don't automatically add -songbackground-
;
#KEYSOUNDS:;
#ATTACKS:
;

//---------------dance-single - ----------------
#NOTEDATA:;
#CHARTNAME:;
#STEPSTYPE:dance-single;
#DESCRIPTION:;
#CHARTSTYLE:;
#DIFFICULTY:Challenge;
#METER:12;
#RADARVALUES:0.713967,0.813489,0.162090,0.060784,0.965786,740.000000,716.000000,24.000000,9.000000,0.000000,0.000000,2.000000,0.000000,0.000000,0.713967,0.813489,0.162090,0.060784,0.965786,740.000000,716.000000,24.000000,9.000000,0.000000,0.000000,2.000000,0.000000,0.000000;
#CREDIT:;
#NOTES:
0000
0000
0000
0000
,
0000
0000
0000
0000
,
0000
0000
0000
0000
,
0000
0000
0000
0000
,
0000
0000
0000
0000
0000
0000
1000
0000
0000
0000
0000
0000
0100
0000
0000
0010
0000
0000
0001
0000
0000
0000
0000
0000
1001
0000
0000
0000
0000
0000
0000
0000
0000
0000
0000
0000
0001
0000
0000
0000
0010
0000
0000
0000
1000
0000
0000
0000
,
0000
0000
0001
0000
0100
0010
1000
0000
1001
0000
0010
0000
0100
0000
0000
0001
,
0000
0000
0000
0000
0000
0000
0010
0000
0000
0000
0000
0000
0100
0000
0000
1000
0000
0000
0001
0000
0000
0000
0000
0000
1001
0000
0000
0000
0000
0000
0000
0000
0000
0000
0000
0000
0001
0000
0000
0000
0100
0000
0000
0000
1000
0000
0000
0000
,
0000
0000
0010
0000
0100
0001
0100
0000
1001
0000
0100
0000
0010
0000
0000
1000
,
0000
0000
0000
0000
0000
0000
0010
0000
0000
0000
0000
0000
1000
0000
0000
0100
0000
0000
0010
0000
0000
0000
0000
0000
0110
0000
0000
0000
0000
0000
0000
0000
0000
0000
0000
0000
0001
0000
0000
0000
0010
0000
0000
0000
1000
0000
0000
0000
,
0000
0000
0001
0000
0100
0010
1000
0000
1010
0000
0001
0000
0100
0000
0000
0010
,
0000
0000
0000
0000
0000
0000
1000
0000
0000
0000
0000
0000
0001
0000
0000
1000
0000
0000
0100
0000
0000
0000
0000
0000
0110
0000
0000
0000
0000
0000
0000
0000
0000
0000
0000
0000
0010
0000
0000
0000
0001
0000
0000
0000
0100
0000
0000
0000
,
0000
0000
0010
0000
1000
0010
0100
0000
0101
0000
0001
0000
1000
0000
0000
0100
,
0010
0000
0001
0000
0100
0000
0001
1000
0000
0001
0200
0000
0000
0000
0000
0000
,
0310
0000
1000
0000
0100
0000
1000
0001
0000
1000
0200
0000
0000
0000
0300
0000
,
0010
0000
0001
0000
0100
0000
0010
1000
0000
0001
0200
0000
0000
0000
0300
0000
,
0001
0000
0010
0000
0100
0000
1000
0001
0000
0010
0200
0000
0000
0000
0300
0000
,
1000
0000
0010
0000
0100
0000
0001
1000
0000
0010
0200
0000
0000
0000
0300
0000
,
0001
0000
1000
0000
0001
0000
0100
0001
0000
1000
0200
0000
0000
0000
0300
0000
,
0010
0000
0001
0000
1000
0000
0010
1000
0000
0100
0020
0000
0000
0000
0030
0000
,
0001
0000
1000
0000
0010
0000
0100
0001
0000
0010
0200
0000
0000
0000
0300
0000
,
1000
0100
0010
0100
1000
0100
0010
0001
1000
0100
0010
0100
0010
0001
0010
0100
,
1000
0100
0010
0100
1000
0100
0010
0001
1000
0100
0010
0100
1000
0100
0010
0001
,
0100
0001
0100
0010
0100
0001
1000
0010
0100
0001
0100
0001
1000
0010
0100
0001
,
1000
0010
1000
0010
0100
0001
1000
0010
0100
0001
0100
0010
1000
0010
0100
0001
,
1000
0100
1000
0001
0010
0001
0010
0100
1000
0001
1000
0001
0010
0100
1000
0001
,
0010
0100
0010
0100
0010
0001
1000
0100
0010
0001
1000
0100
1000
0100
0010
0001
,
0100
0010
0100
0010
1000
0010
0100
0001
1000
0010
1000
0010
0100
0001
0100
0010
,
1000
0010
0100
0010
0100
0001
0100
0010
1000
0010
0100
0001
0100
0010
0100
0010
,
1000
0100
0010
0100
1000
0100
0010
0001
1000
0100
0010
0100
0010
0001
0010
0100
,
1000
0100
0010
0100
1000
0100
0010
0001
1000
0100
0010
0100
1000
0100
0010
0001
,
0100
0001
0100
0010
0100
0001
1000
0010
0100
0001
0100
0001
1000
0010
0100
0001
,
1000
0010
1000
0010
0100
0001
1000
0010
0100
0001
0100
0010
1000
0010
0100
0001
,
1000
0100
1000
0001
0010
0001
0010
0100
1000
0001
1000
0001
0010
0100
1000
0001
,
0010
0100
0010
0100
0010
0001
1000
0100
0010
0001
1000
0100
1000
0100
0010
0001
,
0100
0010
0100
0010
1000
0010
0100
0001
1000
0010
1000
0010
0100
0001
0100
0010
,
1000
0010
0100
0010
0100
0001
0100
0010
1000
0010
0100
0001
0100
0010
0100
0010
,
1000
0000
0000
0000
0010
0000
0000
0100
0000
0000
0001
0000
0010
0000
1000
0000
,
0001
0000
0000
0100
0000
0000
0010
0000
0000
0000
4000
0000
0000
0000
0000
3100
,
0000
0000
0000
0000
1000
0000
0000
0001
0000
0000
0010
0000
1000
0000
0010
0000
,
0001
0000
0000
0000
0000
0000
0000
0000
0000
0100
0000
0000
0000
0000
0000
0000
0000
0000
0010
0000
0000
0000
0000
0000
1000
0000
0000
0000
0100
0000
0000
0000
0001
0000
0000
0000
0010
0000
0000
0000
1000
0000
0000
0000
0100
0000
0000
0000
,
0001
0000
0000
0000
0010
0000
0000
0100
0000
0000
1000
0000
0010
0000
0001
0000
,
0100
0000
0000
0010
0000
0000
1000
0000
0000
0000
0004
0000
0000
0000
0000
0103
,
0000
0000
0000
0000
0010
0000
0000
1000
0000
0000
0100
0000
0001
0000
0010
0000
,
1000
0000
0000
0000
0000
0000
0000
0000
0000
0100
0000
0000
0000
0000
0000
0000
0000
0000
0010
0000
0000
0000
0000
0000
0001
0000
0000
0000
0001
0000
0000
0000
0100
0000
0000
0000
1000
0000
0000
0000
0010
0000
0000
0000
0010
0000
0000
0000
,
0001
0000
1000
0000
0001
0000
0100
0000
1000
0000
0010
0001
0000
1000
0100
0000
,
0010
0100
0010
0000
1000
0000
0100
0000
0010
0000
0001
0100
0000
1000
0010
0000
,
1000
0100
0010
0000
0001
0000
1000
0000
0010
0000
1000
0001
0000
1000
0100
0000
,
0010
0100
0010
0000
0001
0000
1000
0000
0010
0000
0100
0001
0000
1000
0100
0000
,
0010
0100
0010
0000
0011
0000
1000
0000
1010
0000
0001
0000
0011
0000
1000
0000
,
1010
0001
0011
0100
1010
0100
0011
0100
,
1010
0001
0010
0001
1000
0100
1000
0010
,
1000
0100
0010
0001
1000
0100
0010
0001
0010
0100
1000
0010
0100
0001
0100
0010
,
1000
0100
0010
0100
1000
0100
0010
0001
1000
0100
0010
0100
0010
0001
0010
0100
,
1000
0100
0010
0100
1000
0100
0010
0001
1000
0100
0010
0100
1000
0100
0010
0001
,
0100
0001
0100
0010
0100
0001
1000
0010
0100
0001
0100
0001
1000
0010
0100
0001
,
1000
0010
1000
0010
0100
0001
1000
0010
0100
0001
0100
0010
1000
0010
0100
0001
,
1000
0100
1000
0001
0010
0001
0010
0100
1000
0001
1000
0001
0010
0100
1000
0001
,
0010
0100
0010
0100
0010
0001
1000
0100
0010
0001
1000
0100
1000
0100
0010
0001
,
0100
0010
0100
0010
1000
0010
0100
0001
1000
0010
1000
0010
0100
0001
0100
0010
,
1000
0010
0100
0010
0100
0001
0100
0010
1000
0010
0100
0001
0100
0010
0100
0010
,
1000
0000
0000
0000
0000
0000
1000
0000
0000
0000
0000
0000
0100
0000
0000
0010
0000
0000
0001
0000
0000
0000
0000
0000
1001
0000
0000
0000
0000
0000
0000
0000
0000
0000
0000
0000
0001
0000
0000
0000
0010
0000
0000
0000
1000
0000
0000
0000
,
0000
0000
0001
0000
0100
0010
1000
0000
1001
0000
0010
0000
0100
0000
0000
0001
,
0000
0000
0000
0000
0000
0000
0010
0000
0000
0000
0000
0000
0100
0000
0000
1000
0000
0000
0001
0000
0000
0000
0000
0000
1001
0000
0000
0000
0000
0000
0000
0000
0000
0000
0000
0000
0001
0000
0000
0000
0100
0000
0000
0000
1000
0000
0000
0000
,
0000
0000
0010
0000
0100
0001
0100
0000
1001
0000
0100
0000
0010
0000
0000
1000
,
0000
0000
0000
0000
0000
0000
0010
0000
0000
0000
0000
0000
1000
0000
0000
0100
0000
0000
0010
0000
0000
0000
0000
0000
0110
0000
0000
0000
0000
0000
0000
0000
0000
0000
0000
0000
0001
0000
0000
0000
0010
0000
0000
0000
1000
0000
0000
0000
,
0000
0000
0001
0000
0100
0010
1000
0000
1010
0000
0001
0000
0100
0000
0000
0010
,
0000
0000
0000
0000
0000
0000
1000
0000
0000
0000
0000
0000
0001
0000
0000
1000
0000
0000
0100
0000
0000
0000
0000
0000
0110
0000
0000
0000
0000
0000
0000
0000
0000
0000
0000
0000
0010
0000
0000
0000
0001
0000
0000
0000
0100
0000
0000
0000
,
0000
0000
0010
0000
1000
0010
0100
0000
0101
0000
0001
0000
1000
0000
0000
0100
,
0010
0001
1000
0100
,
0010
0001
0100
0010
,
0100
0001
1000
0100
,
0010
0001
1000
0010
,
0200
0000
0000
0000
,
0300
0000
0000
0000
;

//---------------dance-single - ----------------
#NOTEDATA:;
#CHARTNAME:;
#STEPSTYPE:dance-single;
#DESCRIPTION:;
#CHARTSTYLE:;
#DIFFICULTY:Hard;
#METER:8;
#RADARVALUES:0.505566,0.493023,0.108060,0.074291,0.276904,524.000000,508.000000,16.000000,11.000000,0.000000,0.000000,0.000000,0.000000,0.000000,0.505566,0.493023,0.108060,0.074291,0.276904,524.000000,508.000000,16.000000,11.000000,0.000000,0.000000,0.000000,0.000000,0.000000;
#CREDIT:;
#NOTES:
0000
0000
0000
0000
,
0000
0000
0000
0000
,
0000
0000
0000
0000
,
0000
0000
0000
0000
,
0000
0000
0000
0000
0000
0000
1000
0000
0000
0000
0000
0000
0100
0000
0000
0010
0000
0000
0100
0000
0000
0000
0000
0000
0110
0000
0000
0000
0000
0000
0000
0000
0000
0000
0000
0000
0001
0000
0000
0000
0010
0000
0000
0000
0100
0000
0000
0000
,
0000
0000
0001
0000
0100
0010
0100
0000
0110
0000
0010
0000
1000
0000
0000
0001
,
0000
0000
0000
0000
0000
0000
0010
0000
0000
0000
0000
0000
0100
0000
0000
1000
0000
0000
0100
0000
0000
0000
0000
0000
1100
0000
0000
0000
0000
0000
0000
0000
0000
0000
0000
0000
0001
0000
0000
0000
0100
0000
0000
0000
0010
0000
0000
0000
,
0000
0000
1000
0000
0001
0100
0001
0000
0101
0000
0100
0000
0010
0000
0000
1000
,
0000
0000
0000
0000
0000
0000
0010
0000
0000
0000
0000
0000
1000
0000
0000
0100
0000
0000
0010
0000
0000
0000
0000
0000
0110
0000
0000
0000
0000
0000
0000
0000
0000
0000
0000
0000
0001
0000
0000
0000
0010
0000
0000
0000
0100
0000
0000
0000
,
0000
0000
0010
0000
0001
0010
0001
0000
0011
0000
0001
0000
1000
0000
0000
0010
,
0000
0000
0000
0000
0000
0000
1000
0000
0000
0000
0000
0000
0001
0000
0000
1000
0000
0000
0001
0000
0000
0000
0000
0000
1001
0000
0000
0000
0000
0000
0000
0000
0000
0000
0000
0000
0001
0000
0000
0000
0100
0000
0000
0000
0001
0000
0000
0000
,
0000
0000
0010
0000
0100
1000
0100
0000
0110
0000
0010
0000
0001
0000
0000
0100
,
0010
0000
1000
0000
0010
0000
0100
0001
0000
0001
0200
0000
0000
0000
0000
0000
,
0310
0000
1000
0000
0100
0000
1000
0100
0000
1000
0200
0000
0000
0000
0300
0000
,
0010
0000
0001
0000
0100
0000
0010
0100
0000
0001
0200
0000
0000
0000
0300
0000
,
0001
0000
0010
0000
0100
0000
1000
0001
0000
1000
0200
0000
0000
0000
0300
0000
,
1000
0000
0010
0000
0100
0000
0001
1000
0000
0010
0200
0000
0000
0000
0300
0000
,
0001
0000
1000
0000
0001
0000
0100
0001
0000
1000
0200
0000
0000
0000
0300
0000
,
0010
0000
0001
0000
1000
0000
0010
1000
0000
0100
0020
0000
0000
0000
0030
0000
,
0001
0000
1000
0000
0010
0000
0100
0001
0000
0010
0200
0000
0000
0000
0300
0000
,
1000
0100
0010
0001
1000
0001
1000
0100
,
0010
0001
0010
0001
1000
0100
0010
0001
,
1000
0010
0100
0001
1000
0010
1000
0010
,
0100
0001
0100
0001
1000
0010
0100
0001
,
1000
0100
0010
0001
1000
0001
0010
0100
,
1000
0100
0010
0001
1000
0001
0010
0001
,
0100
0001
1000
0010
0100
0001
0100
0001
,
1000
0010
0100
0010
1000
0010
0100
0001
,
1000
0100
0010
0001
1000
0100
1000
0001
,
0010
0100
1000
0001
0010
0001
1000
0100
,
0010
0001
0100
0010
1000
0010
0100
0001
,
1000
0010
0100
0001
1000
0010
0100
0001
,
0010
0100
1000
0001
1000
0100
0010
0001
,
0010
0100
1000
0100
0010
0001
1000
0100
,
0010
0001
0100
0010
0100
0001
0100
0010
,
1000
0010
0100
0001
0100
0010
1000
0010
,
0100
0000
0000
0000
0001
0000
0000
0100
0000
0000
0001
0000
0010
0000
0100
0000
,
1000
0000
0000
0100
0000
0000
0010
0000
0000
0000
0002
0000
0000
0000
0000
0100
,
0003
0000
0000
0000
1000
0000
0000
0001
0000
0000
0010
0000
0100
0000
0010
0000
,
0001
0000
0000
0000
0000
0000
0000
0000
0000
0100
0000
0000
0000
0000
0000
0000
0000
0000
0010
0000
0000
0000
0000
0000
1000
0000
0000
0000
0100
0000
0000
0000
1000
0000
0000
0000
0010
0000
0000
0000
1000
0000
0000
0000
0001
0000
0000
0000
,
1000
0000
0000
0000
0010
0000
0000
0100
0000
0000
0001
0000
0010
0000
0001
0000
,
0100
0000
0000
0010
0000
0000
1000
0000
0000
0000
0002
0000
0000
0000
0000
0103
,
0000
0000
0000
0000
0010
0000
0000
1000
0000
0000
0100
0000
0010
0000
0001
0000
,
1000
0000
0000
0000
0000
0000
0000
0000
0000
0100
0000
0000
0000
0000
0000
0000
0000
0000
0010
0000
0000
0000
0000
0000
0001
0000
0000
0000
0010
0000
0000
0000
0001
0000
0000
0000
0100
0000
0000
0000
0001
0000
0000
0000
1000
0000
0000
0000
,
0001
0000
1000
0000
0001
0000
0000
0000
1000
0000
0010
1000
0000
0010
1000
0000
,
0001
0000
0100
0000
0001
0000
0000
0000
0010
0000
0001
0100
0000
0010
1000
0000
,
0001
0000
1000
0000
0001
0000
0000
0000
0010
0000
0001
1000
0000
0001
1000
0000
,
0010
0000
0100
0000
0001
0000
0000
0000
0010
0000
0100
1000
0000
0001
1000
0000
,
0010
0100
0010
1000
0010
0100
0010
0001
,
0010
0100
0010
1000
0010
0100
0010
0001
,
0010
0100
0010
1000
0100
1000
0010
1000
,
0001
0100
1000
0100
0001
0010
1000
0010
,
0001
0100
0010
1000
0001
1000
0010
0100
,
0001
0100
0010
1000
0001
1000
0010
0100
,
0001
0010
0100
1000
0100
0010
0001
0010
,
0100
1000
0100
1000
0001
0010
0100
1000
,
0010
1000
0010
0100
0001
0100
0001
1000
,
0010
0100
0001
0100
0010
1000
0010
0100
,
0001
0010
0100
1000
0010
1000
0100
0010
,
0001
0100
0001
0010
0100
1000
0010
1000
,
0100
0000
0000
0000
0000
0000
1000
0000
0000
0000
0000
0000
0100
0000
0000
0010
0000
0000
0100
0000
0000
0000
0000
0000
0110
0000
0000
0000
0000
0000
0000
0000
0000
0000
0000
0000
0001
0000
0000
0000
0010
0000
0000
0000
0100
0000
0000
0000
,
0000
0000
0001
0000
0100
0010
0100
0000
0110
0000
0010
0000
1000
0000
0000
0001
,
0000
0000
0000
0000
0000
0000
0010
0000
0000
0000
0000
0000
0100
0000
0000
1000
0000
0000
0100
0000
0000
0000
0000
0000
1100
0000
0000
0000
0000
0000
0000
0000
0000
0000
0000
0000
0001
0000
0000
0000
0100
0000
0000
0000
0010
0000
0000
0000
,
0000
0000
1000
0000
0001
0100
0001
0000
0101
0000
0100
0000
0010
0000
0000
1000
,
0000
0000
0000
0000
0000
0000
0010
0000
0000
0000
0000
0000
1000
0000
0000
0100
0000
0000
0010
0000
0000
0000
0000
0000
0110
0000
0000
0000
0000
0000
0000
0000
0000
0000
0000
0000
0001
0000
0000
0000
0010
0000
0000
0000
0100
0000
0000
0000
,
0000
0000
0010
0000
0001
0010
0001
0000
0011
0000
0001
0000
1000
0000
0000
0010
,
0000
0000
0000
0000
0000
0000
1000
0000
0000
0000
0000
0000
0001
0000
0000
1000
0000
0000
0001
0000
0000
0000
0000
0000
1001
0000
0000
0000
0000
0000
0000
0000
0000
0000
0000
0000
0001
0000
0000
0000
0100
0000
0000
0000
0001
0000
0000
0000
,
0000
0000
0010
0000
0100
1000
0100
0000
0110
0000
0010
0000
0001
0000
0000
0100
,
0010
0001
1000
0100
,
0010
0001
0100
0010
,
0100
0001
1000
0100
,
0010
0001
1000
0010
,
0200
0000
0000
0000
,
0300
0000
0000
0000
;

//---------------dance-single - ----------------
#NOTEDATA:;
#CHARTNAME:;
#STEPSTYPE:dance-single;
#DESCRIPTION:;
#CHARTSTYLE:;
#DIFFICULTY:Medium;
#METER:6;
#RADARVALUES:0.316461,0.345116,0.047276,0.108060,0.020261,328.000000,321.000000,7.000000,16.000000,0.000000,0.000000,0.000000,0.000000,0.000000,0.316461,0.345116,0.047276,0.108060,0.020261,328.000000,321.000000,7.000000,16.000000,0.000000,0.000000,0.000000,0.000000,0.000000;
#CREDIT:;
#NOTES:
0000
0000
0000
0000
,
0000
0000
0000
0000
,
0000
0000
0000
0000
,
0000
0000
0000
0000
,
0000
1000
0100
0000
0010
0000
0001
0001
,
0000
0000
0100
0000
0100
0000
0000
0000
0010
0000
0000
0000
1000
0000
0000
0001
,
0000
0010
0100
0000
0010
0000
0001
0001
,
0000
0000
1000
0000
0010
0000
0000
0000
0100
0000
0000
0000
0001
0000
0000
0010
,
0000
0100
0100
0000
1000
0000
0001
0001
,
0000
0000
1000
0000
0010
0000
0000
0000
0100
0000
0000
0000
0001
0000
0000
0010
,
0000
0100
1000
0000
0001
0000
0010
0010
,
0000
0100
0100
0000
1000
0000
0001
0000
,
2002
0000
0000
3003
,
0000
0000
0000
0020
0000
2030
0000
3200
,
0000
0000
0000
2300
0000
3002
0000
2003
,
0000
0000
0000
0000
0000
3020
0000
0230
,
0000
0000
0000
0000
,
0000
0000
0000
0302
0000
0023
0000
0230
,
0000
0000
0000
0000
,
0000
0000
0000
0000
,
1300
0001
1000
0001
1000
0000
0000
0010
,
1000
0000
0001
0100
0001
0000
0010
0000
,
0100
0010
0100
0010
0100
0000
0000
1000
,
0001
0000
0010
0100
0010
0000
0001
0000
,
1000
0010
0100
0001
0010
0000
0000
0100
,
1000
0000
0001
0010
0100
0000
0010
0000
,
0001
1000
0001
0100
0001
0000
0000
1000
,
0010
0000
0100
0001
0010
0000
0100
0000
,
0010
0100
0010
0100
1000
0000
0000
0001
,
0010
0000
0100
1000
0001
0000
0100
0000
,
0010
1000
0100
0010
0001
0000
0000
1000
,
0010
0000
0100
0001
0100
0000
0010
0000
,
1000
0100
0010
0001
1000
0000
0000
0001
,
0010
0000
0100
1000
0100
0000
0010
0000
,
0001
1000
0001
0100
0010
0000
0000
1000
,
0010
0000
1000
0100
0010
0000
0001
0000
,
1001
0000
0010
0000
1000
0100
0010
0100
,
0001
0010
0100
1000
,
0001
0000
0010
0000
0100
1000
0100
0010
,
0001
0000
1000
0000
0010
1000
0100
0000
,
0010
0000
0100
0000
0010
0001
1000
0100
,
0010
0000
0100
0000
0010
0001
0100
0000
,
0010
0000
0100
0000
0010
1000
0001
0100
,
0010
0000
0100
0000
0010
1000
0100
0000
,
0220
0000
0000
0330
1000
0000
0100
0000
,
0010
0001
0100
0000
0100
0000
0010
0000
,
1000
0001
1000
0000
0100
0000
0010
0000
,
0001
1000
0001
0000
0010
0000
0100
0000
,
1000
1100
0001
0101
,
0010
0110
1000
1001
,
0010
1000
0010
0000
0100
0001
0100
0000
,
0010
1000
0100
0010
,
0001
1000
0001
0100
0001
0000
0000
1000
,
0100
0000
0010
0100
1000
0000
0010
0000
,
0100
0010
1000
0100
0010
0000
0000
0001
,
1000
0000
0001
0100
0010
0000
1000
0000
,
0100
0010
0001
1000
0010
0000
0100
0010
,
1000
0000
0010
0100
0001
0000
1000
0000
,
0001
0010
0100
1000
0010
0000
1000
0100
,
0010
0000
0100
0010
0001
0000
1000
0000
,
0001
1000
0100
0000
0010
0000
0001
0001
,
0000
0000
0100
0000
0100
0000
0000
0000
0010
0000
0000
0000
1000
0000
0000
0001
,
0000
0010
0100
0000
0010
0000
0001
0001
,
0000
0000
1000
0000
0010
0000
0000
0000
0100
0000
0000
0000
0001
0000
0000
0010
,
0000
0100
0100
0000
1000
0000
0001
0001
,
0000
0000
1000
0000
0010
0000
0000
0000
0100
0000
0000
0000
0001
0000
0000
0010
,
0000
0100
1000
0000
0001
0000
0010
0010
,
0000
0100
0100
0000
1000
0000
0001
0000
,
0100
0010
1000
0100
,
0010
0001
0100
0010
,
1000
0100
0010
0001
,
0100
0010
1000
0100
,
0020
0000
0000
0000
,
0030
0000
0000
0000
;

//---------------dance-single - ----------------
#NOTEDATA:;
#CHARTNAME:;
#STEPSTYPE:dance-single;
#DESCRIPTION:;
#CHARTSTYLE:;
#DIFFICULTY:Easy;
#METER:4;
#RADARVALUES:0.193929,0.243135,0.006754,0.060784,0.000000,201.000000,200.000000,1.000000,9.000000,0.000000,0.000000,0.000000,0.000000,0.000000,0.193929,0.243135,0.006754,0.060784,0.000000,201.000000,200.000000,1.000000,9.000000,0.000000,0.000000,0.000000,0.000000,0.000000;
#CREDIT:;
#NOTES:
0000
0000
0000
0000
,
0000
0000
0000
0000
,
0000
0000
0000
0000
,
0000
0000
0000
0000
,
1000
0100
0001
0010
,
0010
1000
0100
0001
,
0010
1000
0100
0001
,
0001
0010
1000
0100
,
0001
0010
1000
0100
,
0100
0001
0010
1000
,
0100
0001
0010
1000
,
1000
0100
0001
0010
,
2002
0000
0000
0000
,
3003
0000
0010
1000
,
0200
0300
0010
0001
,
0020
0000
0000
0030
,
0200
0000
0000
0000
,
0300
0000
1000
0001
,
0200
0300
0020
0030
,
1000
0100
0010
0001
,
2000
3000
0002
0003
,
1000
0100
0010
0000
,
0001
1000
0010
0000
,
0100
0000
0010
1000
,
0100
0010
0001
0000
,
1000
0000
0010
1000
,
0100
0010
0001
0000
,
1000
0000
0001
0100
,
0010
1000
0100
0000
,
0010
0000
0001
1000
,
0001
0100
0010
0000
,
1000
0100
0010
0100
,
0010
0001
1000
0000
,
0010
1000
0100
0000
,
0010
0100
0010
0000
,
0001
0000
1000
0010
,
1000
0000
0100
0010
,
0001
0010
0001
0000
,
0100
0000
0001
0100
,
0010
1000
0010
0000
,
1000
0000
0100
0010
,
0001
1000
0001
0000
,
0010
0000
0100
1000
,
0100
0010
0001
0000
,
1000
0000
0010
1000
,
0100
0000
0010
0100
,
0010
0000
0001
1000
,
0001
0000
0100
0010
,
0100
0000
0010
0000
,
1000
0000
0100
0000
,
0010
0000
0001
0000
,
1000
0100
0010
0001
,
1000
0000
0001
0000
,
0100
0010
1000
0000
,
0100
0010
0001
0000
,
1000
0001
0100
0000
,
0010
1000
0100
0000
,
0010
0001
0010
0000
,
0100
1000
0001
0000
,
1000
0010
0100
0000
,
0001
1000
0100
0000
,
0010
0010
0001
1000
,
0001
0010
0100
0000
,
1000
0010
1000
0100
,
0010
0001
1000
0000
,
0001
0010
0100
0000
,
1000
0100
0010
0000
,
0001
1000
0010
0000
,
0100
0000
0100
0000
,
0010
0000
1000
0000
,
0100
0000
0010
0000
,
0001
0000
1000
0000
,
0100
0000
0000
0000
;

//---------------dance-single - ----------------
#NOTEDATA:;
#CHARTNAME:;
#STEPSTYPE:dance-single;
#DESCRIPTION:;
#CHARTSTYLE:;
#DIFFICULTY:Beginner;
#METER:1;
#RADARVALUES:0.131216,0.170194,0.013507,0.087799,0.000000,136.000000,134.000000,2.000000,13.000000,0.000000,0.000000,0.000000,0.000000,0.000000,0.131216,0.170194,0.013507,0.087799,0.000000,136.000000,134.000000,2.000000,13.000000,0.000000,0.000000,0.000000,0.000000,0.000000;
#CREDIT:;
#NOTES:
// measure 0
0000
0000
0000
0000
,  // measure 1
0000
0000
0000
0000
,  // measure 2
0000
0000
0000
0000
,  // measure 3
0000
0000
0000
0000
,  // measure 4
1000
0000
0001
0000
,  // measure 5
0010
0000
0100
0000
,  // measure 6
0010
0000
0100
0000
,  // measure 7
0001
0000
1000
0000
,  // measure 8
0001
0000
1000
0000
,  // measure 9
0100
0000
0010
0000
,  // measure 10
0100
0000
0010
0000
,  // measure 11
1000
0000
0001
0000
,  // measure 12
2002
0000
0000
0000
,  // measure 13
3003
0000
0010
0000
,  // measure 14
0200
0300
0010
0000
,  // measure 15
0200
0000
0000
0300
,  // measure 16
0020
0000
0000
0000
,  // measure 17
0030
0000
1000
0000
,  // measure 18
0200
0300
0020
0030
,  // measure 19
0001
0000
0010
0000
,  // measure 20
2000
3000
0002
0003
,  // measure 21
1000
0000
0010
0000
,  // measure 22
0001
0000
0010
0000
,  // measure 23
0100
0000
0010
0000
,  // measure 24
0100
0000
0001
0000
,  // measure 25
1000
0000
0010
0000
,  // measure 26
0100
0000
0001
0000
,  // measure 27
1000
0000
0001
0000
,  // measure 28
0010
0000
0100
0000
,  // measure 29
0010
0000
0001
0000
,  // measure 30
1000
0000
0010
0000
,  // measure 31
0100
0000
0001
0000
,  // measure 32
0010
0000
0100
0000
,  // measure 33
1000
0000
0001
0000
,  // measure 34
0100
0000
0010
0000
,  // measure 35
1000
0000
0001
0000
,  // measure 36
0010
0000
0100
0000
,  // measure 37
1000
0000
0100
0000
,  // measure 38
0010
0000
0001
0000
,  // measure 39
0100
0000
0010
0000
,  // measure 40
1000
0000
0100
0000
,  // measure 41
0010
0000
0001
0000
,  // measure 42
1000
0000
0010
0000
,  // measure 43
0100
0000
0001
0000
,  // measure 44
1000
0000
0010
0000
,  // measure 45
0100
0000
0001
0000
,  // measure 46
0010
0000
0100
0000
,  // measure 47
1000
0000
0010
0000
,  // measure 48
0100
0100
0100
0000
,  // measure 49
0010
0010
0010
0000
,  // measure 50
1000
0000
0001
0000
,  // measure 51
1000
0000
0010
0000
,  // measure 52
1001
0000
0002
0003
,  // measure 53
0100
0000
2000
3000
,  // measure 54
0100
0000
0002
0003
,  // measure 55
1000
0000
0200
0300
,  // measure 56
0010
0000
0100
0000
,  // measure 57
0010
0000
0100
0000
,  // measure 58
1000
0000
0010
0000
,  // measure 59
0100
0000
0001
0000
,  // measure 60
0010
0000
0100
0000
,  // measure 61
1000
0000
0001
0000
,  // measure 62
0100
0000
0010
0000
,  // measure 63
1000
0000
0100
0000
,  // measure 64
0010
0000
0001
0000
,  // measure 65
1000
0000
0100
0000
,  // measure 66
1000
0000
0010
0000
,  // measure 67
0001
0000
0010
0000
,  // measure 68
0100
0000
0100
0000
,  // measure 69
0010
0000
0010
0000
,  // measure 70
0001
0000
0001
0000
,  // measure 71
1000
0000
1000
0000
,  // measure 72
0100
0000
0000
0000
;
