#TITLE:Gourmet Race;
#SUBTITLE:(Electronic Remix);
#ARTIST:Jun Ishikawa;
#TITLETRANSLIT:;
#SUBTITLETRANSLIT:;
#ARTISTTRANSLIT:;
#GENRE:Kirby;
#CREDIT:;
#BANNER:Gourmet Race-bn.png;
#BACKGROUND:Gourmet Race-bg.png;
#LYRICSPATH:;
#CDTITLE:;
#MUSIC:Gourmet Race (Electronic Remix).mp3;
#OFFSET:-0.022006;
#SAMPLESTART:119.181664;
#SAMPLELENGTH:10.216209;
#LASTBEATHINT:350.898499;
#SELECTABLE:YES;
#DISPLAYBPM:92.000000:185.000000;
#BPMS:0.000000=185.000000
,129.000000=370.000000
,130.000000=740.000000
,132.000000=370.000000
,134.000000=185.000000
,197.500000=92.500000
,198.000000=185.000000
,206.000000=92.500000
,221.000000=185.000000
,311.000000=370.000000
,312.000000=740.000000
,314.000000=370.000000
,316.000000=185.000000
,381.000000=370.000000
,387.000000=185.000000
;
#STOPS:129.000000=0.081000,
129.500000=0.081000,
130.000000=0.122000,
130.500000=0.122000,
131.000000=0.122000,
131.500000=0.122000,
132.000000=0.649000,
165.000000=0.162000,
221.000000=0.324000,
311.000000=0.081000,
311.500000=0.081000,
312.000000=0.122000,
312.500000=0.122000,
313.000000=0.122000,
313.500000=0.122000,
314.000000=0.649000,
381.000000=0.081000,
381.500000=0.081000,
382.000000=0.081000,
382.500000=0.081000,
383.000000=0.081000,
383.500000=0.081000,
384.000000=0.081000,
384.500000=0.081000,
385.000000=0.081000,
385.500000=0.081000,
386.000000=0.081000,
386.500000=0.081000
;
#BGCHANGES:;
#KEYSOUNDS:;
#ATTACKS:;

//---------------dance-single - ----------------
#NOTES:
     dance-single:
     :
     Challenge:
     11:
     0.979023,1.340580,0.419429,0.284612,0.898775,915.000000,859.000000,56.000000,38.000000,0.000000,6.000000,0.979023,1.340580,0.419429,0.284612,0.898775,915.000000,859.000000,56.000000,38.000000,0.000000,6.000000:
1001
0000
0010
0001
1000
0001
0100
0000
,
0100
0001
1000
0010
0100
0000
0000
0000
,
0010
1010
0010
0011
,
0200
2300
3001
0101
,
2000
3000
0020
0000
0230
0300
0002
0003
,
0020
0000
0030
0000
2000
0000
3000
0000
0020
0000
0030
0000
0001
0010
0001
0100
,
0010
0110
1000
0101
,
0200
0000
0302
0000
1003
0000
1001
0001
,
0010
0011
1000
1010
,
0200
0000
0300
0000
0002
0000
0003
0000
1000
0100
0010
0001
1000
0001
0010
0001
,
0100
0001
0000
0000
0011
0000
0000
0000
1000
0100
0000
0000
1010
0000
0000
0000
,
0100
0001
0000
0000
0001
1000
0000
0000
1000
0100
0000
0000
1100
0000
0000
0000
,
0001
0010
0000
0000
0010
0100
0000
0000
0100
1000
0000
0000
1000
0010
0000
0000
,
0010
0001
0000
0000
0001
0010
0000
0000
0010
1000
0000
0000
0001
0100
0001
0100
,
0010
1000
0000
0000
0110
0000
0000
0000
0001
1000
0000
0000
1100
0000
0000
0000
,
0100
1000
0000
0000
1000
0001
0000
0000
0001
0100
0000
0000
1001
0000
0000
0000
,
0010
0000
0000
0000
0010
1000
0000
0000
0001
0000
0000
0000
0001
0010
0000
0000
,
0100
0100
0100
0200
0000
0000
0000
0300
,
1000
0100
1000
0100
1000
0100
1000
0100
1000
0001
1000
0001
0100
0001
0100
0001
,
0010
0001
0010
0000
0001
1000
0001
0000
0100
0001
0100
0000
0001
1000
0001
0000
,
1000
0100
1000
0100
1000
0100
1000
0100
0001
0100
0001
0100
1000
0100
1000
0100
,
0010
0100
0010
0000
0010
1000
0010
0000
0010
0001
0010
0001
0010
0001
0010
0001
,
0010
0000
0101
0001
1000
0000
0101
0001
,
0020
0000
0101
0030
0020
0000
0101
0030
,
0010
0000
0010
0001
0100
0000
0001
0010
,
1000
0011
0010
1100
,
0001
0100
0001
0100
0001
0100
0001
0100
0001
1000
0001
1000
0100
1000
0100
1000
,
0010
1000
0010
0000
1000
0001
1000
0000
0100
1000
0100
0000
1000
0001
1000
0000
,
0001
0100
0001
0100
0001
0100
0001
0100
1000
0100
1000
0100
0001
0100
0001
0100
,
0010
0100
0010
0000
0010
1000
0010
0000
0001
1000
0001
1000
0001
1000
0001
1000
,
0001
0000
1010
1000
0100
0000
0101
0001
,
0010
0000
1100
0000
2000
0000
0101
3000
,
0001
0000
0001
0010
1000
0100
0001
0010
,
1000
0000
0000
0000
0000
0000
0000
0000
0100
0000
0000
0000
1001
0000
0001
0100
,
0001
0000
1000
0000
0010
0000
0110
0000
1000
0000
0001
0000
1001
0000
1000
0100
,
1000
0000
0010
0000
0200
0000
0001
0000
0001
0000
0301
0100
0001
0000
0100
0001
,
0100
0000
0001
0000
0010
0000
0010
0001
0010
0000
1000
0100
1000
0000
1000
0100
,
1000
0000
0001
0000
0020
0000
0100
0000
0130
0000
1000
0001
0100
0000
0001
0100
,
0001
0000
1000
0000
0010
0000
1000
0010
1000
0000
0001
0000
0020
0000
0000
0031
,
0100
0000
0010
0000
0001
0000
0000
0000
0100
0000
0100
0000
1000
0000
1000
0010
,
1000
0000
1000
0000
0010
0000
0010
0001
0010
0000
0010
0000
0001
0000
0001
0000
,
0100
0000
0100
0000
1000
0000
1000
0010
1000
0010
0100
0000
0001
0100
0001
0000
,
1000
0000
0010
0000
1000
0010
1000
0000
0100
0000
0001
0000
0100
0010
0100
0000
,
0010
0000
0001
0000
0100
0000
1000
0000
0100
0010
0100
0000
0001
1000
0001
0000
,
0010
0000
0100
0000
1000
0100
1000
0000
0010
0100
0001
0000
0010
1000
0010
0000
,
0100
0000
0001
0000
0010
0000
1000
0000
0010
0100
0010
0000
0100
0001
1000
0000
,
0001
0000
0010
0000
0100
1000
0100
0000
0010
0000
0001
0000
1000
0010
0100
0000
,
0001
0000
1000
0000
0100
0010
0001
0000
1000
0000
0200
0000
1000
0000
0310
0000
,
0200
1000
0310
0200
1300
0100
1000
0001
,
0010
0100
0000
1100
0011
0000
0010
0001
,
1000
0001
0100
0000
0100
0001
1000
0010
,
0100
0000
0000
0000
1001
0000
0000
0000
0012
1000
1000
1003
0012
0100
0100
0103
,
0001
0100
1000
0100
0001
0100
0001
0100
1000
0100
0001
0100
0010
0100
1000
0100
,
0001
0000
0100
0000
0010
0000
0100
0000
0002
0000
1000
0000
1003
0001
1000
0001
2000
0000
0100
0000
0100
0000
3100
0000
0020
0000
0100
0000
0100
0000
0130
0000
,
0010
0001
0100
0001
0010
0100
1000
0001
0100
0100
0001
0001
0010
0010
1000
1000
,
0001
0001
1000
1000
0001
0000
0000
0000
0100
0010
0000
0000
1100
0000
0000
0000
,
1000
0001
0000
0000
1010
0000
0000
0000
0100
0001
0000
0000
0010
0100
0000
0000
,
1000
0010
0000
0000
0101
0000
0000
0000
0001
0010
0000
0000
1000
0010
0000
0000
,
0100
0001
0000
0000
1000
0100
0000
0000
0001
0010
0000
0000
0010
0100
0000
0000
,
1000
0100
0000
0000
0010
0001
0100
0010
1000
0100
0000
0000
0101
0000
0000
0000
,
0001
0010
0000
0000
1010
0000
0000
0000
1000
0010
0000
0000
0010
0001
0000
0000
,
0001
1000
0000
0000
1001
0000
0000
0000
0010
1000
0000
0000
1010
0000
0000
0000
,
0001
0010
0000
0000
0011
0000
0000
0000
0100
0000
0100
0000
0100
0000
0200
0000
,
0000
0000
0000
0000
0000
0000
0300
0000
0100
1000
0100
1000
0100
1000
0100
1000
,
0001
1000
0001
1000
0001
0100
0001
0100
0010
0100
0010
0000
0100
0001
0100
0000
,
0001
1000
0001
0000
0010
0001
0010
0000
0100
1000
0100
1000
0100
1000
0100
1000
,
0001
1000
0001
1000
0001
0100
0001
0100
0010
0100
0010
0000
0010
1000
0010
0000
,
1000
0001
1000
0001
1000
0001
1000
0001
1000
0000
0000
0000
0101
0000
0001
0000
,
1000
0000
0101
0001
0020
0000
1100
0030
,
0020
0000
1100
0030
0010
0000
0001
1000
,
0100
0000
0001
0010
0100
0000
1100
0000
,
0010
0000
0000
0000
0101
0000
0000
0000
0001
0100
0001
0100
0001
0100
0001
0100
,
0001
1000
0001
1000
0100
1000
0100
1000
0010
1000
0010
0000
1000
0001
1000
0000
,
0100
1000
0100
0000
1000
0001
1000
0000
0001
0100
0001
0100
0001
0100
0001
0100
,
1000
0100
1000
0100
0001
0100
0001
0100
0010
0100
0010
0000
0010
1000
0010
0000
,
0001
1000
0001
1000
0001
1000
0001
1000
0001
0000
0000
0000
1010
0000
1000
0000
,
0100
0000
0101
0001
0010
0000
1100
0000
,
0200
0000
0011
0300
0100
0000
0100
0001
,
1000
0010
0001
1000
0100
0000
0000
0000
,
0001
0000
0000
0000
1001
0000
0001
0100
0001
0000
1000
0000
0010
0000
0110
0000
,
1000
0000
0001
0000
1001
0000
1000
0100
1000
0000
0010
0000
0200
0000
0010
0000
,
0010
0000
0310
0100
0001
0000
0100
0001
0100
0000
0001
0000
0010
0000
0010
0001
,
0010
0000
0100
1000
0100
0000
1000
0100
1000
0000
0001
0000
0020
0000
0100
0000
,
0130
0000
1000
0001
0100
0000
0001
0100
0001
0000
1000
0000
0010
0000
1000
0010
,
1000
0000
0001
0000
0020
0000
0000
0031
1000
0000
0010
0000
0100
0000
0000
0000
,
0001
0000
0001
0000
1000
0000
1000
0010
1000
0000
0010
0000
0100
0000
0100
0001
,
0100
0001
0010
0010
0100
0100
1000
0000
,
0010
1000
0010
1000
0001
0000
0001
0100
0001
0000
1000
0000
0010
0000
1000
0010
,
1000
0000
0100
0000
0001
0000
0100
0010
0100
0000
0010
0000
0001
0000
0100
0000
,
1000
0000
0100
0010
0100
0000
0001
1000
0001
0000
0010
0000
0100
0000
1000
0100
,
1000
0000
0010
0100
0001
0000
0010
1000
0010
0000
0100
0000
0001
0000
0010
0000
,
1000
0000
0010
0100
0010
0000
0100
0001
1000
0000
0001
0000
0010
0000
0100
1000
,
0100
0000
0010
0000
0001
0000
1000
0010
0100
0000
0001
0000
1000
0000
0100
0010
,
0001
1000
0002
1000
0013
0002
1000
0013
,
0002
1003
0001
0100
1000
0010
0100
0000
,
0101
0000
1010
0000
0010
1000
0001
1000
,
0100
0000
0100
1000
0001
0010
0100
0000
;

//---------------dance-single - ----------------
#NOTES:
     dance-single:
     :
     Hard:
     9:
     0.664452,0.652174,0.449388,0.172265,0.348275,621.000000,561.000000,60.000000,23.000000,0.000000,0.000000,0.664452,0.652174,0.449388,0.172265,0.348275,621.000000,561.000000,60.000000,23.000000,0.000000,0.000000:
// measure 0
0000
0000
0000
0000
,  // measure 1
0000
0000
0000
0000
,  // measure 2
0010
1010
0010
1001
,  // measure 3
0020
2030
3002
0103
,  // measure 4
2000
3000
0020
0000
0230
0300
0002
0003
,  // measure 5
0020
0030
0200
0300
0020
0030
0001
1000
,  // measure 6
0010
0110
1000
1001
,  // measure 7
0200
0000
0302
0000
1003
0000
0001
1000
,  // measure 8
0010
1010
0001
1001
,  // measure 9
0200
0300
0002
0003
2000
3000
0001
1000
,  // measure 10
0001
0011
1000
1010
,  // measure 11
0200
0302
1003
1100
,  // measure 12
0001
0010
0000
0000
0010
0100
0000
0000
0100
1000
0000
0000
1000
0010
0000
0000
,  // measure 13
0010
0100
0000
0000
0100
0001
0000
0000
0001
1000
0000
0000
0001
0000
0100
0000
,  // measure 14
0010
0110
0001
1001
,  // measure 15
0100
1000
0000
0000
1000
0001
0000
0000
0001
0100
0000
0000
0100
0001
0000
0000
,  // measure 16
0001
0010
0000
0000
0010
0100
0000
0000
0100
1000
0000
0000
1000
0001
0000
0000
,  // measure 17
0010
0100
0010
0200
0000
0000
0000
0300
,  // measure 18
1000
1100
0100
1001
,  // measure 19
0010
0001
1000
0000
0010
1000
0001
0000
,  // measure 20
0100
0101
0010
1001
,  // measure 21
0010
1000
0100
0010
0001
0000
0000
0000
,  // measure 22
0010
0000
0100
1000
0001
0000
0100
0001
,  // measure 23
0010
1100
0010
1001
,  // measure 24
0010
0000
0010
0001
0100
0000
0001
0010
,  // measure 25
0100
1001
0010
1100
,  // measure 26
0001
1000
1001
0010
,  // measure 27
1010
0010
1001
0010
,  // measure 28
0001
0100
0010
0000
1000
0100
0010
0000
,  // measure 29
0001
1000
0010
0100
0001
0000
0000
0000
,  // measure 30
0010
0000
0100
1000
0010
0000
1000
0001
,  // measure 31
0010
1100
1000
0101
,  // measure 32
0001
0000
0001
0010
0100
1000
0100
0010
,  // measure 33
0001
0000
0000
0000
0000
0000
0000
0000
0100
0000
0000
0000
1001
0000
0000
0001
,  // measure 34
0100
0000
0001
0000
0010
0000
0100
0000
0010
0000
0100
0000
1000
0000
0000
0100
,  // measure 35
1000
0000
0010
0000
0100
0000
0000
0000
0000
0000
0000
0000
0101
0000
0000
0100
,  // measure 36
0001
0000
0010
0000
0100
0000
0010
0000
0100
0000
1000
0000
0001
0000
0000
1000
,  // measure 37
0001
0000
0010
0000
0001
0000
0000
0000
0100
0000
0000
1000
0001
0000
0000
0001
,  // measure 38
0100
0000
0010
0000
1000
0000
0001
0000
1000
0000
0001
0000
0010
0000
0000
0001
,  // measure 39
1000
0000
0010
0000
0100
0000
0000
0000
0101
0000
0000
0000
0001
0000
0000
0001
,  // measure 40
1000
0000
0010
0000
1000
0000
0000
1000
0010
0000
0100
0000
0001
0000
0000
0000
,  // measure 41
0100
0000
0000
0000
1000
0000
0000
0000
0000
0001
0100
0000
0000
0001
0100
0000
,  // measure 42
0000
0010
1000
0000
0000
0010
1000
0000
0000
1000
0100
0000
0000
1000
0100
0000
,  // measure 43
0010
0000
0001
0000
0000
0000
0101
0000
0000
0001
1000
0000
0000
1000
0010
0000
,  // measure 44
0000
0010
0100
0000
0000
0100
0001
0000
0000
0001
0010
0000
0000
0010
0100
0000
,  // measure 45
0000
0100
1000
0000
0000
0000
1001
0000
0000
1000
0001
0000
0000
0001
1000
0000
,  // measure 46
0000
1000
0010
0000
0000
0010
0001
0000
0000
0001
0010
0000
0000
0010
1000
0000
,  // measure 47
0000
1000
0001
0000
0000
0001
1000
0000
0000
1000
0100
0000
0000
0000
0000
0000
,  // measure 48
0110
0000
0000
1001
0000
0010
0001
1000
,  // measure 49
0010
0100
0000
1100
0011
0000
0010
0001
,  // measure 50
1000
0001
0100
0000
0100
0001
1000
0010
,  // measure 51
0100
1001
0012
1003
,  // measure 52
0010
1000
0100
0000
1000
0100
0010
0001
,  // measure 53
0100
0010
1001
0000
2010
0000
3001
0000
,  // measure 54
1000
0000
0001
0000
0100
0000
0001
0100
0001
0000
0010
0000
0100
0000
1000
0000
,  // measure 55
0010
0100
0010
0000
1000
0000
1010
0000
,  // measure 56
0100
0011
0002
2003
,  // measure 57
3010
0000
0000
0000
0101
0000
0000
0000
1000
0010
0000
0000
0010
0100
0000
0000
,  // measure 58
0100
0001
0000
0000
0001
0010
0000
0000
0010
0100
0000
0000
0100
1000
0000
0000
,  // measure 59
1000
0001
0000
0000
1000
0000
0100
0000
0010
0000
0000
0000
0110
0000
0000
0000
,  // measure 60
1000
0000
0000
0000
1001
0000
0000
0000
0100
0001
0000
0000
0001
1000
0000
0000
,  // measure 61
1000
0100
0000
0000
0100
1000
0000
0000
1000
0010
0000
0000
0010
0100
0000
0000
,  // measure 62
0100
0001
0000
0000
0001
1000
0000
0000
0010
0000
1000
0000
0001
0000
0200
0000
,  // measure 63
0000
0000
0000
0300
0001
0000
0101
0000
,  // measure 64
0100
0000
0101
0000
0010
0001
0010
0000
,  // measure 65
0100
1000
0001
0000
0100
0001
0100
0000
,  // measure 66
0010
1000
0010
0000
0100
0001
0010
0100
,  // measure 67
1000
0000
0000
0000
0010
0000
0100
0001
,  // measure 68
1000
0000
0100
1000
0010
0000
0101
0000
,  // measure 69
0010
0000
1001
0000
0010
0000
0010
1000
,  // measure 70
0100
0000
1000
0010
0100
0000
1001
0000
,  // measure 71
0010
0101
0100
0100
,  // measure 72
1001
0100
0011
0100
,  // measure 73
1001
0000
0100
0000
0001
0100
0001
0000
,  // measure 74
1000
0100
1000
0000
0001
0010
0100
1000
,  // measure 75
0010
0000
0000
0000
0010
0000
0100
0001
,  // measure 76
0010
0000
0001
1000
0010
0000
0101
0000
,  // measure 77
0001
0000
1100
0000
1000
0000
1000
0001
,  // measure 78
0100
0010
1000
0001
1000
0000
0000
0000
,  // measure 79
0100
0000
0000
0000
1001
0000
0000
1000
0001
0000
1000
0000
0010
0000
0100
0000
,  // measure 80
0001
0000
0100
0000
0001
0000
0000
0010
0100
0000
1000
0000
0100
0000
0000
0000
,  // measure 81
0000
0000
0000
0000
1100
0000
0000
0100
1000
0000
0010
0000
0100
0000
0010
0000
,  // measure 82
0100
0000
0010
0000
1000
0000
0000
0001
0010
0000
0100
0000
1000
0000
0000
0000
,  // measure 83
0010
0000
0000
0100
0001
0000
0000
0001
1000
0000
0100
0000
0010
0000
0001
0000
,  // measure 84
1000
0000
0001
0000
0010
0000
0000
0001
1000
0000
0010
0000
0100
0000
0000
0000
,  // measure 85
1100
0000
0000
0000
1000
0000
0000
1000
0001
0000
0010
0000
0001
0000
0000
0001
,  // measure 86
0010
0100
1000
0001
1000
0001
0100
0000
,  // measure 87
0000
0000
0000
1000
0100
0000
0000
1000
0100
0000
0000
0010
0001
0000
0000
0010
,  // measure 88
0001
0000
0000
0001
0100
0000
0000
0001
0100
0000
0010
0000
1000
0000
0000
0000
,  // measure 89
1100
0000
0000
1000
0001
0000
0000
0001
0010
0000
0000
0010
0100
0000
0000
0100
,  // measure 90
1000
0000
0000
1000
0010
0000
0000
0010
0100
0000
0000
0100
0001
0000
0000
0000
,  // measure 91
1001
0000
0000
0001
1000
0000
0000
1000
0001
0000
0000
0001
0010
0000
0000
0010
,  // measure 92
1000
0000
0000
1000
0010
0000
0000
0010
0001
0000
0000
0001
1000
0000
0000
1000
,  // measure 93
0001
0000
0000
0001
0100
0000
0010
0000
1000
0000
0100
0000
0010
0000
0001
0000
,  // measure 94
0100
0001
0100
0001
1000
0010
1000
0000
,  // measure 95
0101
0000
1010
0000
0010
1000
0001
1000
,  // measure 96
0100
0000
0100
1000
0001
0010
0100
0000
;

//---------------dance-single - ----------------
#NOTES:
     dance-single:
     :
     Medium:
     7:
     0.494327,0.652174,0.666592,0.486837,0.026214,462.000000,373.000000,89.000000,65.000000,0.000000,0.000000,0.494327,0.652174,0.666592,0.486837,0.026214,462.000000,373.000000,89.000000,65.000000,0.000000,0.000000:
0000
0000
0000
0000
,
0000
0000
0000
0000
,
2002
3003
0220
0330
,
0010
1000
0200
0300
,
0110
1001
0010
0100
,
0110
1001
0100
0000
,
0202
0303
2020
3030
,
0100
0000
0010
0000
1001
0000
0100
0010
,
0100
0010
1000
0100
,
1001
0110
2002
3003
,
0022
0033
2020
3030
,
0011
1010
0022
0033
,
0100
0010
0100
0010
,
1100
0101
2200
3300
,
0220
0330
2002
3003
,
1010
0110
1010
0110
,
0101
0110
1100
0110
,
0202
0000
0000
0303
,
1000
1000
1001
0010
,
0001
0001
0010
0100
,
1000
1000
1001
0010
,
1000
0001
2002
3003
,
0010
0000
1000
0000
0010
0000
1000
0100
,
1000
0100
0010
0100
,
0001
0000
0100
0010
0100
0000
0010
0001
,
0010
0001
1000
0001
,
0202
0303
2002
3003
,
2200
3300
2002
3003
,
2020
3030
1001
0110
,
0101
0110
2002
3003
,
0010
0001
0100
1000
,
0100
0001
0010
0100
,
1000
0000
0001
1000
0001
1000
0001
1000
,
0001
0000
0000
1001
,
0000
0000
0000
0110
0000
0000
1001
0000
,
0000
0000
0000
0110
0000
0000
1001
0000
,
0000
0000
0000
0000
0110
0000
0001
0001
,
0000
0000
1000
1000
0000
0000
1001
0000
,
0010
0010
0000
0000
0100
0100
0000
0000
,
0001
0001
0000
0000
1000
1000
0010
0010
,
0100
0100
0001
0001
1000
1000
0010
0010
,
0100
0100
0010
0000
0000
1000
0000
0100
,
0000
0001
0000
0100
0000
1000
0000
0110
,
0000
0001
0000
0110
0000
1000
0000
0010
,
0000
0001
0000
0010
0000
1000
0000
1001
,
0000
0010
0000
1001
0000
0100
0000
0001
,
0000
0010
0000
0100
1000
0100
0000
0010
,
0000
0001
0000
1000
0010
0100
0000
0000
,
0101
0000
0000
1010
0000
1001
0000
0100
,
0000
0110
0000
0000
1001
0000
0010
0000
,
0001
0000
0010
0000
0100
1000
0001
0100
,
0010
0000
1000
1100
,
1000
0001
0100
0000
0001
0010
0100
1000
,
0010
0100
0010
0000
1000
0000
1001
0000
,
0010
0001
0100
0001
0010
0100
0010
0100
,
1000
0100
1000
0000
2002
0000
3003
0000
,
0220
0330
0001
0010
,
0200
0300
1000
0100
,
0001
0100
1000
0001
,
2000
3000
0220
0330
,
2002
3003
0010
1000
,
0100
0010
0001
0010
,
0100
1000
0220
0000
,
0000
0330
0001
0001
,
0101
0001
0010
1000
,
0010
0100
1000
1000
,
1100
0100
1001
0100
,
2002
0000
3003
0000
0010
0000
0010
1000
,
0010
0000
0100
0001
0010
0000
0100
0000
,
0010
0000
0100
0000
1000
0000
1000
0010
,
0100
0000
0100
0001
0010
0000
0100
0000
,
0010
0001
2000
3000
,
0220
0330
0202
0303
,
2020
3030
2002
3003
,
0220
0330
0010
0001
,
2000
0000
3000
0000
0010
0000
0010
1000
,
0010
0000
0100
0001
0010
0000
0100
0000
,
1000
0000
0001
0000
0100
0000
0001
0010
,
0100
0010
0100
1000
0001
0000
0000
0000
,
0000
0000
1001
0000
0000
0000
0000
1100
,
0000
0000
1001
0000
0000
0000
0000
0101
,
0000
1001
0000
0000
,
0110
0000
0001
0001
0000
0000
0100
0100
,
0000
0000
1001
0000
1000
1000
0000
0000
,
0010
0010
0000
0000
0100
0100
0000
0000
,
0001
0001
0010
0010
0100
0100
1000
1000
,
0001
0001
0010
0010
0100
0100
0010
0000
,
0000
0001
1000
0010
,
0100
0000
0000
0000
0001
0000
0000
0001
1000
0000
0000
1000
0001
0000
0000
0000
,
1001
0010
0001
0100
,
0010
0000
0000
0000
1000
0000
0000
1000
0100
0000
0000
0100
0010
0000
0000
0000
,
0110
0001
0010
0100
,
1001
0000
0000
0000
0100
0000
0000
0100
0010
0000
0000
0010
0001
0000
0000
0001
,
1000
0000
0010
0000
0000
0100
0000
0000
,
0110
0000
1001
0000
0010
0100
0010
0000
,
0000
0000
1001
0000
0010
1000
0100
1000
,
0100
0000
1000
0001
0100
0001
0100
0000
;

//---------------dance-single - ----------------
#NOTES:
     dance-single:
     :
     Easy:
     4:
     0.350950,0.434783,0.239673,0.322061,0.000000,328.000000,296.000000,32.000000,43.000000,0.000000,0.000000,0.350950,0.434783,0.239673,0.322061,0.000000,328.000000,296.000000,32.000000,43.000000,0.000000,0.000000:
0000
0000
0000
0000
,
0000
0000
0000
0000
,
0002
0003
2000
3000
,
0010
1000
0200
0300
,
1000
0100
0001
0100
,
1000
0001
2000
3000
,
0020
0030
0200
0300
,
0001
0010
0100
1000
,
0001
1000
0010
1000
,
0001
0100
0002
0003
,
2000
3000
0002
0003
,
0010
0001
2000
3000
,
0100
1000
0010
1000
,
0100
0010
0200
0300
,
0020
0030
0002
0003
,
1000
0001
0100
0001
,
1000
0010
1000
0001
,
2000
0000
0000
3000
,
0001
0001
1000
0001
,
0010
0001
1000
0000
,
1000
1000
0010
1000
,
0001
1000
0010
0000
,
0100
0001
0100
0001
,
1000
0100
1000
0100
,
1000
0001
1000
0001
,
0100
0010
0100
0010
,
1000
0000
1001
0000
,
0010
0000
1001
0000
,
0100
0000
0010
0000
,
1000
0001
1000
0000
,
0010
0010
1000
1000
,
0001
0010
0100
1000
,
0001
1000
0001
1000
,
0001
0000
0000
1001
,
0000
0000
0000
0110
,
0000
0000
0000
0010
,
0000
0000
0110
0000
,
1001
0000
0110
1001
,
0000
1001
0000
0010
,
0000
0001
0000
1000
,
1000
0001
0001
1001
,
0110
0000
1001
0000
0000
0010
0000
0010
,
0000
0100
0000
0100
0000
0010
0000
0100
,
0000
1001
0000
0000
0000
0100
0000
0100
,
0000
0010
0000
0010
0000
1000
0000
0001
,
0000
1001
0000
0000
0000
0010
0000
0001
,
0000
0010
0000
0001
0000
1000
0000
0010
,
0000
1000
0000
0010
0000
0100
0000
0000
,
0100
0000
0000
0100
0000
0100
0000
0000
,
0000
0110
0000
0000
1001
0000
0000
0000
,
0010
0000
0001
1000
,
0001
0000
0010
0001
,
1000
1000
1000
0000
0010
0010
0100
0000
,
0001
0001
1000
0000
0100
0000
0010
0000
,
0001
1000
0001
0000
0100
0000
0010
0000
,
1000
0001
1000
0000
2002
0000
3003
0000
,
0020
0030
1000
0001
,
2000
3000
0100
1000
,
0001
1000
0001
0100
,
0002
0003
0020
0030
,
0200
0300
1000
0100
,
0010
0100
1000
0001
,
0010
0100
2000
0000
,
3000
0000
2002
3003
,
0220
0330
0001
0100
,
0001
0100
0202
0303
,
2200
3300
0001
1000
,
0010
0000
1000
0100
,
1000
0100
0001
0100
,
0001
0100
1000
0001
,
1000
0001
0100
0010
,
0100
0010
2000
3000
,
2020
3030
2002
3003
,
0022
0033
0020
0030
,
0022
0033
2002
3003
,
0020
0030
1000
0100
,
1000
0100
0001
0100
,
0010
0100
1000
0001
,
0100
0010
1000
0000
,
0000
1001
0000
0000
,
0000
0110
0000
0000
,
0000
0001
0000
0000
,
1000
0000
1001
0000
,
0110
1001
0000
0010
,
0000
0001
1000
0010
,
0000
0100
0100
0010
,
0010
1000
0001
0010
,
0000
0001
0100
1000
,
0100
0001
0100
0001
,
0100
0010
1000
0100
,
1000
0010
1000
0010
,
1000
0100
0010
0100
,
1000
0001
0010
0100
,
1000
0000
0001
0000
0000
1000
0000
0000
,
0010
0100
0001
1000
,
0000
1001
0010
0100
,
0010
0100
0010
0100
;

//---------------dance-single - ----------------
#NOTES:
     dance-single:
     :
     Beginner:
     2:
     0.217204,0.283863,0.029959,0.000000,0.000000,203.000000,199.000000,4.000000,0.000000,0.000000,0.000000,0.217204,0.283863,0.029959,0.000000,0.000000,203.000000,199.000000,4.000000,0.000000,0.000000,0.000000:
0000
0000
0000
0000
,
0000
0000
0000
0000
,
0001
0000
0001
0000
,
1000
1000
1000
0000
,
0100
0000
0010
0000
,
0100
0100
0100
0000
,
1000
0000
0001
0000
,
0100
0100
0100
0000
,
0010
0000
1000
0000
,
0001
0001
0001
0000
,
0010
0000
0100
0000
,
1000
1000
1000
0000
,
0001
0001
0001
0000
,
1000
1000
1000
0000
,
0010
0000
0100
0000
,
0001
0001
0001
0000
,
1000
1000
1000
0000
,
0010
0000
0000
0000
,
0100
0000
0100
0000
,
0010
0000
0010
0000
,
1000
0000
1000
0000
,
0001
0000
0001
0000
,
0010
0000
0010
0000
,
0100
0100
0100
0000
,
1000
0000
1000
0000
,
0001
0001
0001
0000
,
0100
0000
0100
0000
,
0001
0000
1000
0000
,
0100
0000
0100
0000
,
1000
0000
0010
0000
,
0100
0000
0001
0000
,
0010
0010
0010
0000
,
0100
0000
0100
0000
,
0100
0000
0000
1001
,
0000
0000
0000
0010
,
0000
0000
0000
0001
,
0000
0000
0000
1000
,
0000
0001
0000
1000
,
0000
0010
0000
0100
,
0000
0100
0000
0001
,
0001
0001
0001
0001
,
0001
0000
0001
0000
0000
0000
0000
1000
,
0000
0000
0000
1000
0000
0000
0000
0100
,
0000
0000
0000
0100
0000
0000
0000
0001
,
0000
0000
0000
0001
0000
0000
0000
0100
,
0000
0000
0000
0100
0000
0000
0000
1000
,
0000
0000
0000
1000
0000
0000
0000
0010
,
0000
0000
0000
0010
0000
0010
0000
0000
,
0000
0000
0000
0000
0000
0100
0000
0000
,
0000
0000
0000
0000
,
0000
0000
0000
0000
,
0000
0000
0001
0000
,
0001
0000
1000
0000
,
0100
0000
1000
0000
,
0001
0000
0100
0100
,
0100
0100
0100
0000
,
0100
0000
0010
0010
,
0010
0000
1000
1000
,
1000
0000
0001
0001
,
0001
0000
0010
0000
,
0100
0000
1000
1000
,
1000
0000
0001
0001
,
0001
0000
0100
0000
,
0000
0000
0010
0000
,
0010
0000
1000
0000
,
0001
0000
0010
0000
,
0100
0000
0010
0000
,
0010
0000
0001
0000
,
1000
0000
0010
0000
,
0100
0000
0010
0000
,
1000
0000
0100
0000
,
0010
0000
0001
0000
,
0001
0000
1000
0000
,
1000
0000
0001
0000
,
0001
0000
0100
0000
,
0010
0000
1000
0000
,
0100
0000
0010
0000
,
0100
0000
1000
0000
,
0001
0000
0100
0000
,
0000
0001
0000
0000
,
0000
1001
0000
0000
,
0000
1000
0000
0000
,
0000
1001
0000
0110
,
0000
0001
0000
0001
,
0000
1000
0000
1000
,
0000
0010
0010
0010
,
0010
0010
0010
0010
,
0000
0100
0000
0001
,
0000
1000
1000
1000
,
0000
0100
0000
0010
,
0000
0100
0100
0100
,
0000
1000
0000
0001
,
0000
0010
0010
0010
,
0000
0001
0000
0000
,
0000
1000
0000
0001
;
