#TITLE:Give Your Heart a Break;
#SUBTITLE:;
#ARTIST:Demi Lovato;
#TITLETRANSLIT:;
#SUBTITLETRANSLIT:;
#ARTISTTRANSLIT:;
#GENRE:Unbroken;
#CREDIT:[Ness];
#BANNER:Give Your Heart a Break.png;
#BACKGROUND:Black.png;
#LYRICSPATH:Give Your Heart a Break.lrc;
#CDTITLE:;
#MUSIC:Give Your Heart a Break.mp3;
#OFFSET:-0.022000;
#SAMPLESTART:39.017910;
#SAMPLELENGTH:16.097561;
#LASTBEATHINT:298.000854;
#SELECTABLE:YES;
#BPMS:0.000000=123.000000
;
#STOPS:76.000000=1.463000,
185.000000=1.463000
;
#BGCHANGES:0.000=Give Your Heart a Break.avi=1.000=1=0=0=StretchNoLoop==CrossFade==,
99999=-nosongbg-=1.000=0=0=0 // don't automatically add -songbackground-
;
#KEYSOUNDS:;
#ATTACKS:;

//---------------dance-single - ----------------
#NOTES:
     dance-single:
     :
     Hard:
     8:
     0.414029,0.472425,0.187846,0.523286,0.026835,432.000000,404.000000,28.000000,78.000000,0.000000,0.000000,0.414029,0.472425,0.187846,0.523286,0.026835,432.000000,404.000000,28.000000,78.000000,0.000000,0.000000:
0000
0000
0000
0000
,
0000
0000
0000
0000
,
0000
0000
0000
0000
,
0000
0000
0000
0000
,
0000
0000
1000
0020
0000
0200
0000
0000
,
0330
0000
0001
2000
0000
0200
0000
0000
,
3300
0000
0010
0002
0000
0200
0000
0303
,
0001
1000
0100
1000
0001
0200
0000
0000
,
0300
0000
0010
2000
0000
0002
0000
0000
,
3003
0000
0100
0002
0000
0020
0000
0000
,
0033
0000
0001
2000
0000
0020
0000
3030
,
1000
0001
0010
0001
1000
0200
0000
0000
,
0310
0000
1200
1000
0000
1000
1300
0001
,
0100
0000
0210
0010
0000
0010
0310
1000
,
0001
0000
0012
0010
0000
0010
0013
0000
,
0100
1000
0010
0100
0001
0010
0100
0000
,
0010
0000
2001
0002
3000
2003
0010
3000
,
0100
0000
1002
2000
0003
3002
0000
2003
,
0100
3000
0102
0100
0003
0000
1020
0000
,
0130
0000
0110
0100
0001
0010
0100
0000
,
1000
0000
0020
0000
0000
0000
1030
0100
1000
0000
0001
0000
0100
0000
0010
0000
,
1000
0002
0000
1003
0100
1000
0001
0010
,
0100
2000
0000
3001
0010
1000
0001
0100
,
1000
0200
0000
0310
0001
1000
0010
0000
,
1000
0002
0000
0103
0010
1000
0100
1000
,
0010
0002
0000
0013
1000
0020
0000
1030
,
0100
2000
0000
3001
0100
0010
2000
0000
,
3001
1000
0100
0000
1100
0001
0100
0000
,
2000
0000
0100
0000
3000
0000
0001
0100
0001
0000
1000
0000
0010
0000
0000
0000
,
1000
0002
0000
0013
0100
1000
0010
0000
,
0200
0001
0300
0000
0101
0000
1010
0000
,
1001
0000
0100
0000
0010
2000
0000
0200
,
0000
0000
3300
0000
0010
0002
0000
0200
,
0000
0000
0303
0000
0000
0020
0000
0200
,
0000
0000
0330
0001
1000
0100
0001
0100
,
1000
0000
0010
0000
1001
2000
0000
3001
,
0100
0000
0001
0000
0110
0020
0000
0130
,
1000
0000
0010
0000
1001
0020
0000
0130
,
0001
0000
1000
0100
1000
0001
0100
0010
,
0020
0000
1030
0000
0100
0010
0001
0200
,
0010
0000
0300
0001
0100
0020
0000
1030
,
0100
0000
0010
0001
1000
0020
0000
0130
,
0001
0000
1000
0100
0010
1000
0010
0001
,
1000
0000
0001
0000
0101
0002
0000
2003
,
0100
3000
0010
0000
1010
2000
0000
3002
,
0000
0013
0100
1000
0001
0000
0100
0001
,
1000
0000
1001
0000
0110
1000
0010
0001
,
0010
0000
0000
0000
0100
0000
2000
0000
0000
0000
3001
0010
0001
0000
1000
0000
,
0010
0100
0001
2000
0000
3100
0010
0001
,
1000
0100
1000
0002
0000
1003
0010
0100
,
0001
0010
0100
2000
0000
3001
0010
1000
,
0010
0000
0100
0002
0000
0013
0100
1000
,
0010
1000
0001
0020
0000
0031
1000
0002
,
0000
1003
0100
2000
0000
3010
0100
0001
,
0020
0000
0130
1000
0001
1000
0010
0100
,
0002
0000
0000
0000
1003
0000
1001
0000
0000
0000
0010
1000
0010
0000
0100
0000
,
0001
0010
0100
0110
0000
0100
1000
0010
,
1000
0100
1000
0000
0001
0000
0100
0000
0000
0000
0010
0000
0110
0000
0000
0000
,
0001
0010
0100
1000
0000
0001
1000
0010
,
0100
0000
0000
0000
1001
0000
0020
0000
0000
0000
0031
1000
0001
0000
1000
0000
,
0100
0010
0100
2000
0000
3010
0100
0002
,
0000
1003
0001
0100
0000
0010
1000
0100
,
1000
0000
0001
0010
0100
0000
0110
1000
,
0100
0000
0000
0000
2000
0000
0001
0000
3000
0000
1000
0010
0100
0000
0001
0000
,
0010
0000
0100
2000
0000
3001
0100
0010
,
1000
0000
0002
0100
0003
1000
0100
1000
,
0010
1000
0010
0002
0000
0013
1000
0001
,
1000
0000
0000
0000
1001
0000
0200
0000
0000
0000
0301
0010
0100
0000
1000
0000
,
0010
1000
0100
0020
0000
0030
1000
0010
,
0001
0000
0010
0200
0000
0300
0110
0000
,
0011
0000
1001
0000
0010
0000
0001
2000
,
0000
3010
0100
0001
1000
0000
0100
0020
,
0000
0031
0100
0001
1000
0000
0001
0200
,
0000
0310
1000
0100
1000
0001
0100
0010
,
1000
0001
0000
0000
0000
0000
0000
0000
;

//---------------dance-single - ----------------
#NOTES:
     dance-single:
     :
     Medium:
     6:
     0.350774,0.345168,0.268352,0.073797,0.000000,366.000000,326.000000,40.000000,11.000000,0.000000,0.000000,0.350774,0.345168,0.268352,0.073797,0.000000,366.000000,326.000000,40.000000,11.000000,0.000000,0.000000:
0000
0000
0000
0000
,
0000
0000
0000
0000
,
0000
0000
0000
0000
,
0000
0000
0000
0000
,
1000
0000
0001
0000
1000
0000
0001
0010
,
0100
0000
0010
0000
0100
0000
1000
0001
,
0100
0000
0001
0000
0100
0000
0001
1000
,
0010
0000
1000
0000
0010
0000
0100
0010
,
1000
0000
0100
0000
0010
0000
0001
0010
,
0001
0000
1000
0000
0001
0000
1000
0001
,
0100
0000
0010
0000
1000
0000
0001
0010
,
0100
0000
1000
0000
0010
0000
1000
0010
,
0100
0000
0110
0000
0010
0000
1000
0010
,
0100
0000
0101
0000
0001
0000
0010
0100
,
1000
0000
1001
0000
0010
0000
0100
0001
,
0010
0000
0011
0000
0010
0001
1000
0000
,
0100
0000
1100
0000
0100
0000
0010
0100
,
1000
0000
0110
0000
0010
0000
0001
1000
,
0100
1001
0100
0100
,
0010
0000
1001
0000
1000
0010
0100
0000
,
0010
2000
0000
3000
0001
0010
0100
0000
,
1000
0002
0000
0003
1000
0100
1000
0000
,
0010
0200
0000
0300
0101
0000
1010
0000
,
0100
0000
0010
0000
1000
0001
1000
0000
,
0010
0200
0000
0300
0001
0010
0001
0000
,
1000
0100
0010
0000
1100
0000
0010
0000
,
0101
0000
0100
0010
0100
0000
0001
0000
,
1000
0001
0100
0000
1100
0000
0001
0000
,
1000
0001
0101
1000
,
0001
1000
0110
0010
,
0100
0001
1000
0010
,
0100
0000
1001
0000
0000
1000
0000
0001
,
0000
0000
0000
0000
0010
0100
0000
0010
,
0000
0000
0000
0000
0000
0001
0000
1000
,
0000
0000
0000
0001
0000
0100
0000
0010
,
1000
0000
0000
0000
1000
0010
0100
0000
,
0110
0000
0001
0000
0010
0001
1000
0000
,
1001
0000
0100
0000
1000
0010
1000
0000
,
0110
0000
0001
0100
0010
0000
1000
0001
,
1000
0000
0100
0000
1000
0001
0100
0000
,
0010
0000
0100
0000
0001
0010
0100
0000
,
1000
0000
0001
0000
1000
0010
0100
0000
,
0001
0000
0010
0001
0010
0000
0100
1000
,
0001
0100
1001
0010
,
1000
0001
1000
0000
1001
0000
0010
0000
,
0001
1000
0001
0000
0100
0000
0010
0000
,
1000
0000
0001
0000
1001
0000
0001
0010
,
0001
0000
0010
0200
0000
0300
1000
0001
,
0100
0000
0010
0200
0000
0300
0001
0010
,
0001
0000
1000
0020
0000
0030
1100
0000
,
0011
0000
0100
0000
0010
0001
0100
0000
,
0001
0000
1000
0020
0000
0030
1000
0100
,
1000
0000
0001
0200
0000
0300
0110
0000
,
0010
0000
0110
0000
1000
0010
1000
0000
,
0001
0000
1000
0001
0100
0000
1001
0000
,
0010
0000
0001
0020
0000
0030
1001
0000
,
0010
0000
1000
0020
0000
0030
0110
0000
,
1000
0001
0100
0000
0010
1000
0010
0000
,
0100
0001
1000
0000
0001
0000
0101
0000
,
1000
0001
1000
1100
,
0001
0010
0100
1001
,
0100
1001
0010
0001
,
0100
0000
1000
0000
0010
0000
1000
0001
,
1000
0000
0001
0100
0000
0000
1001
0000
,
0010
0000
0001
0010
0000
0000
0100
1000
,
0010
0000
1000
0001
0000
0000
0101
0000
,
1010
0000
0100
0000
0001
0000
1000
0010
,
0100
0000
0110
0000
0010
0000
1000
0001
,
0100
1001
0010
0001
,
0010
0000
0100
1000
0001
0000
1001
0000
,
0010
0100
0110
0001
,
0100
0000
1000
0100
1000
0000
0100
0000
,
1000
0000
0010
1000
0100
0000
1000
0000
,
0100
0000
1000
0001
0100
0000
0000
0000
;

//---------------dance-single - ----------------
#NOTES:
     dance-single:
     :
     Easy:
     3:
     0.198389,0.221894,0.033544,0.234808,0.000000,207.000000,202.000000,5.000000,35.000000,0.000000,0.000000,0.198389,0.221894,0.033544,0.234808,0.000000,207.000000,202.000000,5.000000,35.000000,0.000000,0.000000:
// measure 0
0000
0000
0000
0000
,  // measure 1
0000
0000
0000
0000
,  // measure 2
0000
0000
0000
0000
,  // measure 3
0000
0000
0000
0000
,  // measure 4
0000
2000
0020
3030
,  // measure 5
0000
0002
0020
0033
,  // measure 6
0000
0200
0020
0330
,  // measure 7
0001
1000
0010
0000
,  // measure 8
0000
0002
0200
0303
,  // measure 9
0000
2000
0200
3300
,  // measure 10
0000
2000
0002
3003
,  // measure 11
1000
0010
0100
0000
,  // measure 12
0010
1000
0010
0000
,  // measure 13
0001
1000
0001
0000
,  // measure 14
0100
1000
0100
0000
,  // measure 15
0001
0010
0100
0000
,  // measure 16
0010
0001
0010
0000
,  // measure 17
1000
0001
1000
0000
,  // measure 18
0100
0001
0100
0000
,  // measure 19
0010
1001
0010
1000
,  // measure 20
0000
0001
0010
0100
,  // measure 21
0000
1000
0100
0001
,  // measure 22
0000
0001
0100
1000
,  // measure 23
0100
0001
0010
0001
,  // measure 24
0000
1000
0010
1000
,  // measure 25
0000
0002
0003
2000
,  // measure 26
3000
0001
0010
0100
,  // measure 27
1000
2002
3003
0020
,  // measure 28
0030
0001
0010
1000
,  // measure 29
0000
0002
0003
2000
,  // measure 30
3000
0100
1000
0001
,  // measure 31
0000
1001
0000
0000
,  // measure 32
0010
0001
0000
0000
,  // measure 33
1000
0010
0000
0000
,  // measure 34
0100
0001
0000
0000
,  // measure 35
1000
0100
0010
0000
,  // measure 36
0001
0010
0100
0000
,  // measure 37
1000
0010
0100
0000
,  // measure 38
0001
1000
0010
0000
,  // measure 39
0100
0001
0010
0000
,  // measure 40
0100
1000
0001
0000
,  // measure 41
1000
0100
0010
0000
,  // measure 42
0001
1000
0010
0100
,  // measure 43
0000
0001
1000
0000
,  // measure 44
0001
0100
0010
0000
,  // measure 45
1000
0010
0100
0000
,  // measure 46
0001
0010
1001
0100
,  // measure 47
0010
0000
1000
0100
,  // measure 48
0001
0000
1000
0100
,  // measure 49
1000
0001
0100
0001
,  // measure 50
1000
0000
0001
0010
,  // measure 51
0100
0000
0010
0001
,  // measure 52
1000
0000
0002
0003
,  // measure 53
2000
3000
0001
1000
,  // measure 54
0010
0100
0001
0010
,  // measure 55
0100
0100
0010
0100
,  // measure 56
1000
1000
0001
1000
,  // measure 57
0001
0001
1000
0010
,  // measure 58
0100
0100
0001
0010
,  // measure 59
1000
0010
0001
0001
,  // measure 60
0010
1000
0200
0300
,  // measure 61
0020
0030
0001
1000
,  // measure 62
0010
0100
2002
3003
,  // measure 63
0200
0300
0001
0100
,  // measure 64
1000
0000
0002
0003
,  // measure 65
2000
3000
0001
0010
,  // measure 66
0100
1000
0020
0030
,  // measure 67
0200
0300
0010
1000
,  // measure 68
0001
1000
0020
0030
,  // measure 69
0200
0300
0001
0010
,  // measure 70
0100
1000
0002
0003
,  // measure 71
0000
1000
2000
3000
,  // measure 72
0000
0010
0020
0030
,  // measure 73
0000
0100
0100
0000
;

//---------------dance-single - ----------------
#NOTES:
     dance-single:
     :
     Beginner:
     1:
     0.131301,0.172584,0.000000,0.080506,0.000000,137.000000,137.000000,0.000000,12.000000,0.000000,0.000000,0.131301,0.172584,0.000000,0.080506,0.000000,137.000000,137.000000,0.000000,12.000000,0.000000,0.000000:
// measure 0
0000
0000
0000
0000
,  // measure 1
0000
0000
0000
0000
,  // measure 2
0000
0000
0000
0000
,  // measure 3
0000
0000
0000
0000
,  // measure 4
0000
0001
0000
0000
,  // measure 5
0000
1000
0000
0000
,  // measure 6
0000
0100
0000
0000
,  // measure 7
0010
0000
0010
0000
,  // measure 8
0000
0100
0000
0000
,  // measure 9
0000
1000
0000
0000
,  // measure 10
0000
0001
0000
0000
,  // measure 11
0010
0000
0010
0000
,  // measure 12
0100
0000
0010
0000
,  // measure 13
0100
0000
1000
0000
,  // measure 14
0001
0000
1000
0000
,  // measure 15
0001
0000
0100
0000
,  // measure 16
0010
0000
0010
0000
,  // measure 17
0100
0000
0100
0000
,  // measure 18
0001
0000
0000
0000
,  // measure 19
1000
0000
0100
0000
,  // measure 20
0100
0100
0100
0000
,  // measure 21
0010
0010
0010
0000
,  // measure 22
0001
0001
0000
1000
,  // measure 23
0000
0010
0010
0000
,  // measure 24
0010
0010
0010
0000
,  // measure 25
0100
0100
0000
0100
,  // measure 26
0000
0001
0000
1000
,  // measure 27
0000
0200
0300
0010
,  // measure 28
0000
0002
0003
0100
,  // measure 29
0000
0020
0030
0100
,  // measure 30
0000
2000
3000
0010
,  // measure 31
0000
0001
0000
0000
,  // measure 32
0000
1000
0000
0000
,  // measure 33
0000
0001
0000
0000
,  // measure 34
0000
1000
0000
0000
,  // measure 35
0000
0010
0000
0010
,  // measure 36
0000
0100
0000
0100
,  // measure 37
0000
0001
0000
0010
,  // measure 38
0000
0100
0000
1000
,  // measure 39
0000
0100
0000
0010
,  // measure 40
0000
0100
0000
0010
,  // measure 41
0000
0001
0000
1000
,  // measure 42
0000
0001
0000
1000
,  // measure 43
0000
0010
0000
0100
,  // measure 44
0000
0010
0000
0100
,  // measure 45
0000
0001
0000
1000
,  // measure 46
0000
0100
0100
0100
,  // measure 47
0000
0010
0010
0010
,  // measure 48
0000
0100
0100
0000
,  // measure 49
1000
0000
0001
0000
,  // measure 50
0100
0000
0010
0010
,  // measure 51
0000
0010
0010
0010
,  // measure 52
0000
1000
1000
0000
,  // measure 53
0001
0000
0100
0000
,  // measure 54
0010
0000
1000
0000
,  // measure 55
0100
0000
0001
0000
,  // measure 56
0100
0000
1000
0000
,  // measure 57
0010
0000
0100
0000
,  // measure 58
0001
0000
0010
0010
,  // measure 59
0000
0100
0100
0100
,  // measure 60
0000
0010
0010
0000
,  // measure 61
0100
0000
1000
0000
,  // measure 62
0001
0000
0200
0300
,  // measure 63
1000
0000
0020
0030
,  // measure 64
0001
0000
2000
3000
,  // measure 65
0100
0000
0002
0003
,  // measure 66
0010
0000
0200
0300
,  // measure 67
1000
0000
0020
0030
,  // measure 68
0100
0000
0002
0003
,  // measure 69
0010
0000
2000
3000
,  // measure 70
0100
0000
0010
0000
,  // measure 71
0000
0000
0100
0000
,  // measure 72
0000
0000
0010
0000
,  // measure 73
0000
0000
0100
0000
;
