#TITLE:Ghostmother;
#SUBTITLE:;
#ARTIST:Moderat;
#TITLETRANSLIT:;
#SUBTITLETRANSLIT:;
#ARTISTTRANSLIT:;
#GENRE:III;
#CREDIT:;
#BANNER:Ghostmother-bn.png;
#BACKGROUND:Ghostmother-bg.png;
#LYRICSPATH:;
#CDTITLE:;
#MUSIC:Ghostmother.mp3;
#OFFSET:-0.022000;
#SAMPLESTART:83.680870;
#SAMPLELENGTH:22.018349;
#LASTBEATHINT:264.070251;
#SELECTABLE:YES;
#DISPLAYBPM:109.000000;
#BPMS:0.000000=109.000000
;
#STOPS:
;
#BGCHANGES:;
#KEYSOUNDS:;
#ATTACKS:;

//---------------dance-single - ----------------
#NOTES:
     dance-single:
     :
     Hard:
     7:
     0.303706,0.362543,0.046651,0.393200,0.086637,319.000000,312.000000,7.000000,59.000000,0.000000,0.000000,0.303706,0.362543,0.046651,0.393200,0.086637,319.000000,312.000000,7.000000,59.000000,0.000000,0.000000:
0000
0000
0000
0000
,
2002
0003
0010
0001
,
3100
0000
0000
0010
0000
0000
0002
0000
0000
0000
0200
0000
0000
0000
0303
0000
,
0020
0001
0100
1030
,
0100
1000
0100
0020
0000
0000
0031
0000
,
0100
0000
0010
1000
0002
0000
0103
0000
,
1000
0010
0100
0001
0020
0000
0100
0000
,
0031
1000
0010
0100
0002
0000
1000
0000
,
0103
0010
1000
0010
0100
0001
0100
0010
,
1000
0010
0100
0001
0100
0010
1000
0000
,
0200
0000
0310
0001
0200
0000
0310
1000
,
0020
0000
0230
0000
0301
1000
0100
0000
,
0010
0001
0200
0000
0310
1000
0020
0000
,
1030
0000
0000
0001
0000
0000
0100
0000
0010
0000
1000
0000
0100
0000
0020
0000
,
0000
0000
0130
0000
1000
0000
0001
0000
0100
0000
0000
0010
0000
0010
0000
0000
,
1000
0010
0100
0001
0010
0100
1000
0010
,
0100
0001
0010
0100
1000
0010
0100
0001
,
0010
0100
1000
0010
0100
0001
0010
0000
,
0210
0000
1300
0010
0200
0000
0301
0010
,
0100
0000
0000
1000
0000
0000
0010
0000
0200
0000
0000
0000
0301
0000
0010
0000
,
0002
0000
0103
0010
2000
0000
3010
0100
,
0001
0000
0010
0000
0100
0000
1000
0000
0100
0000
0000
0100
0000
0000
0010
0000
,
0001
1000
0010
0100
0001
0000
0010
0000
,
0100
1000
0100
0001
1000
0001
0100
1000
,
0100
0001
1000
0001
0100
1000
0100
0001
,
1000
0001
0100
1000
0100
0001
1000
0001
,
0100
0000
0000
0000
,
0000
0000
0000
0000
,
2002
3003
0000
0010
0100
0001
0020
0000
,
0230
0000
1000
0000
0310
0100
0010
0000
,
0001
0000
0000
0000
1000
0000
0010
0000
0100
0000
0000
0001
0000
0000
0010
0000
,
0100
2000
0000
0010
0020
0000
3000
0000
,
0100
0000
0100
0000
0100
0000
0000
0000
1000
0000
0000
1000
0000
1000
0030
0000
,
2002
3003
0000
0010
0100
1000
0010
0100
,
0002
0000
0010
0000
0103
0001
0100
0000
,
1000
0000
0000
0000
0010
0000
0100
0000
0001
0000
0000
0010
0000
0100
0000
0000
,
1000
0000
0000
0002
0000
0000
0010
0000
0023
0000
0000
0000
0000
0000
0000
0000
,
0100
0000
0100
0000
0100
0000
0000
0000
0001
0000
0000
0001
0000
0001
0030
0000
,
2002
3003
0000
0010
0100
0001
0200
0000
,
0320
0000
1000
0000
1030
0001
0100
0000
,
0001
0000
0000
0000
0010
0000
0100
0000
1000
0000
0000
0010
0000
0000
0100
0000
,
0001
2000
0000
0001
3200
0000
0000
0000
,
1000
0000
1000
0000
0010
0000
0000
0000
0001
0000
0000
0010
0000
0010
0300
0000
,
2002
3003
0000
0100
0010
0001
0100
0010
,
2000
0000
0100
0000
3010
1000
0010
0000
,
0100
0000
0000
0000
0001
0000
1000
0000
0100
0000
0000
1000
0000
0001
0000
0000
,
0100
0000
0000
0020
0000
0000
1000
0000
0230
0000
0000
0000
0000
0000
0000
0000
,
0000
0020
0330
0000
,
0000
0000
0000
0000
,
1002
0100
1000
0100
,
0013
0000
0001
0000
0100
0000
1000
0010
,
0200
0000
0000
0000
0000
0000
0301
2000
,
0000
0200
0000
0000
0000
0000
0000
0000
,
0300
0000
0010
0000
0200
0000
3300
0010
,
0100
0000
0000
0001
0000
0000
1000
0000
0200
0000
0000
0000
0300
0000
0000
0000
,
0010
0000
0000
0001
0000
0000
1000
0000
0020
0000
0000
0000
0030
0000
0000
0000
,
0100
0000
0000
0001
0000
0000
0010
0000
0200
0000
0000
0000
2000
0000
0000
0000
,
0000
0000
0300
0002
0000
0000
0000
0000
,
3000
0000
0100
0000
0010
0000
1003
0001
,
0100
0000
0000
0010
0000
0000
1000
0000
0200
0000
0000
0000
0300
0000
0000
0000
,
0010
0000
0000
0001
0000
0000
1000
0000
0020
0000
0000
0000
0030
0000
0000
0000
,
0100
0000
0000
0001
0000
0000
0010
0000
0200
0000
0000
0000
2000
0000
0000
0000
,
0000
0000
0300
0002
3000
0000
0100
0000
,
0010
1000
0100
0010
,
0103
0000
0000
0000
;

//---------------dance-single - ----------------
#NOTES:
     dance-single:
     :
     Medium:
     5:
     0.175179,0.213261,0.053315,0.393200,0.019993,184.000000,176.000000,8.000000,59.000000,0.000000,0.000000,0.175179,0.213261,0.053315,0.393200,0.019993,184.000000,176.000000,8.000000,59.000000,0.000000,0.000000:
0000
0000
0000
0000
,
0000
0000
0010
1000
,
0001
0000
0100
0010
2000
0000
0000
0000
,
3010
0100
0002
0000
,
0013
0100
2000
0000
,
3001
1000
0200
0000
,
0320
0000
0031
1000
,
0020
0000
0130
0001
,
2000
0000
3100
0010
,
0002
0000
0013
0100
,
2000
0000
3001
1000
,
0010
0000
0100
0000
0001
1000
0010
0000
,
0200
0000
0310
1000
,
0100
0000
0010
0001
0200
0000
0000
0000
,
0310
1000
0100
0010
,
0001
1000
0010
0100
,
0001
0010
0100
1000
,
0001
0010
0100
1000
,
0020
0000
0000
0000
0130
0000
0001
1000
,
0200
0000
0320
0000
,
0031
0000
1000
0000
0010
0000
0100
0001
,
1000
0010
0200
0000
,
0301
0010
0200
0000
,
1300
0001
0200
0000
,
0310
1000
0200
0000
,
0310
0001
2000
0000
,
3001
0000
0000
0000
,
0000
0000
0000
0000
,
2002
3003
0000
0000
1010
0000
1000
0000
,
0200
0000
2000
3300
,
0001
0010
0100
1000
,
0020
0000
0200
0030
,
0002
0300
2000
3003
,
2002
3003
0000
0000
0011
0000
0001
0000
,
0200
0000
0002
0303
,
1000
0010
0100
0001
,
0020
0000
0200
0030
,
2000
0300
0002
3003
,
2002
3003
0000
0000
1100
0000
1000
0000
,
0020
0000
2000
3030
,
0001
0100
0010
1000
,
0200
0000
0020
0300
,
0002
0030
2000
3003
,
2002
3003
0000
0000
0101
0000
0001
0000
,
0020
0000
0002
0033
,
1000
0100
0010
0001
,
0200
0000
0020
0300
,
2000
0030
0002
3003
,
0000
0000
0000
0000
,
0001
0010
0100
1000
,
0010
0000
0100
0000
0001
0000
1000
0001
,
0200
0000
0000
0020
,
0000
0000
0000
0000
,
0330
0000
0000
0000
,
1000
0000
0000
0010
0000
0000
0100
0000
0002
0000
0000
0000
0003
0000
0000
0000
,
0001
0000
0000
0010
0000
0000
0100
0000
2000
0000
0000
0000
3000
0000
0000
0000
,
0010
0000
0000
0100
0000
0000
0001
0000
1000
0000
0000
0000
0200
0000
0000
0000
,
0000
0000
0000
0010
0000
0000
0000
0000
,
0000
0000
0000
0300
,
0010
0000
0000
0100
0000
0000
1000
0000
0020
0000
0000
0000
0000
0000
0000
0000
,
0130
0000
0000
0001
0000
0000
1000
0000
0200
0000
0000
0000
0000
0000
0000
0000
,
0310
0000
0000
0001
0000
0000
0100
0000
0010
0000
0000
0000
2000
0000
0000
0000
,
0000
0000
0000
0001
0000
0000
0000
0000
,
0000
0000
0000
0000
,
3000
0000
0000
0000
;

//---------------dance-single - ----------------
#NOTES:
     dance-single:
     :
     Easy:
     3:
     0.133288,0.166610,0.026658,0.413193,0.000000,140.000000,136.000000,4.000000,62.000000,0.000000,0.000000,0.133288,0.166610,0.026658,0.413193,0.000000,140.000000,136.000000,4.000000,62.000000,0.000000,0.000000:
0000
0000
0000
0000
,
0020
0000
1000
1030
,
0002
0000
1000
0003
,
0020
0000
0100
0130
,
2000
0000
0001
3000
,
0020
0000
0100
0030
,
2000
0000
0001
3000
,
0200
0000
0010
0300
,
0002
0000
0100
0003
,
0020
0000
1000
0030
,
0200
0000
0010
0310
,
0002
0000
1000
1003
,
0020
0000
0100
0030
,
1000
0100
0020
0000
,
0032
0000
1000
0003
,
0200
0000
0010
0300
,
0020
0000
1000
0030
,
0002
0000
0010
0003
,
0200
0000
1000
1300
,
0002
0000
0100
0003
,
0020
0000
1000
0030
,
0200
0000
0010
0310
,
0002
0000
1000
0000
,
0203
0000
0010
0300
,
0002
0000
1000
0003
,
0200
0000
0001
0300
,
0010
0000
0000
0000
,
0000
0000
0000
0000
,
2002
3003
0010
1000
,
0200
0000
0320
0000
,
0032
0000
1003
0001
,
0200
0000
0020
0000
,
0000
0000
0330
0000
,
2002
3003
0010
0100
,
0002
0003
0010
0100
,
2000
0000
3100
0010
,
0002
0000
2000
0000
,
0000
0000
3003
0000
,
2002
3003
0100
0001
,
2000
0000
3100
0010
,
0002
0000
0103
0010
,
2000
0000
0002
0000
,
0000
0000
3003
0000
,
2002
3003
1000
0001
,
0020
0000
0130
1000
,
0020
0000
0130
0001
,
2000
0000
0002
0000
,
0000
0000
3003
0000
,
0000
0000
0000
0000
,
0010
1000
0002
0003
,
0010
0001
2000
3000
,
0200
0300
0020
0030
,
0002
0000
0000
0000
,
0000
0000
0000
0003
,
1000
0010
2000
3000
,
0001
0010
0002
0003
,
1000
0100
0010
0001
,
0200
0000
0310
0000
,
2000
0000
3001
0000
,
0010
0100
2000
3000
,
0100
0010
0002
0003
,
1000
0001
0100
0010
,
2000
0000
3001
0000
;

//---------------dance-single - ----------------
#NOTES:
     dance-single:
     :
     Beginner:
     1:
     0.078069,0.145784,0.026658,0.379871,0.000000,82.000000,78.000000,4.000000,57.000000,0.000000,0.000000,0.078069,0.145784,0.026658,0.379871,0.000000,82.000000,78.000000,4.000000,57.000000,0.000000,0.000000:
0000
0000
0000
0000
,
0020
0000
0000
0030
,
0020
0000
0000
0030
,
2000
0000
0000
3000
,
0002
0000
0000
0003
,
0002
0000
0000
0003
,
0200
0000
0000
0300
,
0200
0000
0000
0300
,
0200
0000
0000
0300
,
0200
0000
0000
0300
,
0002
0000
0000
0003
,
0002
0000
0000
0003
,
0020
0000
0000
0030
,
0200
0000
0000
0300
,
2000
0000
0000
3000
,
2000
0000
0000
3000
,
2000
0000
0000
3000
,
2000
0000
0000
3000
,
0020
0000
0000
0030
,
0020
0000
0000
0030
,
0200
0000
0000
0300
,
0002
0000
0000
0003
,
0002
0000
0000
0003
,
2000
0000
0000
3000
,
2000
0000
0000
3000
,
2000
0000
0000
3000
,
0001
0000
0000
0000
,
0000
0000
0000
0000
,
2002
3003
0001
0001
,
0002
0000
0000
0003
,
2000
0000
0000
3000
,
0200
0000
0000
0000
,
0000
0000
0000
0300
,
2002
3003
0010
0010
,
0020
0000
0000
0030
,
0002
0000
0000
0003
,
2000
0000
0000
3000
,
0020
0000
0000
0030
,
2002
3003
0100
0100
,
0200
0000
0000
0300
,
0020
0000
0000
0030
,
2000
0000
0000
3000
,
2000
0000
0000
3000
,
2002
3003
0010
0010
,
0020
0000
0000
0030
,
0200
0000
0000
0300
,
2000
0000
0000
3000
,
0002
0000
0003
0000
,
0000
0000
0000
0000
,
0010
0000
0100
0000
,
1000
0000
0001
0000
,
0200
0000
0000
0300
,
0020
0000
0000
0030
,
2000
0000
0000
3000
,
0001
0001
0002
0003
,
1000
1000
2000
3000
,
0100
0000
0010
0020
,
0000
0000
0030
0000
,
0000
0000
0000
0000
,
0001
0001
0002
0003
,
1000
1000
2000
3000
,
0100
0000
0010
0020
,
0000
0000
0030
0000
;

//---------------dance-single - ----------------
#NOTES:
     dance-single:
     :
     Challenge:
     11:
     0.623598,0.703761,0.059980,0.253247,1.032982,655.000000,646.000000,9.000000,38.000000,0.000000,0.000000,0.623598,0.703761,0.059980,0.253247,1.032982,655.000000,646.000000,9.000000,38.000000,0.000000,0.000000:
// measure 0
0000
0000
0000
0000
,  // measure 1
1000
0001
1000
0010
0000
0010
1000
0001
1000
0000
1000
0100
0010
0001
0100
0010
,  // measure 2
1000
0100
0010
0100
0000
0100
1000
0001
0100
0000
0000
0000
0010
0100
0010
0100
,  // measure 3
0001
1000
0100
1000
0000
1000
0010
1000
0001
0000
0001
0010
0100
1000
0100
0010
,  // measure 4
0001
1000
0001
0100
0000
0100
0010
0100
0001
0000
0000
0000
0010
0100
0010
0100
,  // measure 5
1000
0010
1000
0001
0000
0001
0010
0001
1000
0000
0001
0100
0010
1000
0010
0100
,  // measure 6
0001
1000
0100
1000
0000
1000
0010
0100
0010
1000
0001
1000
0100
0010
0100
1000
,  // measure 7
0001
0100
0010
1000
0000
0001
0010
0100
1000
0000
0000
0000
1000
0010
0100
0001
,  // measure 8
1000
0100
1000
0001
0000
0001
0100
0001
1000
0000
0010
1000
0010
0100
0001
1000
,  // measure 9
0100
0010
0001
1000
0000
1000
0010
1000
0001
0000
0000
0000
0010
0100
0010
0100
,  // measure 10
1000
0100
0010
0100
0000
1000
0010
1000
0001
0000
0100
0010
1000
0010
0100
0001
,  // measure 11
0010
0100
0010
0001
0000
1000
0100
0010
0100
0000
0000
0000
0000
1000
0001
1000
,  // measure 12
0010
0100
0001
0100
0010
1000
0010
0100
0001
0000
1000
0010
1000
0001
0010
0100
,  // measure 13
0010
0001
0010
0100
0000
1000
0100
0010
0001
1000
0001
0100
0010
0100
0001
1000
,  // measure 14
0001
0010
0100
1000
0000
1000
0010
0100
0000
0000
0000
0101
0000
0101
0000
0000
,  // measure 15
0001
0100
0001
1000
0000
0001
0100
0001
1000
0000
0000
0000
0000
0000
0000
0001
,  // measure 16
0010
0001
0100
0010
0000
0010
0100
0001
1000
0000
0000
0000
0010
1000
0010
1000
,  // measure 17
0001
0100
0001
0010
0000
0100
1000
0100
1000
0001
0100
0001
0100
0001
0100
0001
,  // measure 18
0100
0000
0000
0000
0010
0100
0001
1000
0010
1000
0001
1000
0100
1000
0100
1000
,  // measure 19
0001
0010
0001
0100
0001
1000
0010
1000
0001
0100
0010
0100
0001
1000
0001
0100
,  // measure 20
0010
1000
0010
0100
0001
0010
0100
1000
0100
0010
0001
1000
0010
0100
0010
1000
,  // measure 21
0001
1000
0100
1000
0001
0100
0010
0100
0001
0000
0000
0001
0000
0010
0100
1000
,  // measure 22
0001
0100
0001
1000
0010
1000
0001
1000
0100
1000
0010
0100
0010
1000
0001
1000
,  // measure 23
0100
0010
0100
1000
0001
0010
0100
1000
0001
0010
0001
0010
0100
1000
0100
1000
,  // measure 24
0010
1000
0001
0100
0010
0100
0001
1000
0010
0000
0000
0000
0000
1000
0010
0100
,  // measure 25
0001
0010
0100
0010
0000
0010
0001
1000
0100
1000
0001
0100
0010
0100
0001
1000
,  // measure 26
0100
0000
0000
0000
,  // measure 27
1000
0001
1000
0001
1000
0001
1000
0001
1000
0001
1000
0001
1000
0001
1000
0001
,  // measure 28
1000
0010
0100
0001
0000
0001
0010
0100
2000
0000
0000
0000
3020
0000
0000
0000
,  // measure 29
0130
0001
1000
0100
0000
0010
0100
0010
0001
1000
0001
1000
0010
0100
0010
0100
,  // measure 30
0001
0010
0001
1000
0000
1000
0010
1000
0002
0000
0000
0203
0000
0000
0320
0000
,  // measure 31
1030
0010
1000
0001
0000
0001
0010
0100
1000
0001
1000
0001
1000
0010
1000
0010
,  // measure 32
0100
0001
0100
0010
0000
0010
1000
0010
0100
0000
0000
0101
0000
0101
0000
0000
,  // measure 33
0001
1000
0001
0010
0100
1000
0100
1000
0002
0000
0000
0000
0023
0000
0230
0000
,  // measure 34
1300
0010
1000
0001
0000
0100
0010
0100
0001
0010
0001
0010
0100
1000
0100
1000
,  // measure 35
0001
0010
0100
1000
0000
1000
0010
0100
0002
0000
0000
0023
0000
0230
0000
0000
,  // measure 36
1300
0100
1000
0001
0000
1000
0010
1000
0001
1000
0001
1000
0001
0010
0001
0010
,  // measure 37
0100
1000
0100
0010
0000
0001
1000
0001
0100
0000
0000
0110
0000
1001
0000
0000
,  // measure 38
0001
0010
0100
1000
0000
1000
0010
0100
0002
0000
0000
0000
0023
0000
0000
0000
,  // measure 39
0130
1000
0001
0100
0000
0010
0100
0010
1000
0001
1000
0001
0010
0100
0010
0100
,  // measure 40
1000
0010
1000
0001
0000
0001
0010
0001
2000
0000
0000
3200
0000
0000
0320
0000
,  // measure 41
0031
0010
0001
1000
0000
1000
0010
0100
0001
1000
0001
1000
0001
0010
0001
0010
,  // measure 42
0100
1000
0100
0010
0000
0010
0001
0010
0100
0000
0000
1100
0000
1100
0000
0000
,  // measure 43
1000
0001
1000
0010
0100
0001
0100
0001
2000
0000
0000
0000
3020
0000
0230
0000
,  // measure 44
0301
0010
0001
1000
0000
0100
0010
0100
1000
0010
1000
0010
0100
0001
0100
0001
,  // measure 45
1000
0010
0100
0001
0000
0001
0010
0100
2000
0000
0000
3020
0000
0230
0000
0000
,  // measure 46
0301
0100
0001
1000
0000
0001
0010
0001
1000
0001
1000
0001
1000
0010
1000
0010
,  // measure 47
0100
0001
0100
0010
0000
1000
0001
1000
0200
0000
0000
0000
0000
0000
0000
0000
,  // measure 48
0300
0000
0000
0000
,  // measure 49
1002
0100
1000
0100
,  // measure 50
0013
0000
0001
0000
0100
0000
1000
0010
,  // measure 51
0200
0000
1000
0000
0000
0000
0301
2000
,  // measure 52
0000
0200
0000
0000
0000
0000
0000
0000
,  // measure 53
0300
0000
0010
0000
0200
0000
3300
0010
,  // measure 54
0100
0000
0000
0001
0000
0000
1000
0000
0200
0000
0000
0000
0300
0000
0000
0000
,  // measure 55
0010
0000
0000
0001
0000
0000
1000
0000
0020
0000
0000
0000
0030
0000
0000
0000
,  // measure 56
0100
0000
0000
0001
0000
0000
0010
0000
0200
0000
0000
0000
2000
0000
0000
0000
,  // measure 57
0000
0000
0300
0002
0000
0000
0000
0000
,  // measure 58
3000
0000
0100
0000
0010
0000
1003
0001
,  // measure 59
0100
0000
0000
0010
0000
0000
1000
0000
0200
0000
0000
0000
0300
0000
0000
0000
,  // measure 60
0010
0000
0000
0001
0000
0000
1000
0000
0020
0000
0000
0000
0030
0000
0000
0000
,  // measure 61
0100
0000
0000
0001
0000
0000
0010
0000
0200
0000
0000
0000
2000
0000
0000
0000
,  // measure 62
0000
0000
0300
0002
3000
0000
0100
0000
,  // measure 63
0010
1000
0100
0010
,  // measure 64
0103
0000
0000
0000
;
