#VERSION:0.83;
#TITLE:Ghost;
#SUBTITLE:;
#ARTIST:Gunship feat. Power Glove;
#TITLETRANSLIT:;
#SUBTITLETRANSLIT:;
#ARTISTTRANSLIT:;
#GENRE:Unicorn;
#ORIGIN:;
#CREDIT:[Ness];
#BANNER:Ghost.png;
#BACKGROUND:Ghost-bg.png;
#PREVIEWVID:Ghost-preview.avi;
#JACKET:Ghost-jacket.png;
#CDIMAGE:;
#DISCIMAGE:Ghost-bg.png;
#LYRICSPATH:Ghost.lrc;
#CDTITLE:;
#MUSIC:Ghost.mp3;
#OFFSET:-0.016000;
#SAMPLESTART:59.152412;
#SAMPLELENGTH:10.746269;
#SELECTABLE:YES;
#BPMS:0.000=134.000;
#STOPS:;
#DELAYS:;
#WARPS:;
#TIMESIGNATURES:0.000=3=4;
#TICKCOUNTS:0.000=2;
#COMBOS:0.000=1;
#SPEEDS:0.000=1.000=0.000=0;
#SCROLLS:0.000=1.000;
#FAKES:;
#LABELS:0.000=Song Start;
#LASTSECONDHINT:147.809143;
#BGCHANGES:0.000=Ghost.avi=1.000=1=0=0=StretchNoLoop==CrossFade==,
99999=-nosongbg-=1.000=0=0=0 // don't automatically add -songbackground-
;
#KEYSOUNDS:;
#ATTACKS:
;

//---------------dance-single - ----------------
#NOTEDATA:;
#CHARTNAME:;
#STEPSTYPE:dance-single;
#DESCRIPTION:;
#CHARTSTYLE:;
#DIFFICULTY:Hard;
#METER:8;
#RADARVALUES:0.439322,0.487361,0.180504,0.541513,0.000000,460.000000,433.000000,27.000000,81.000000,0.000000,0.000000,0.000000,0.000000,0.000000,0.439322,0.487361,0.180504,0.541513,0.000000,460.000000,433.000000,27.000000,81.000000,0.000000,0.000000,0.000000,0.000000,0.000000;
#CREDIT:;
#NOTES:
0000
0000
0000
0000
,
0000
0000
0000
0000
,
0000
0000
0000
0000
,
2002
0000
3003
0001
,
0001
0010
0000
0010
1000
0000
1000
0010
,
0000
0010
0001
0000
0000
0100
0000
0000
,
2100
0000
0000
3001
,
1000
0010
0000
0010
0001
0000
0001
0100
,
0000
0100
1000
0000
0000
0001
0000
0000
,
0202
0000
0000
0000
0303
0001
0010
0000
,
0010
1000
0000
1000
0100
0000
0100
0010
,
0000
0010
0001
0000
0000
1000
0000
0000
,
1020
0000
0000
0000
0000
0000
0130
0001
,
0000
0110
0000
0001
0010
1000
0000
0110
,
0000
1000
0200
0001
0000
0000
0300
0000
,
0110
0001
0010
1000
0010
0001
0000
0001
,
0010
1000
0010
0001
0110
0001
0010
1000
,
0010
0001
0000
0001
0010
1000
0010
0000
,
0110
1000
0100
0001
0100
1000
0000
0001
,
0100
1000
0100
0001
0000
1000
0100
0001
,
0100
1000
0000
0001
0010
1000
0010
0001
,
0110
0000
0000
1000
0000
0000
0001
0000
,
0001
0010
0000
0010
1000
0000
1000
0001
,
0000
0001
0100
0000
0000
0010
0000
0000
,
1100
0000
0000
0100
0000
0000
0001
0000
,
1000
0010
0000
0001
1000
0000
0100
0001
,
0000
1000
0100
0000
0000
0010
0000
0000
,
0022
0000
0000
0000
0033
0001
1000
0000
,
0010
0001
0000
1000
0001
0000
0010
1000
,
0000
0001
1000
0000
0000
0100
0000
0000
,
0110
0000
0000
0000
0000
0000
0001
0010
,
0000
1010
0000
0001
0100
1000
0000
0110
,
0000
0001
0010
1000
0100
0010
0001
0100
,
1001
0001
1000
0010
0001
0100
0000
1000
,
0001
0010
1000
0100
1001
0100
0001
0010
,
1000
0100
0000
1000
0001
0010
1000
0000
,
0110
0001
1000
0010
0001
0100
0000
0001
,
1000
0010
0001
0100
0000
0001
1000
0010
,
0001
0100
0000
0001
1000
0010
0100
0001
,
1001
1000
0010
0001
1000
0100
0000
0001
,
1000
0010
0001
1000
0000
0100
0001
1000
,
0010
0001
0000
1000
0100
0001
1000
0000
,
1001
0001
0010
1000
0001
0100
0000
1000
,
0001
0010
1000
0001
0000
0100
1000
0001
,
0010
1000
0000
0001
0100
1000
0001
0010
,
0100
0000
0000
1000
,
0000
0010
0000
0100
0001
0000
0000
1000
,
0000
0100
0000
0000
,
0000
0000
0000
0010
,
0000
0001
0000
0000
1000
0000
0000
0010
,
0000
0100
0000
0000
,
0000
0000
0000
0001
,
0000
0010
0000
0000
1000
0000
0000
0010
,
0000
0100
0000
0000
,
0000
0000
0000
0000
0000
0000
0001
0010
,
0000
0110
0000
1000
0100
0001
0000
0110
,
0000
0001
0010
1000
0000
0000
0000
0000
,
1001
0100
0001
1000
0010
0100
0001
1000
,
0001
0000
0001
0000
0011
0001
1000
0100
,
0010
0100
1000
0000
0010
1000
0100
0000
,
1100
0100
0010
0001
1000
0100
1000
0001
,
0010
0100
1000
0100
0010
0001
1000
0100
,
1000
0001
0010
0100
1000
0100
0001
0100
,
1000
1000
1000
0010
0001
0010
0100
0001
,
1000
0010
1000
0001
0100
0100
0001
1000
,
0010
0100
0001
0010
1000
0010
0001
0000
,
1001
0100
0010
1000
0100
1000
0001
0010
,
0100
1000
0100
0010
0001
1000
0010
0100
,
0001
1000
0001
0100
0010
1000
0100
0010
,
2001
3002
2003
3002
0023
0032
2003
3200
,
2300
3200
0302
0203
2300
3002
2003
3002
,
2003
3020
0230
0302
2003
3020
0032
0023
,
2030
3200
2300
3002
0023
2030
3020
0032
,
2003
3002
2003
3002
0203
2300
3200
0302
,
2003
3002
2003
3020
0032
0023
0230
0302
,
2003
3200
0320
2030
3020
0032
0203
0302
,
0023
0230
0302
0203
2300
3020
0230
2300
,
3200
0302
2003
3020
0032
2003
3200
0320
,
1030
0100
0001
0010
0001
0100
0000
1000
,
0010
0100
0100
0010
0000
0100
1000
0010
,
0001
0100
0000
0100
1000
0010
1000
0100
,
0001
0000
0000
0000
;

//---------------dance-single - ----------------
#NOTEDATA:;
#CHARTNAME:;
#STEPSTYPE:dance-single;
#DESCRIPTION:;
#CHARTSTYLE:;
#DIFFICULTY:Challenge;
#METER:9;
#RADARVALUES:0.429772,0.514437,0.187190,0.621737,0.163791,450.000000,412.000000,28.000000,93.000000,242.000000,18.000000,0.000000,0.000000,0.000000,0.429772,0.514437,0.187190,0.621737,0.163791,450.000000,412.000000,28.000000,93.000000,242.000000,18.000000,0.000000,0.000000,0.000000;
#CREDIT:;
#NOTES:
0000
0000
0000
0000
,
0000
0000
0000
0000
,
0000
0000
0000
0000
,
2222
0000
0000
0000
3333
0000
0001
M000
,
0001
0010
0000
0010
100M
0000
1000
0010
,
0M00
0010
0001
0000
0000
010M
0000
0000
,
2100
0000
00M0
0000
0000
0M00
3001
0000
,
100M
0010
0000
M010
0001
0000
0001
01M0
,
0000
010M
1000
0000
0M00
0001
0000
0000
,
2222
0000
0000
3333
0000
0001
M010
0000
,
0010
100M
0000
1000
01M0
0000
0100
0010
,
M000
0010
0001
0M00
0000
1000
000M
0000
,
1020
0000
0000
M000
0000
000M
0130
0001
,
0000
0110
M000
0001
0010
1000
000M
0110
,
0000
1000
0200
00M1
0000
0000
0300
0000
,
0110
0001
0010
1000
0010
0001
MMMM
0001
,
0010
1000
0010
0001
0110
0001
0010
1000
,
0010
0001
MMMM
0001
0010
1000
0010
0000
,
0110
1000
0100
0001
0100
1000
MMMM
0001
,
0100
1000
0100
0001
MMMM
1000
0100
0001
,
0100
1000
MMMM
0001
0010
1000
0010
0001
,
0200
0000
0000
0002
,
0000
1000
0000
0000
0010
0000
0000
1000
,
0000
1010
0303
0000
,
MMMM
0000
0000
0200
,
0000
2000
0000
0000
0001
0000
0000
0010
,
0000
0011
3300
0000
,
2222
0000
0000
3333
0000
0200
0020
0000
,
0000
1000
0000
0000
0001
0000
0000
1001
,
0000
1000
0330
0000
,
MMMM
0000
0000
0000
0000
0000
0001
0010
,
0M00
1010
0000
0001
0100
10M0
0000
0110
,
0000
M001
0010
1000
0100
0010
0001
0100
,
1001
0001
1000
0010
0001
0100
MMMM
1000
,
0001
0010
1000
0100
1001
0100
0001
0010
,
1000
0100
MMMM
1000
0001
0010
1000
0000
,
0110
0001
1000
0010
0001
0100
MMMM
0001
,
1000
0010
0001
0100
MMMM
0001
1000
0010
,
0001
0100
MMMM
0001
1000
0010
0100
0001
,
1001
1000
0010
0001
1000
0100
MMMM
0001
,
1000
0010
0001
1000
MMMM
0100
0001
1000
,
0010
0001
MMMM
1000
0100
0001
1000
0000
,
1001
0001
0010
1000
0001
0100
MMMM
1000
,
0001
0010
1000
0001
MMMM
0100
1000
0001
,
0010
1000
MMMM
0001
0100
1000
0001
0010
,
0100
0000
0000
0000
000M
0000
00M0
0000
0000
1000
0M00
0000
,
000M
0000
0000
0010
0000
0000
M000
0000
0000
0100
0000
0000
00M1
0000
0000
0000
0000
0000
0M00
0000
0000
1000
000M
0000
,
0000
00M0
0000
0100
M000
0000
0000
000M
0000
0000
0M00
0000
,
M000
0000
00M0
0000
0000
0000
0M00
0000
000M
0010
0000
M000
,
0000
0000
0000
0001
0M00
0000
0000
0000
0000
0000
00M0
0000
1000
0000
0000
0000
000M
0000
0000
0000
0000
0010
M000
0000
,
0000
0000
000M
0100
0000
00M0
0000
M000
0000
0M00
0000
000M
,
0000
00M0
0000
0M00
0000
M000
0000
00M0
0000
0M01
0000
M000
,
0000
0000
000M
0010
0000
0000
0M00
0000
0000
0000
00M0
0000
1000
0000
000M
0000
0000
0000
0M00
0000
0000
0010
M000
0000
,
0000
0000
000M
0000
0000
0000
01M0
0000
0000
0000
0M00
0000
0000
0000
0000
M000
0000
0000
00M0
0000
0000
000M
0000
0000
,
0M00
0000
0000
00M0
M000
0000
0M00
0000
000M
0000
00M0
0000
0M00
0000
M000
0000
00M0
0000
0M01
0000
M000
0010
0M00
0000
,
000M
0000
M000
0110
000M
0000
M000
0000
00M0
1000
000M
0000
01M0
0000
M000
0001
0M00
0000
M000
0000
000M
0110
M000
0000
,
0M00
0000
00M0
0001
0M00
0000
M010
0000
000M
1000
0M00
0000
000M
0000
00M0
0000
M000
0000
0000
0000
0000
0000
0000
0000
,
1110
0000
0001
1000
0010
0100
0001
M001
,
100M
0001
0001
0100
01M1
0001
1000
0100
,
0010
0M10
M100
1000
0001
1000
0100
0000
,
0111
0000
1000
001M
M001
0100
1000
0001
,
0010
0M10
1000
0100
0010
0001
1000
0100
,
1000
0001
0010
0100
1000
0M10
0001
0000
,
1101
0000
1000
0010
0001
0010
0100
0001
,
1000
10M0
M010
0001
0100
0100
0001
1000
,
0010
0100
0001
0010
1000
0010
0001
0000
,
1011
0000
0010
1000
0100
M100
0001
10M0
,
0M10
M001
0100
0010
0001
1000
0010
0M01
,
010M
M010
100M
0100
0010
1000
0100
0010
,
1002
0203
23M0
3200
0320
203M
3200
0302
,
0023
M032
0023
2M30
3200
0302
02M3
2300
,
3020
203M
3200
0320
M032
0203
23M0
3200
,
0302
0203
M320
0032
0203
23M0
3200
0302
,
0023
2M30
3020
0032
0203
2300
32M0
0302
,
M023
0230
2300
3M20
0032
0203
23M0
3200
,
0302
M023
0230
230M
3020
0230
2300
32M0
,
0302
M023
0230
2300
3002
2M03
3020
0032
,
0M23
2030
320M
0320
2030
3200
03M2
0203
,
1300
01M0
0001
M010
0001
0100
MMMM
1000
,
0010
010M
M100
0010
MMMM
0100
100M
0M10
,
M001
01M0
MMMM
010M
10M0
0M10
100M
01M0
,
M001
0000
0000
0000
;

//---------------dance-single - ----------------
#NOTEDATA:;
#CHARTNAME:;
#STEPSTYPE:dance-single;
#DESCRIPTION:;
#CHARTSTYLE:;
#DIFFICULTY:Medium;
#METER:6;
#RADARVALUES:0.322807,0.406135,0.080224,0.066853,0.000000,338.000000,326.000000,12.000000,10.000000,0.000000,0.000000,0.000000,0.000000,0.000000,0.322807,0.406135,0.080224,0.066853,0.000000,338.000000,326.000000,12.000000,10.000000,0.000000,0.000000,0.000000,0.000000,0.000000;
#CREDIT:;
#NOTES:
0000
0000
0000
0000
,
0000
0000
0000
0000
,
0000
0000
0000
0000
,
2002
0000
3003
0010
,
0000
1000
0000
0000
0100
0000
0000
0010
,
0000
0002
0000
0000
,
0103
0000
0000
0000
0000
0100
0001
0000
,
0000
1000
0000
0000
0010
0000
0000
0100
,
0000
0001
0000
0000
,
2002
0000
0000
0000
3003
1000
0010
0000
,
0000
1000
0000
0000
0001
0000
0000
0010
,
0000
0200
0000
0000
,
1300
0000
0000
0000
0000
0000
1000
0010
,
0000
1001
0000
0001
1000
0001
0000
0100
,
0000
1000
0001
0100
0000
0000
0000
0000
,
0001
0100
0001
0010
0001
0000
0000
0000
,
1000
0010
1000
0000
0100
1000
0001
1000
,
0100
0000
0000
0000
0010
0100
0010
0000
,
0001
0100
0001
0010
0001
0100
0000
0000
,
0001
0010
0001
0100
0000
0000
0001
0010
,
0001
0100
0000
0000
0001
0010
0001
0100
,
0000
0000
0000
0010
,
0000
1000
0000
0000
0100
0000
0000
0010
,
0000
0002
0000
0000
,
0013
0000
0000
0100
,
0000
1000
0000
0000
0010
0000
0000
1000
,
0000
0100
0000
0000
,
2002
0000
3003
0010
,
0000
0001
0000
0000
1000
0000
0000
0010
,
0000
0200
0000
0000
,
0301
0000
0000
0000
0000
0000
1000
0010
,
0000
1001
0000
0001
1000
0001
0000
0100
,
0000
1000
0001
0100
0000
0000
0000
0000
,
1001
0000
0010
1000
0100
1000
0000
0000
,
0001
0010
0001
0100
0000
0000
0010
1000
,
0001
0010
0000
0100
1000
0100
1000
0000
,
0001
0100
0001
0010
0001
0100
0000
0000
,
0001
1000
0001
0100
0000
0000
0010
1000
,
0010
0100
0000
0000
0001
0010
0100
0000
,
1100
0000
0100
0010
0100
1000
0000
0000
,
0001
0010
0100
0010
0000
0000
0001
0100
,
0001
1000
0000
0000
0010
1000
0100
0000
,
1001
0000
0100
0001
1000
0001
0000
0000
,
1000
0010
1000
0001
0000
0000
0010
0100
,
0010
0001
0000
0000
1000
0100
1000
0100
,
0000
0000
0000
1000
,
0000
0010
0000
0000
0100
0000
0000
0010
,
0000
0001
0000
0000
,
0000
0000
0000
0001
,
0000
0100
0000
0000
1000
0000
0000
0100
,
0000
0001
0000
0000
,
0000
0000
0000
0001
,
0000
0010
0000
0000
1000
0000
0000
0100
,
0000
0010
0000
0000
,
0000
0000
0000
0000
0000
0000
0001
1000
,
0000
0101
0000
1000
0001
1000
0000
0001
,
0000
0010
1000
0001
0000
0000
0000
0000
,
0100
1000
0100
1000
0010
0000
0000
0000
,
1000
0010
0001
0000
0010
0000
0001
0100
,
0010
0000
0000
0000
0001
0100
1000
0000
,
0001
0000
1000
0100
0010
0000
0000
0000
,
1000
0010
0001
0000
0010
0000
0001
0100
,
0010
0000
0000
0000
0001
0100
1000
0000
,
1000
0100
0001
0100
0010
0000
0000
0000
,
0001
1000
0001
0000
0001
0010
1000
0010
,
0100
0000
0000
0000
1000
0001
1000
0000
,
1001
0000
1000
0100
0010
0001
0100
0000
,
0100
0000
0100
0000
0001
0000
0001
0010
,
0100
1000
0010
0000
0010
0000
0010
0000
,
0110
0000
1000
0100
0010
0100
1000
0000
,
1000
0010
0100
0010
1000
0000
1000
0100
,
0001
0100
1000
0000
1000
0010
1000
0000
,
1001
0000
0001
0100
0010
0100
0001
0000
,
0001
0100
1000
0100
0001
0000
0001
0010
,
0100
0010
0001
0000
0001
0100
1000
0100
,
0001
0000
0001
0010
0100
1000
0100
0000
,
1000
0010
1000
0100
0010
0000
0010
0001
,
1000
0010
0100
0000
0100
0001
0010
0001
,
0100
0000
0010
1000
0001
0010
0100
0000
,
1000
0100
1000
0100
1000
0000
0001
0100
,
0010
1000
0100
0000
0001
0100
0010
1000
,
0100
0000
0000
0000
;

//---------------dance-single - ----------------
#NOTEDATA:;
#CHARTNAME:;
#STEPSTYPE:dance-single;
#DESCRIPTION:;
#CHARTSTYLE:;
#DIFFICULTY:Easy;
#METER:4;
#RADARVALUES:0.238762,0.297832,0.113651,0.120336,0.000000,250.000000,233.000000,17.000000,18.000000,0.000000,0.000000,0.000000,0.000000,0.000000,0.238762,0.297832,0.113651,0.120336,0.000000,250.000000,233.000000,17.000000,18.000000,0.000000,0.000000,0.000000,0.000000,0.000000;
#CREDIT:;
#NOTES:
// measure 0
0000
0000
0000
0000
,  // measure 1
0000
0000
0000
0000
,  // measure 2
0000
0000
0000
0000
,  // measure 3
2002
0000
3003
0010
,  // measure 4
0000
1000
0000
0000
0100
0000
0000
0010
,  // measure 5
0000
0001
0000
0000
,  // measure 6
0000
0000
0000
1000
,  // measure 7
0000
0001
0000
0000
0100
0000
0000
0010
,  // measure 8
0000
0100
0000
0000
,  // measure 9
0000
0000
0000
0001
,  // measure 10
0000
0010
0000
0000
0100
0000
0000
1000
,  // measure 11
0000
0010
0000
0000
,  // measure 12
0000
0000
0000
0100
,  // measure 13
0000
0001
0000
0000
0100
0000
0000
1000
,  // measure 14
0000
0100
0000
0000
,  // measure 15
0110
0001
0010
0001
,  // measure 16
1000
0100
1001
1000
,  // measure 17
0010
1000
0100
0010
,  // measure 18
0110
0010
0001
0100
,  // measure 19
0001
1000
0001
0010
,  // measure 20
0100
1000
0010
1000
,  // measure 21
0100
0000
0000
1000
,  // measure 22
0000
0010
0000
0000
1000
0000
0000
0100
,  // measure 23
0000
1000
0000
0000
,  // measure 24
0001
0000
0000
0100
,  // measure 25
0000
0001
0000
0000
0010
0000
0000
0001
,  // measure 26
0000
0100
0000
0000
,  // measure 27
2002
0000
3003
0010
,  // measure 28
0000
1000
0000
0000
0001
0000
0000
0010
,  // measure 29
0000
0100
0000
0000
,  // measure 30
1000
0000
0000
0001
,  // measure 31
0000
1000
0000
0000
0010
0000
0000
0100
,  // measure 32
0000
0001
0000
0000
,  // measure 33
1001
0100
0010
0001
,  // measure 34
0100
0001
1001
0001
,  // measure 35
1000
0100
0010
0100
,  // measure 36
1001
1000
0010
0001
,  // measure 37
1000
0010
0001
1000
,  // measure 38
0010
0001
1000
0010
,  // measure 39
0110
0001
0010
1000
,  // measure 40
0100
0010
0001
0100
,  // measure 41
1000
0010
0100
0001
,  // measure 42
1000
0001
0010
0100
,  // measure 43
1000
0010
0001
1000
,  // measure 44
0100
0001
0100
1000
,  // measure 45
0100
0000
0000
0010
,  // measure 46
0000
0001
0000
0000
1000
0000
0000
0001
,  // measure 47
0000
0100
0000
0000
,  // measure 48
0000
0000
0000
0001
,  // measure 49
0000
1000
0000
0000
0010
0000
0000
0100
,  // measure 50
0000
0001
0000
0000
,  // measure 51
0000
0000
0000
0010
,  // measure 52
0000
0001
0000
0000
1000
0000
0000
0100
,  // measure 53
0000
1000
0000
0000
,  // measure 54
0000
0000
0000
1000
,  // measure 55
0000
0010
0000
0000
0001
0000
0000
0010
,  // measure 56
0000
1000
0000
0000
,  // measure 57
1001
0100
0001
0100
,  // measure 58
0010
0010
1000
0100
,  // measure 59
1000
0001
0001
1000
,  // measure 60
1001
0010
1000
0010
,  // measure 61
0001
0100
0100
1000
,  // measure 62
0100
0001
0010
0100
,  // measure 63
1001
0001
0010
0001
,  // measure 64
1000
0001
1001
0001
,  // measure 65
0100
1000
0001
1000
,  // measure 66
1001
0100
1000
0100
,  // measure 67
0001
0100
1000
0100
,  // measure 68
0001
0100
1000
0001
,  // measure 69
2001
0002
3003
1000
,  // measure 70
2000
0010
3010
0002
,  // measure 71
1000
1003
0100
0010
,  // measure 72
1002
2000
3003
0020
,  // measure 73
1000
1030
0002
2003
,  // measure 74
3100
0100
0002
0013
,  // measure 75
2000
0100
0010
3001
,  // measure 76
1000
0002
0010
0100
,  // measure 77
1003
0010
0100
0001
,  // measure 78
2001
0010
0001
0100
,  // measure 79
0010
3010
0002
1000
,  // measure 80
0010
0100
1000
0100
,  // measure 81
1003
0000
0000
0000
;

//---------------dance-single - ----------------
#NOTEDATA:;
#CHARTNAME:;
#STEPSTYPE:dance-single;
#DESCRIPTION:;
#CHARTSTYLE:;
#DIFFICULTY:Beginner;
#METER:2;
#RADARVALUES:0.113651,0.162454,0.113651,0.000000,0.000000,119.000000,102.000000,17.000000,0.000000,0.000000,0.000000,0.000000,0.000000,0.000000,0.113651,0.162454,0.113651,0.000000,0.000000,119.000000,102.000000,17.000000,0.000000,0.000000,0.000000,0.000000,0.000000,0.000000;
#CREDIT:;
#NOTES:
// measure 0
0000
0000
0000
0000
,  // measure 1
0000
0000
0000
0000
,  // measure 2
0000
0000
0000
0000
,  // measure 3
1001
0000
0000
1000
,  // measure 4
0000
0000
0001
0000
,  // measure 5
0000
1000
0000
0000
,  // measure 6
0100
0000
0000
0010
,  // measure 7
0000
0000
0001
0000
,  // measure 8
0000
0100
0000
0000
,  // measure 9
1001
0000
0000
0100
,  // measure 10
0000
0000
0001
0000
,  // measure 11
0000
0100
0000
0000
,  // measure 12
1000
0000
0000
0100
,  // measure 13
0000
0000
0100
0000
,  // measure 14
0000
0100
0000
0000
,  // measure 15
0010
0000
0000
0000
,  // measure 16
0000
0000
1001
0000
,  // measure 17
0000
0000
0000
0000
,  // measure 18
0100
0000
0000
0000
,  // measure 19
0000
0000
0001
0000
,  // measure 20
0000
1000
0000
0000
,  // measure 21
0100
0000
0000
0010
,  // measure 22
0000
0000
0100
0000
,  // measure 23
0000
0010
0000
0000
,  // measure 24
0001
0000
0000
0100
,  // measure 25
0000
0000
0100
0000
,  // measure 26
0000
0010
0000
0000
,  // measure 27
1000
0000
0000
0100
,  // measure 28
0000
0000
0010
0000
,  // measure 29
0000
0001
0000
0000
,  // measure 30
1000
0000
0000
0001
,  // measure 31
0000
0000
1000
0000
,  // measure 32
0000
0100
0000
0000
,  // measure 33
1001
0000
0000
0000
,  // measure 34
0000
0000
1001
0000
,  // measure 35
0000
0000
0000
0000
,  // measure 36
1001
0000
0000
0100
,  // measure 37
0000
0000
0100
0000
,  // measure 38
0000
0100
0000
0000
,  // measure 39
1001
0000
0000
0000
,  // measure 40
0000
0000
1001
0000
,  // measure 41
0000
0000
0000
0000
,  // measure 42
1001
0000
0000
0010
,  // measure 43
0000
0000
0010
0000
,  // measure 44
0000
0010
0000
0000
,  // measure 45
0100
0000
0000
0001
,  // measure 46
0000
0000
0010
0000
,  // measure 47
0000
0100
0000
0000
,  // measure 48
1000
0000
0000
0100
,  // measure 49
0000
0000
1000
0000
,  // measure 50
0000
0100
0000
0000
,  // measure 51
0010
0000
0000
0001
,  // measure 52
0000
0000
0100
0000
,  // measure 53
0000
0001
0000
0000
,  // measure 54
0100
0000
0000
0001
,  // measure 55
0000
0000
0001
0000
,  // measure 56
0000
1000
0000
0000
,  // measure 57
1001
0000
0000
0010
,  // measure 58
0000
0000
1001
0000
,  // measure 59
0000
0010
0000
0000
,  // measure 60
1001
0000
0000
0100
,  // measure 61
0000
0000
0001
0000
,  // measure 62
0000
0100
0000
0000
,  // measure 63
1001
0000
0000
0010
,  // measure 64
0000
0000
1001
0000
,  // measure 65
0000
0010
0000
0000
,  // measure 66
1000
0000
0000
0100
,  // measure 67
0000
0000
0010
0000
,  // measure 68
0000
0001
0000
0000
,  // measure 69
0100
0000
0000
1000
,  // measure 70
1000
0000
0001
0000
,  // measure 71
0000
0100
0100
0000
,  // measure 72
0010
0000
0000
0100
,  // measure 73
0000
0000
0001
0000
,  // measure 74
0000
0010
0000
0000
,  // measure 75
1001
0000
0000
0010
,  // measure 76
0010
0000
0100
0000
,  // measure 77
0000
1000
1000
0000
,  // measure 78
1001
0000
0000
0010
,  // measure 79
0000
0000
0001
0000
,  // measure 80
0000
0010
0000
0000
,  // measure 81
1001
0000
0000
0000
;
