#VERSION:0.83;
#TITLE:Get Out;
#SUBTITLE:;
#ARTIST:CHVRCHES;
#TITLETRANSLIT:;
#SUBTITLETRANSLIT:;
#ARTISTTRANSLIT:;
#GENRE:Love Is Dead;
#ORIGIN:;
#CREDIT:;
#BANNER:Get Out-bn.png;
#BACKGROUND:Get Out-bg.png;
#PREVIEWVID:;
#JACKET:Get Out-jacket.png;
#CDIMAGE:;
#DISCIMAGE:;
#LYRICSPATH:;
#CDTITLE:;
#MUSIC:Get Out.mp3;
#OFFSET:-0.001000;
#SAMPLESTART:41.477367;
#SAMPLELENGTH:17.407410;
#SELECTABLE:YES;
#BPMS:0.000=161.980;
#STOPS:;
#DELAYS:;
#WARPS:;
#TIMESIGNATURES:0.000=4=4;
#TICKCOUNTS:0.000=4;
#COMBOS:0.000=1;
#SPEEDS:0.000=1.000=0.000=0;
#SCROLLS:0.000=1.000;
#FAKES:;
#LABELS:0.000=Song Start;
#LASTSECONDHINT:101.517372;
#BGCHANGES:0.000=Get Out-video.avi=1.000=0=0=0=StretchNoLoop====,
99999=-nosongbg-=1.000=0=0=0 // don't automatically add -songbackground-
;
#KEYSOUNDS:;
#ATTACKS:
;

//---------------dance-single - ----------------
#NOTEDATA:;
#CHARTNAME:;
#STEPSTYPE:dance-single;
#DESCRIPTION:;
#CHARTSTYLE:;
#DIFFICULTY:Challenge;
#METER:7;
#RADARVALUES:0.437050,0.549163,0.332538,0.313536,0.000000,322.000000,287.000000,35.000000,33.000000,0.000000,0.000000,0.000000,0.000000,0.000000,0.437050,0.549163,0.332538,0.313536,0.000000,322.000000,287.000000,35.000000,33.000000,0.000000,0.000000,0.000000,0.000000,0.000000;
#CREDIT:;
#NOTES:
0000
0000
0000
0000
,
0000
0000
0000
0000
,
0000
0000
0000
0000
,
0000
0000
0000
0000
,
0001
0100
0001
1000
0000
0100
1000
0010
,
0000
0100
0001
1000
0000
0100
1000
0001
,
0100
0001
1000
0100
0000
1000
0001
0010
,
0000
0001
1000
0001
0000
0100
0001
1000
,
0100
0010
0001
0100
0000
0010
1000
0001
,
0000
0010
0001
1000
0000
0010
1000
0001
,
0100
0001
1000
0100
0000
0010
0001
0100
,
0000
0001
1000
0100
0000
0010
0001
1000
,
0010
0100
0001
0010
0000
0100
1000
0001
,
0000
0100
0010
1000
0000
0010
0100
0001
,
1000
0010
0100
0001
0000
1000
0010
0100
,
0000
0010
1000
0001
0100
0001
1000
0100
,
0010
0001
1000
0010
0000
1000
0001
1000
,
0000
0100
1000
0001
0000
0100
0001
1000
,
0010
0100
0001
0010
0000
0100
1000
0010
,
0000
1000
0001
0010
0000
0100
1000
0000
,
0200
0000
0000
1300
,
0010
0002
0000
0010
,
0013
0000
0000
0100
0000
0000
2000
0000
,
0000
0000
0000
3000
0000
0000
0001
1000
,
0002
0000
0203
0000
,
0320
0000
0000
2030
0000
0000
0002
0000
,
0000
0000
0000
0000
,
0000
0000
3003
0000
0001
1000
0001
1000
,
1001
0010
0000
0010
1000
0000
0000
1001
,
0000
0101
0000
1000
0001
0000
0000
1100
,
0000
1001
0000
1000
0100
0000
0010
0001
,
0100
0000
0010
0000
0100
0000
0001
1000
,
0010
0100
0000
0100
0001
0000
0000
0011
,
0000
1001
0000
1000
0010
0000
0000
1010
,
0000
0101
0000
0100
0010
0000
1000
0001
,
0100
0000
0000
0000
,
0001
0100
1000
0001
0010
1000
0001
0100
,
1000
0001
0010
1000
0001
1000
0100
0010
,
0001
1000
0100
0001
1000
0010
0001
0000
,
0000
0010
0100
0000
1000
0000
0001
1000
,
0010
0100
0000
0010
1001
0000
0000
1010
,
0000
1001
0000
0010
1001
0000
0000
0101
,
0000
1001
0000
0001
0100
0000
0010
1000
,
0100
0000
0000
0010
0001
1000
0010
0100
,
0002
0000
0000
0013
0000
0010
0220
0000
,
0330
0000
0000
1000
0010
0100
0001
0010
,
0110
0000
0000
1001
0000
0000
0220
0000
,
0330
0000
1000
0000
0010
1000
0001
0100
,
0010
0000
0000
1010
0000
0000
0101
0000
,
0000
0000
0001
0000
0010
0001
1000
0100
,
1100
0000
0000
0011
0000
0000
2002
0000
,
3003
0000
0000
0001
1000
0010
0100
0001
,
0010
0000
0000
0100
0000
1000
0002
0000
,
0003
0000
0000
0010
0100
1000
0010
0100
,
1001
0000
0000
0110
0000
0000
2002
0000
,
3003
0000
0100
0000
0001
0010
0100
1000
,
0010
0000
0000
0100
0000
0000
0101
0000
,
0000
0000
0001
0000
1000
0001
0010
0100
,
1100
0000
0000
0011
0000
0000
1001
0000
,
0000
0000
0010
1000
,
0002
0000
0000
0020
0000
0000
0000
0000
,
0000
0000
0000
0033
,
0200
0000
0000
2000
0000
0300
0002
0000
,
0000
0000
0000
3003
0010
0001
1000
0001
,
0200
0000
0300
0020
0000
0030
2002
0000
,
0000
0000
3003
0000
0010
1000
0001
0100
,
2002
0000
3003
0220
0000
0330
2002
0000
,
0000
0000
0000
0000
,
3003
0000
0000
0000
;

//---------------dance-single - ----------------
#NOTEDATA:;
#CHARTNAME:;
#STEPSTYPE:dance-single;
#DESCRIPTION:;
#CHARTSTYLE:;
#DIFFICULTY:Hard;
#METER:6;
#RADARVALUES:0.359684,0.452252,0.199523,0.418048,0.000000,265.000000,244.000000,21.000000,44.000000,0.000000,0.000000,0.000000,0.000000,0.000000,0.359684,0.452252,0.199523,0.418048,0.000000,265.000000,244.000000,21.000000,44.000000,0.000000,0.000000,0.000000,0.000000,0.000000;
#CREDIT:;
#NOTES:
0000
0000
0000
0000
,
0000
0000
0000
0000
,
0000
0000
0000
0000
,
0000
0000
0000
0000
,
0001
0010
0100
1000
,
0010
0000
0100
0001
0000
1000
0100
0000
,
0010
0001
1000
0010
,
0100
0000
0001
1000
0001
0100
0001
1000
,
0010
0100
0010
0100
,
0010
0000
0100
0000
0010
1000
0001
0100
,
0010
1000
0001
0010
,
0100
1000
0001
0100
,
0010
1000
0001
0010
,
0100
0000
1000
0001
0000
1000
0100
0000
,
0010
0001
0100
0010
,
1000
0000
0001
1000
0010
0100
0001
0010
,
0100
1000
0001
1000
,
0010
0000
0100
0000
0001
0010
0100
1000
,
0010
0000
0100
0001
0000
1000
0100
0000
,
0010
0001
1000
0001
,
0200
0000
0000
0301
,
1000
0002
0000
0010
,
0013
0000
0000
0100
0000
0000
2000
0000
,
0000
0000
0000
3000
0000
0000
0001
1000
,
0002
0000
0203
0000
,
0320
0000
0000
2030
0000
0000
0002
0000
,
0000
0000
0000
0000
,
0000
0000
3003
0000
0001
1000
0001
1000
,
0001
0010
0000
0100
1000
0000
0000
1010
,
0000
1001
0000
1000
0001
0000
0000
0011
,
0000
1001
0000
0001
1000
0000
0010
1000
,
0200
0000
0000
0000
0300
0000
0010
0001
,
1000
0010
0000
0100
0001
0000
0000
1010
,
0000
1001
0000
1000
0001
0000
0000
1010
,
0000
1001
0000
1000
0001
0000
0010
0001
,
0200
0000
0300
0000
,
0001
1000
0000
1000
0010
0000
0010
0100
,
0000
0100
0001
0000
1000
0000
0001
0000
,
0100
0010
0000
0010
1000
0000
0001
0000
,
0000
0010
0000
0000
0100
0000
1000
0001
,
0100
0010
0000
1000
0001
0000
0000
1001
,
0000
1010
0000
0001
1000
0000
0000
1001
,
0000
0011
0000
1000
0001
0000
0010
0001
,
0200
0000
0300
0010
1000
0001
0100
0010
,
2000
0000
0000
3001
0000
0010
0100
0000
,
0000
0000
0000
1000
0001
1000
0100
1000
,
0002
0000
0000
0013
0000
0100
1000
0000
,
0000
0000
0000
0000
0010
1000
0001
0100
,
0020
0000
0000
1030
0000
0000
2002
0000
,
3003
0000
0000
0000
0010
0001
1000
0100
,
0020
0000
0000
0031
0000
0000
2002
0000
,
3003
0000
0000
0001
0010
0100
1000
0010
,
0200
0000
0000
0301
0000
1000
0001
0000
,
0000
0000
0000
0010
0100
1000
0001
0100
,
0020
0000
0000
1030
0000
0000
2002
0000
,
3003
0000
0000
0000
0001
0010
0100
1000
,
0020
0000
0000
0130
0000
0000
2002
0000
,
3003
0000
0000
0000
0010
1000
0001
0100
,
0020
0000
0000
1030
0000
0000
2002
0000
,
3003
0000
0000
0000
,
0002
0000
0000
0020
0000
0000
0000
0000
,
0000
0000
0000
0033
,
0200
0000
0000
2000
0000
0300
0002
0000
,
0000
0000
0000
3003
0010
0001
1000
0001
,
0200
0000
0300
0020
0000
0030
2002
0000
,
0000
0000
3003
0000
0010
1000
0001
0100
,
2002
0000
3003
0220
0000
0330
2002
0000
,
0000
0000
0000
0000
,
3003
0000
0000
0000
;

//---------------dance-single - ----------------
#NOTEDATA:;
#CHARTNAME:;
#STEPSTYPE:dance-single;
#DESCRIPTION:;
#CHARTSTYLE:;
#DIFFICULTY:Medium;
#METER:5;
#RADARVALUES:0.264673,0.387645,0.000000,0.285033,0.000000,195.000000,195.000000,0.000000,30.000000,0.000000,0.000000,0.000000,0.000000,0.000000,0.264673,0.387645,0.000000,0.285033,0.000000,195.000000,195.000000,0.000000,30.000000,0.000000,0.000000,0.000000,0.000000,0.000000;
#CREDIT:;
#NOTES:
0000
0000
0000
0000
,
0000
0000
0000
0000
,
0000
0000
0000
0000
,
0000
0000
0000
0000
,
0002
0003
0020
0030
,
0100
0000
0000
1000
0000
0000
0002
0000
,
0000
0000
0003
0000
,
0000
0000
1000
0010
1000
0010
1000
0010
,
2000
0002
3003
0000
,
0000
0000
0000
0000
0001
0010
0001
0010
,
0002
0000
0000
1003
0000
0000
0000
0000
,
0000
0000
0000
0100
,
0020
0030
2000
3000
,
0001
0000
0000
0010
0000
0000
0200
0000
,
0000
0000
0300
0000
,
0000
0000
1000
0001
1000
0001
1000
0001
,
2000
0002
3003
0000
,
0000
0000
0000
0000
0010
0100
0010
0100
,
0020
0000
0000
1030
0000
0000
0002
0000
,
0003
0020
0030
0200
,
0000
0300
0000
1000
,
0001
0200
0000
0301
,
1000
0000
0000
0010
0000
0000
0100
0000
,
0000
0000
0000
0000
0000
0000
0010
1000
,
0020
0030
0200
0300
,
0001
0000
0000
0010
0000
0000
0200
0000
,
0000
0000
0300
0000
,
0000
0000
0000
0000
1000
0001
1000
0001
,
1000
0010
0000
1000
0010
0000
0000
1000
,
0000
1000
0000
1000
0001
0000
0000
0001
,
0000
0001
0000
0001
1000
0000
0010
0000
,
0100
0000
0000
0000
0000
0000
0010
1000
,
0010
1000
0000
0001
0010
0000
0000
0001
,
0000
0001
0000
0001
1000
0000
0000
0100
,
0000
0100
0000
0100
0010
0000
0001
0000
,
0100
0000
0000
0000
,
0001
0000
0000
0010
0000
0000
1000
0000
,
0000
0100
0000
0000
0001
0000
0010
0000
,
0100
0000
0000
1000
0000
0000
0010
0000
,
0000
0001
0000
0000
0000
0000
1000
0001
,
1000
0001
0000
0100
0010
0000
0000
1000
,
0000
0001
0000
0010
0100
0000
0000
1000
,
0000
0001
0000
1000
0010
0000
0100
0000
,
0001
0000
0000
0010
0100
0010
0100
0010
,
0100
0000
0000
1000
0000
0000
0001
0000
,
0000
0000
0000
0010
0001
0010
0001
0010
,
0001
0000
0000
1000
0000
0000
0100
0000
,
0000
0000
0000
0000
0010
0001
0010
0001
,
0010
0000
0000
0100
0000
0000
1000
0000
,
0000
0000
0000
0000
0010
1000
0010
1000
,
0010
0000
0000
0100
0000
0000
0001
0000
,
0000
0000
0000
0001
1000
0001
1000
0001
,
1000
0000
0000
0001
0000
0000
0100
0000
,
0000
0000
0000
0010
1000
0010
1000
0010
,
1000
0000
0000
0010
0000
0000
0100
0000
,
0000
0000
0000
0000
0001
1000
0001
1000
,
0001
0000
0000
0010
0000
0000
0100
0000
,
0000
0000
0000
0000
1000
0001
1000
0001
,
1000
0000
0000
0010
0000
0000
0100
0000
,
0000
0000
0000
0000
,
0002
0000
0000
0020
0000
0000
0000
0000
,
0033
0000
0000
0000
,
0200
0000
0000
2300
0000
0000
3002
0000
,
0000
0000
0000
0003
1000
0001
1000
0001
,
2000
0000
3000
0002
0000
0003
0200
0000
,
0300
0000
0000
0000
0001
1000
0001
1000
,
0002
0000
0003
2000
0000
3000
0200
0000
,
0000
0000
0000
0000
,
0300
0000
0000
0000
;

//---------------dance-single - ----------------
#NOTEDATA:;
#CHARTNAME:;
#STEPSTYPE:dance-single;
#DESCRIPTION:;
#CHARTSTYLE:;
#DIFFICULTY:Easy;
#METER:3;
#RADARVALUES:0.207667,0.254629,0.000000,0.408547,0.000000,153.000000,153.000000,0.000000,43.000000,0.000000,0.000000,0.000000,0.000000,0.000000,0.207667,0.254629,0.000000,0.408547,0.000000,153.000000,153.000000,0.000000,43.000000,0.000000,0.000000,0.000000,0.000000,0.000000;
#CREDIT:;
#NOTES:
// measure 0
0000
0000
0000
0000
,  // measure 1
0000
0000
0000
0000
,  // measure 2
0000
0000
0000
0000
,  // measure 3
0000
0000
0000
0000
,  // measure 4
0001
0000
0100
0000
,  // measure 5
0010
0000
1000
0000
,  // measure 6
0100
0000
0010
0000
,  // measure 7
0001
1000
0001
1000
,  // measure 8
0001
0000
0100
0000
,  // measure 9
0010
0000
1000
0001
,  // measure 10
1000
0000
0010
0000
,  // measure 11
0100
0000
0001
0000
,  // measure 12
0010
0000
0100
0000
,  // measure 13
1000
0000
0001
0000
,  // measure 14
0100
0000
0010
0000
,  // measure 15
1000
0100
0010
0001
,  // measure 16
1000
0000
0001
0000
,  // measure 17
1000
0000
0001
0010
,  // measure 18
0100
0000
1000
0000
,  // measure 19
0001
0000
0100
0000
,  // measure 20
0020
0000
0030
1000
,  // measure 21
1000
0100
0000
0010
,  // measure 22
0010
0000
0001
0000
,  // measure 23
0200
0000
0300
0001
,  // measure 24
0002
0003
2000
3000
,  // measure 25
0200
0300
0020
0030
,  // measure 26
0200
0000
0000
0000
,  // measure 27
0300
0000
1000
1000
,  // measure 28
0002
0003
0020
0030
,  // measure 29
0100
1000
0002
0003
,  // measure 30
0100
0001
2000
3000
,  // measure 31
0010
0000
0100
0000
,  // measure 32
0001
0010
0200
0300
,  // measure 33
1000
0010
0200
0300
,  // measure 34
0001
0010
0100
1000
,  // measure 35
0002
0003
0020
0030
,  // measure 36
0100
1000
0100
2000
,  // measure 37
3000
1000
0001
0000
,  // measure 38
0001
0100
0001
0200
,  // measure 39
0300
0100
0010
0000
,  // measure 40
1000
0100
0020
0030
,  // measure 41
0001
0010
0200
0300
,  // measure 42
1000
0010
0100
0001
,  // measure 43
1000
0000
0010
0000
,  // measure 44
0200
0300
0200
0300
,  // measure 45
0001
0000
0010
0100
,  // measure 46
2000
3000
2000
3000
,  // measure 47
0001
0000
0010
0001
,  // measure 48
2000
3000
0020
0030
,  // measure 49
0100
0000
0001
0010
,  // measure 50
0200
0300
2000
3000
,  // measure 51
0001
0000
0100
0100
,  // measure 52
0020
0030
2000
3000
,  // measure 53
0100
0000
0010
0010
,  // measure 54
0002
0003
2000
3000
,  // measure 55
0010
0000
0100
0100
,  // measure 56
0002
0003
0020
0030
,  // measure 57
0100
0000
1000
1000
,  // measure 58
0002
0003
0200
0300
,  // measure 59
0010
0000
1000
0000
,  // measure 60
0200
0000
0000
0000
,  // measure 61
0300
0000
0000
0000
,  // measure 62
0020
0030
0002
0003
,  // measure 63
2000
3000
0100
0100
,  // measure 64
0020
0030
0020
0030
,  // measure 65
0001
0000
1000
0010
,  // measure 66
2000
3000
2000
3000
,  // measure 67
0001
0000
0000
0000
;

//---------------dance-single - ----------------
#NOTEDATA:;
#CHARTNAME:;
#STEPSTYPE:dance-single;
#DESCRIPTION:;
#CHARTSTYLE:;
#DIFFICULTY:Beginner;
#METER:1;
#RADARVALUES:0.142516,0.158550,0.000000,0.019002,0.000000,105.000000,105.000000,0.000000,2.000000,0.000000,0.000000,0.000000,0.000000,0.000000,0.142516,0.158550,0.000000,0.019002,0.000000,105.000000,105.000000,0.000000,2.000000,0.000000,0.000000,0.000000,0.000000,0.000000;
#CREDIT:;
#NOTES:
// measure 0
0000
0000
0000
0000
,  // measure 1
0000
0000
0000
0000
,  // measure 2
0000
0000
0000
0000
,  // measure 3
0000
0000
0000
0000
,  // measure 4
0001
0000
0100
0000
,  // measure 5
0010
0000
1000
0000
,  // measure 6
0100
0000
0010
0000
,  // measure 7
0001
0000
1000
0000
,  // measure 8
0001
0000
0100
0000
,  // measure 9
0010
0000
1000
0000
,  // measure 10
1000
0000
0010
0000
,  // measure 11
0100
0000
0001
0000
,  // measure 12
0010
0000
0100
0000
,  // measure 13
1000
0000
0001
0000
,  // measure 14
0100
0000
0010
0000
,  // measure 15
1000
0000
0001
0000
,  // measure 16
1000
0000
0001
0000
,  // measure 17
1000
0000
0001
0000
,  // measure 18
0100
0000
1000
0000
,  // measure 19
0001
0000
0100
0000
,  // measure 20
0010
0000
0000
0000
,  // measure 21
1000
0000
0000
0000
,  // measure 22
0010
0000
0001
0000
,  // measure 23
0100
0000
0000
0000
,  // measure 24
0001
0000
1000
0000
,  // measure 25
0100
0000
0010
0000
,  // measure 26
0100
0000
0000
0000
,  // measure 27
0000
0000
1000
0000
,  // measure 28
0001
0000
0010
0000
,  // measure 29
0100
0000
0001
0000
,  // measure 30
0100
0000
1000
0000
,  // measure 31
0010
0000
0100
0000
,  // measure 32
0001
0000
0100
0000
,  // measure 33
1000
0000
0100
0000
,  // measure 34
0001
0000
0100
0000
,  // measure 35
0001
0000
0010
0000
,  // measure 36
0100
0000
0000
1000
,  // measure 37
0000
0000
0001
0000
,  // measure 38
0100
0000
0000
0001
,  // measure 39
0000
0000
1000
0000
,  // measure 40
0010
0000
0100
0000
,  // measure 41
0001
0000
0100
0000
,  // measure 42
1000
0000
0100
0000
,  // measure 43
0001
0000
0010
0000
,  // measure 44
0100
0000
0000
0100
,  // measure 45
0000
0000
0010
0000
,  // measure 46
0001
0000
0000
0001
,  // measure 47
0000
0000
1000
0000
,  // measure 48
0010
0000
0000
0100
,  // measure 49
0000
0000
0001
0000
,  // measure 50
0010
0000
0000
0100
,  // measure 51
0000
0000
1000
0000
,  // measure 52
0010
0000
0000
1000
,  // measure 53
0000
0000
0010
0000
,  // measure 54
0100
0000
0000
0001
,  // measure 55
0000
0000
1000
0000
,  // measure 56
0100
0000
0000
0010
,  // measure 57
0000
0000
0001
0000
,  // measure 58
1000
0000
0000
0010
,  // measure 59
0000
0000
0100
0000
,  // measure 60
0002
0000
0000
0000
,  // measure 61
0003
0000
0000
0000
,  // measure 62
2000
0000
0000
0000
,  // measure 63
3000
0000
0010
0000
,  // measure 64
0010
0000
0000
0100
,  // measure 65
0000
0000
0001
0000
,  // measure 66
1000
0000
0000
0100
;
