#VERSION:0.83;
#TITLE:Gemini;
#SUBTITLE:;
#ARTIST:What So Not ft. George Maple;
#TITLETRANSLIT:;
#SUBTITLETRANSLIT:;
#ARTISTTRANSLIT:;
#GENRE:Stereosonic Festival Anthems 2015;
#ORIGIN:;
#CREDIT:;
#BANNER:Gemini-bn.png;
#BACKGROUND:Gemini-bg.png;
#PREVIEWVID:Gemini-preview.avi;
#JACKET:Gemini-jacket.png;
#CDIMAGE:;
#DISCIMAGE:;
#LYRICSPATH:;
#CDTITLE:;
#MUSIC:Gemini.mp3;
#OFFSET:-0.022000;
#SAMPLESTART:46.038528;
#SAMPLELENGTH:26.301373;
#SELECTABLE:YES;
#DISPLAYBPM:146.000000;
#BPMS:0.000=146.000;
#STOPS:;
#DELAYS:;
#WARPS:;
#TIMESIGNATURES:0.000=4=4;
#TICKCOUNTS:0.000=2;
#COMBOS:0.000=1;
#SPEEDS:0.000=1.000=0.000=0;
#SCROLLS:0.000=1.000;
#FAKES:;
#LABELS:0.000=Song Start;
#LASTSECONDHINT:139.797165;
#BGCHANGES:0.000=Gemini-video.avi=1.000=1=0=1===CrossFade==,
99999=-nosongbg-=1.000=0=0=0 // don't automatically add -songbackground-
;
#KEYSOUNDS:;
#ATTACKS:
;

//---------------dance-single - ----------------
#NOTEDATA:;
#CHARTNAME:;
#STEPSTYPE:dance-single;
#DESCRIPTION:;
#CHARTSTYLE:;
#DIFFICULTY:Challenge;
#METER:9;
#RADARVALUES:0.478267,0.703472,0.461293,0.363443,0.073388,479.000000,413.000000,66.000000,52.000000,0.000000,0.000000,0.000000,0.000000,0.000000,0.478267,0.703472,0.461293,0.363443,0.073388,479.000000,413.000000,66.000000,52.000000,0.000000,0.000000,0.000000,0.000000,0.000000;
#CREDIT:;
#DISPLAYBPM:146.000000;
#NOTES:
0000
0000
0000
0000
,
0000
0000
0000
0000
,
0000
0000
0000
0000
,
0000
0000
0000
0000
,
0100
0000
0010
0000
1000
0100
0001
0100
,
1000
0010
0100
0001
,
0010
0000
0100
0000
0010
0001
0100
0001
,
0010
1000
0010
0000
0100
0000
1000
0000
,
0001
0000
0100
0000
0010
1000
0010
0100
,
1000
0100
0001
0100
,
0010
0000
1000
0000
0001
0100
0010
0001
,
0010
0100
0001
0000
1000
0000
0100
1000
,
0100
0000
0010
0000
0001
1000
0010
0001
,
1000
0100
0001
0100
,
1000
0000
0100
0000
0001
0100
0010
0000
,
0002
0000
0103
0000
1000
0001
0100
0001
,
1000
0000
0010
0000
0100
1000
0100
0010
,
1000
0100
0001
0100
,
1000
0000
0010
0000
0100
0001
1000
0100
,
0020
0000
1030
0010
0002
0000
0103
0001
,
0100
0000
0000
0000
0020
0000
0000
1030
,
0001
1000
0001
0000
0000
0000
0000
0000
0000
0000
0000
0000
0000
0000
0000
0000
,
0000
0000
0010
0000
,
0100
0000
1000
0000
0001
0000
0000
0100
,
0010
0000
1000
0010
0100
0000
0101
0000
,
1000
0010
0100
0000
0101
0000
1000
0010
,
0100
0000
0101
0000
1000
0010
0100
0000
,
0001
1000
0010
0100
0001
1000
0010
0000
,
1000
0010
0100
0010
0101
0000
1000
0010
,
0100
0010
0101
0000
2002
0000
3003
0000
,
1000
0010
0100
0010
0101
0000
1000
0010
,
0100
0010
0101
0000
1001
1000
0010
0100
,
0001
0100
0001
0000
0010
0000
0100
0000
1000
0100
1000
0000
0010
0100
0010
0000
,
0100
0000
0001
0000
1000
0001
1000
0000
0100
0000
0010
0000
0001
0100
0001
0000
,
0100
0010
0100
0000
0010
0000
1000
0000
0001
1000
0001
0000
0100
0000
0001
0000
,
1000
0100
1000
0000
0100
0000
0010
0000
0001
0010
0001
0000
1000
0100
1000
0000
,
0001
0010
0100
0010
1100
0000
0001
0010
,
0100
0010
1100
0000
2002
0000
3003
0000
,
0001
0010
0100
0010
1100
0000
0001
0010
,
0100
0010
1100
0000
1001
0001
0010
0100
,
1000
0100
1000
0000
0010
0000
0100
0000
0001
0100
0001
0000
0010
0100
0010
0000
,
0100
0000
1000
0000
0001
1000
0001
0000
0100
0000
0010
0000
1000
0100
1000
0000
,
0100
0010
0100
0000
0010
0000
0001
0000
1000
0001
1000
0000
0100
0000
1000
0000
,
0001
0100
0001
0000
0100
0000
0010
0000
1000
0010
1000
0000
0001
0100
0001
0000
,
0010
0000
0100
0000
1000
0010
0001
0100
,
0010
1000
0100
0001
,
0010
0000
1000
0000
0100
0001
0010
1000
,
0100
0001
0010
0100
2000
0000
0010
0100
,
3010
0000
0100
0000
0001
0010
1000
0010
,
0001
0100
0010
1000
,
0100
0000
0001
0000
1000
0010
0001
1000
,
0100
0001
0100
0000
0020
0000
1000
0100
,
1030
0000
0100
0000
0001
0010
0100
1000
,
0010
0001
0100
1000
,
0010
0000
0001
0000
1000
0100
0010
0000
,
2000
0000
0100
0000
3001
1000
0100
0000
,
0010
0000
0001
0000
0100
1000
0010
0001
,
0100
0010
1000
0100
,
0001
0000
0010
0000
1000
0100
0001
0000
,
0020
0000
0100
0000
1030
0001
0100
0000
,
0010
2020
3030
2200
,
3300
0202
0303
0022
,
0033
2200
3300
0011
,
1100
0000
1100
0000
0101
1010
1100
0011
,
0000
2200
3300
2020
,
3030
0202
0303
0011
,
1100
0000
0101
0000
1010
0010
1001
0001
,
0101
0100
1001
1000
0011
0010
1100
0100
,
1001
0202
0303
2002
,
3003
2200
3300
2020
,
3030
2200
3300
1001
,
1100
0000
0101
0000
1100
0101
0011
0101
,
0000
0022
0033
2020
,
3030
2200
3300
0101
,
0110
0000
1100
0000
1001
0100
1001
0010
,
1001
0001
1001
1000
1010
0010
0101
0100
,
2002
0000
0000
3003
,
0000
0000
0020
0000
,
2030
0000
3100
0000
,
0010
0000
0001
0000
,
0101
0000
0000
0000
,
2000
0000
0000
0000
,
3000
0000
0200
0000
,
0320
0000
0000
0000
0032
0000
0000
0103
;

//---------------dance-single - ----------------
#NOTEDATA:;
#CHARTNAME:;
#STEPSTYPE:dance-single;
#DESCRIPTION:;
#CHARTSTYLE:;
#DIFFICULTY:Hard;
#METER:8;
#RADARVALUES:0.420356,0.527604,0.314518,0.342475,0.000000,421.000000,376.000000,45.000000,49.000000,0.000000,0.000000,0.000000,0.000000,0.000000,0.420356,0.527604,0.314518,0.342475,0.000000,421.000000,376.000000,45.000000,49.000000,0.000000,0.000000,0.000000,0.000000,0.000000;
#CREDIT:;
#DISPLAYBPM:146.000000;
#NOTES:
// measure 0
0000
0000
0000
0000
,  // measure 1
0000
0000
0000
0000
,  // measure 2
0000
0000
0000
0000
,  // measure 3
0000
0000
0000
0000
,  // measure 4
0100
0000
0010
0000
1000
0100
0010
0100
,  // measure 5
1000
0010
0100
0001
,  // measure 6
0010
0000
0100
0000
0010
0001
0100
0001
,  // measure 7
0010
0100
0010
0000
0100
0000
1000
0000
,  // measure 8
0001
0000
0100
0000
0010
1000
0010
0100
,  // measure 9
0001
0100
0010
0100
,  // measure 10
0001
0000
1000
0000
0001
0010
0100
1000
,  // measure 11
0100
0010
0001
0000
1000
0000
0100
1000
,  // measure 12
0100
0000
0010
0000
0001
1000
0010
0100
,  // measure 13
0001
1000
0010
0100
,  // measure 14
0001
0000
0010
0000
0100
1000
0010
0000
,  // measure 15
0200
0000
0301
0000
0100
0001
1000
0001
,  // measure 16
0100
0000
0010
0000
1000
0100
0010
0001
,  // measure 17
1000
0100
0001
0100
,  // measure 18
1000
0000
0010
0000
0100
0001
1000
0100
,  // measure 19
0010
0000
0001
0010
0100
0000
0100
1000
,  // measure 20
0002
0000
0203
0000
,  // measure 21
0310
0000
0000
0000
,  // measure 22
0000
0000
1000
0000
,  // measure 23
0010
0000
0000
0000
0100
0000
0000
0001
,  // measure 24
1000
0000
0001
0010
0100
0000
0110
0000
,  // measure 25
1000
0010
0100
0000
0110
0000
0001
0010
,  // measure 26
0100
0000
0110
0000
1000
0010
0100
0000
,  // measure 27
0001
1000
0001
1000
0001
1000
0100
0000
,  // measure 28
1000
0010
0100
0010
0101
0000
1000
0010
,  // measure 29
0100
0010
0101
0000
2002
0000
3003
0000
,  // measure 30
1000
0010
0100
0010
0101
0000
1000
0010
,  // measure 31
0100
0010
0101
0000
1001
1000
0010
0100
,  // measure 32
0001
0100
0001
0000
1000
0010
0100
0000
,  // measure 33
0010
1000
0100
0000
1000
0001
0100
0000
,  // measure 34
0010
1000
0100
1000
0010
1000
0100
0000
,  // measure 35
0010
0001
1000
0001
0010
0100
1000
0000
,  // measure 36
0001
0010
0100
0010
1100
0000
0001
0010
,  // measure 37
0100
0010
1100
0000
2002
0000
3003
0000
,  // measure 38
0001
0010
0100
0010
1100
0000
0001
0010
,  // measure 39
0100
0010
1100
0000
1001
0001
0010
0100
,  // measure 40
1000
0100
1000
0000
0001
0010
0100
0000
,  // measure 41
0010
0001
0100
0000
0001
1000
0100
0000
,  // measure 42
0010
0001
0100
0001
0010
0001
0100
0000
,  // measure 43
0010
1000
0001
1000
0010
0100
0001
0000
,  // measure 44
0010
0000
0100
0000
1000
0010
0001
0010
,  // measure 45
1000
0100
0001
0100
,  // measure 46
0010
0000
0001
0000
0100
0001
0010
0100
,  // measure 47
1000
0001
0100
0000
0010
0000
1000
0010
,  // measure 48
1000
0000
0100
0000
0010
0001
1000
0010
,  // measure 49
0100
0001
0010
0100
,  // measure 50
1000
0000
0010
0000
0100
0001
1000
0001
,  // measure 51
0100
0010
0100
0000
0010
0000
1000
0100
,  // measure 52
1000
0000
0100
0000
0010
0001
1000
0100
,  // measure 53
0010
0001
0100
0010
,  // measure 54
1000
0000
0001
0000
1000
0100
0010
0000
,  // measure 55
0002
0000
0100
0000
1003
0001
0100
0000
,  // measure 56
0010
0000
0001
0000
0100
0010
1000
0001
,  // measure 57
0100
0010
1000
0100
,  // measure 58
0010
0000
0001
0000
1000
0100
0010
0000
,  // measure 59
0002
0000
0100
0000
1003
0001
0100
0000
,  // measure 60
0010
2020
3030
2200
,  // measure 61
3300
0202
0303
0022
,  // measure 62
0033
2200
3300
0011
,  // measure 63
1100
0000
1100
0000
1000
0100
0001
0100
,  // measure 64
0000
2200
3300
2020
,  // measure 65
3030
0202
0303
0011
,  // measure 66
1100
0000
0101
0000
1000
0010
0100
0010
,  // measure 67
0100
0001
1000
0001
0010
0100
1000
0010
,  // measure 68
0100
0202
0303
2002
,  // measure 69
3003
2200
3300
2020
,  // measure 70
3030
2200
3300
1001
,  // measure 71
1100
0000
0101
0000
1000
0100
0001
0100
,  // measure 72
0000
0022
0033
2020
,  // measure 73
3030
2200
3300
0101
,  // measure 74
0110
0000
1100
0000
1000
0100
0001
0100
,  // measure 75
1000
0010
0100
0010
1000
0100
0010
0100
,  // measure 76
2002
0000
0000
3003
,  // measure 77
0000
0000
0020
0000
,  // measure 78
2030
0000
3100
0000
,  // measure 79
0010
0000
0001
0000
,  // measure 80
0101
0000
0000
0000
,  // measure 81
2000
0000
0000
0000
,  // measure 82
3000
0000
0200
0000
,  // measure 83
0320
0000
0000
0000
0032
0000
0000
0103
;

//---------------dance-single - ----------------
#NOTEDATA:;
#CHARTNAME:;
#STEPSTYPE:dance-single;
#DESCRIPTION:;
#CHARTSTYLE:;
#DIFFICULTY:Medium;
#METER:6;
#RADARVALUES:0.274579,0.410359,0.048925,0.328497,0.000000,275.000000,268.000000,7.000000,47.000000,0.000000,0.000000,0.000000,0.000000,0.000000,0.274579,0.410359,0.048925,0.328497,0.000000,275.000000,268.000000,7.000000,47.000000,0.000000,0.000000,0.000000,0.000000,0.000000;
#CREDIT:;
#DISPLAYBPM:146.000000;
#NOTES:
0000
0000
0000
0000
,
0000
0000
0000
0000
,
0000
0000
0000
0000
,
0000
0000
0000
0000
,
1000
0000
0000
0000
0010
1000
0100
1000
,
0020
0000
0130
0000
,
0001
0000
0000
0000
0010
0001
0100
0000
,
0010
1000
0010
0000
0100
0000
0000
0000
,
0001
0000
0000
0000
0010
0001
0100
0001
,
0020
0000
0130
0000
,
0010
0000
0000
0000
0100
1000
0010
0000
,
0100
0001
1000
0000
0010
0000
0000
0000
,
0100
0000
0000
0000
0010
1000
0001
0100
,
0020
0000
1030
0000
,
0001
0000
0000
0000
0010
0001
1000
0000
,
0020
0000
0130
0000
,
0010
0000
0000
0000
1000
0100
0010
0000
,
0001
0000
1000
0000
,
0010
0000
0000
0000
0100
0001
1000
0000
,
0020
0000
0130
0000
,
0002
0000
0000
0000
0020
0003
0000
0000
,
0130
0000
0000
0000
,
0000
0000
2000
3000
,
0020
0030
0200
0300
,
0001
0000
0010
0001
0200
0000
0300
0000
,
0010
1000
0200
0000
0300
0000
0010
0001
,
0200
0000
0300
0000
0010
1000
0100
0000
,
0020
0000
0200
0330
,
1000
0001
1000
0001
0100
0000
0001
1000
,
0001
1000
0100
0000
0000
0000
0000
0000
,
1000
0001
1000
0001
0100
0000
0001
1000
,
0001
1000
0100
0000
1000
0001
0010
0100
,
0000
0000
0000
2000
,
0000
3020
0000
0130
,
0001
0010
0100
1000
,
0001
0000
0010
0100
0010
0000
0001
0000
,
1000
0001
1000
0001
0100
0000
0001
1000
,
0001
1000
0100
0000
0000
0000
0000
0000
,
1000
0001
1000
0001
0100
0000
0001
1000
,
0001
1000
0100
0000
1000
0001
0010
0100
,
0000
0000
0000
2000
,
0000
3020
0000
0130
,
0001
0010
0100
1000
,
0001
0000
0010
0100
0010
0000
0001
0000
,
1000
0000
0000
0000
0010
0100
0010
0000
,
0000
1001
0110
1001
,
0000
0000
0000
0000
0010
1000
0001
0000
,
0100
0010
1000
0100
,
0010
0000
0000
0000
0001
0010
0100
0000
,
1000
0001
0100
0000
,
0010
0000
0000
0000
1000
0001
0010
0000
,
0100
1000
0010
0000
,
0100
0000
0000
0000
0001
1000
0010
0000
,
0000
1001
0110
1001
,
0000
0000
0000
0000
0010
1000
0100
0000
,
0020
0000
0130
0000
,
0010
0000
0001
0000
0100
0010
1000
0001
,
0000
0100
0000
0100
,
0000
0000
0010
0000
1000
0001
0100
0000
,
0020
0000
2000
3030
,
0000
0002
0003
0200
,
0300
2000
3000
0020
,
0030
0002
0003
1000
,
0100
0000
0001
0000
1000
0001
1000
0001
,
0000
0020
0030
2000
,
3000
0020
0030
0002
,
0103
0000
0100
0000
0001
1000
0001
0000
,
1000
0010
1000
0000
0001
0100
0001
0000
,
0000
2000
3000
0200
,
0300
0002
0003
0020
,
0030
2000
3000
0001
,
0100
0000
1000
0000
0001
1000
0001
1000
,
0000
0020
0030
0002
,
0003
0020
0030
2000
,
3100
0000
0100
0000
1000
0001
1000
0000
,
0001
0010
0001
0000
1000
0100
1000
0000
,
0200
0000
0000
0300
,
0000
0000
0020
0000
,
0032
0000
0103
0000
,
0010
0000
1000
0000
,
1010
0000
0000
0000
,
2000
0000
0000
0000
,
3000
0000
0200
0000
,
0320
0000
0000
0000
0032
0000
0000
0103
;

//---------------dance-single - ----------------
#NOTEDATA:;
#CHARTNAME:;
#STEPSTYPE:dance-single;
#DESCRIPTION:;
#CHARTSTYLE:;
#DIFFICULTY:Easy;
#METER:4;
#RADARVALUES:0.206683,0.293113,0.069893,0.272582,0.000000,207.000000,197.000000,10.000000,39.000000,0.000000,0.000000,0.000000,0.000000,0.000000,0.206683,0.293113,0.069893,0.272582,0.000000,207.000000,197.000000,10.000000,39.000000,0.000000,0.000000,0.000000,0.000000,0.000000;
#CREDIT:;
#DISPLAYBPM:146.000000;
#NOTES:
0000
0000
0000
0000
,
0000
0000
0000
0000
,
0000
0000
0000
0000
,
0000
0000
0000
0000
,
0010
0000
1000
0100
,
1000
0000
0010
0000
,
0100
0000
0001
0010
,
0100
0000
0010
0000
,
0001
0000
1000
0001
,
0100
0000
0010
0000
,
1000
0000
0100
0010
,
0001
0000
0010
0000
,
0100
0000
1000
0001
,
0100
0000
0010
0000
,
1000
0000
0001
0010
,
0200
0000
1300
0000
,
0010
0000
0100
0001
,
1000
0000
0010
0000
,
0100
0000
0001
0010
,
0200
0000
0320
0000
,
0032
0000
1000
0000
,
0103
0000
0000
0000
,
0000
0000
0010
0000
,
1000
0000
0100
0000
,
0010
0001
0200
0300
,
0010
2000
3000
0100
,
0002
0003
1000
0100
,
0020
0000
0031
0000
,
1000
0010
0100
1000
,
0010
0100
1001
0000
,
0001
0100
0010
0001
,
0100
0010
1000
0100
,
0020
0000
0000
0032
,
0000
2003
0000
3200
,
0000
0000
0000
0000
,
0000
0000
0010
0310
,
0001
1000
0100
0001
,
1000
0100
1001
0000
,
0010
1000
0001
0010
,
1000
0001
0100
0010
,
0200
0000
0000
0320
,
0000
2030
0000
3002
,
0000
0000
0000
0000
,
0000
0000
0103
1001
,
0010
0000
0100
0001
,
0000
0010
0100
1001
,
0000
0000
0010
0001
,
0100
0010
1000
0000
,
0100
0000
0010
0001
,
0100
0000
0010
0000
,
1000
0000
0100
1000
,
0001
0100
0010
0000
,
1000
0000
0100
0010
,
0000
0001
1000
1001
,
0000
0000
0010
1000
,
0200
0000
0310
0000
,
0001
0000
1000
0010
,
0100
0000
0001
0000
,
0010
0000
0100
0010
,
0002
0000
2003
3000
,
0000
0020
0030
2000
,
3000
0200
0300
0020
,
0030
0002
0003
0100
,
0010
1000
1001
1001
,
0000
0010
0000
1000
,
0000
0100
0000
0010
,
0001
0001
1000
0010
,
0100
0001
0010
0100
,
1000
0020
0030
0200
,
0300
0002
0003
0020
,
0030
0200
0300
1000
,
0001
0100
1001
1001
,
0000
0020
0030
2000
,
3000
0200
0300
0010
,
0001
0001
1000
0001
,
0100
0010
0100
0001
,
0020
0000
0000
0030
,
0000
0000
0200
0000
,
2300
0000
3001
0000
,
0100
0000
0010
0000
,
1001
0000
0000
0000
,
0002
0000
0000
0000
,
0003
0000
0020
0000
,
0230
0000
0000
0000
2000
0000
0000
3300
;

//---------------dance-single - ----------------
#NOTEDATA:;
#CHARTNAME:;
#STEPSTYPE:dance-single;
#DESCRIPTION:;
#CHARTSTYLE:;
#DIFFICULTY:Beginner;
#METER:1;
#RADARVALUES:0.172735,0.233442,0.000000,0.013979,0.000000,173.000000,173.000000,0.000000,2.000000,0.000000,0.000000,0.000000,0.000000,0.000000,0.172735,0.233442,0.000000,0.013979,0.000000,173.000000,173.000000,0.000000,2.000000,0.000000,0.000000,0.000000,0.000000,0.000000;
#CREDIT:;
#DISPLAYBPM:146.000000;
#NOTES:
0000
0000
0000
0000
,
0000
0000
0000
0000
,
0000
0000
0000
0000
,
0000
0000
0000
0000
,
0000
0010
1000
0000
,
0100
0000
0010
0000
,
0001
0000
1000
1000
,
1000
0000
0010
0000
,
0100
0000
0001
0000
,
0010
0000
0100
0000
,
0010
0000
0001
0001
,
0001
0000
0100
0000
,
0010
0000
1000
0000
,
0100
0000
0010
0000
,
0001
0000
0100
0100
,
0100
0000
0010
0000
,
1000
0000
0100
0000
,
0010
0000
0001
0000
,
1000
0000
0010
0010
,
0010
0000
0100
0000
,
0001
0000
0000
0000
,
0000
0000
0000
0000
,
0000
0000
0000
0000
,
0010
0000
0100
0000
,
1000
0000
0001
0000
,
0100
0000
0010
0000
,
1000
0000
0100
0000
,
0010
0000
0010
0000
,
0001
0001
0001
0001
,
0001
0001
0000
0000
,
1000
1000
1000
1000
,
1000
1000
1000
0000
,
0010
0000
0100
0000
,
0001
0000
0010
0000
,
0100
0000
1000
0000
,
0001
0000
0100
0000
,
0010
0010
0010
0010
,
0010
0010
0000
0000
,
1000
1000
1000
1000
,
1000
1000
1000
0000
,
0100
0000
0010
0000
,
0001
0000
1000
0000
,
0010
0000
0100
0000
,
0001
0000
0010
0010
,
0010
0000
0100
0000
,
1000
0000
0100
0000
,
0010
0000
0001
0001
,
0001
0000
1000
0000
,
0010
0000
0100
0000
,
0001
0000
1000
0000
,
0010
0000
0100
0100
,
0100
0000
0010
0000
,
1000
0000
0100
0000
,
0010
0000
0001
0000
,
0100
0000
0010
0010
,
0010
0000
1000
0000
,
0100
0000
0010
0000
,
0001
0000
1000
0000
,
0010
0000
0100
0100
,
0100
0000
0001
0000
,
0010
0010
0000
1000
,
0000
0100
0000
0010
,
0000
0001
0000
0100
,
0100
0000
0010
0000
,
1000
1000
0000
0100
,
0000
0010
0000
0001
,
0001
0000
0010
0000
,
0100
0000
1000
0000
,
0010
0010
0000
0100
,
0000
0001
0000
0010
,
0000
0100
0000
1000
,
1000
0000
0001
0000
,
0100
0100
0000
0010
,
0000
1000
0000
0010
,
0010
0000
1000
0000
,
0100
0000
0010
0000
,
0002
0000
0000
0003
,
0000
0000
1000
0000
,
0001
0000
0100
0000
,
0010
0000
1000
0000
,
0100
0000
0000
0000
,
0020
0000
0000
0000
,
0030
0000
0001
0000
,
1000
0000
0100
0000
;
