#TITLE:Forever;
#SUBTITLE:;
#ARTIST:Chris Brown;
#TITLETRANSLIT:;
#SUBTITLETRANSLIT:;
#ARTISTTRANSLIT:;
#GENRE:Exclusive;
#CREDIT:;
#BANNER:Forever-bn.png;
#BACKGROUND:Forever-bg.png;
#LYRICSPATH:;
#CDTITLE:;
#MUSIC:Forever.mp3;
#OFFSET:-0.022006;
#SAMPLESTART:152.032455;
#SAMPLELENGTH:20.000000;
#LASTBEATHINT:376.000000;
#SELECTABLE:YES;
#BPMS:0.000000=120.000000
;
#STOPS:
;
#BGCHANGES:0.000=Forever-video.avi=1.000=0=0=0=StretchNoLoop====,
99999=-nosongbg-=1.000=0=0=0 // don't automatically add -songbackground-
;
#KEYSOUNDS:;
#ATTACKS:;

//---------------dance-single - ----------------
#NOTES:
     dance-single:
     :
     Hard:
     8:
     0.431318,0.441272,0.302932,0.217102,0.012622,598.000000,538.000000,60.000000,43.000000,0.000000,0.000000,0.431318,0.441272,0.302932,0.217102,0.012622,598.000000,538.000000,60.000000,43.000000,0.000000,0.000000:
// measure 0
0000
0000
0000
0000
,  // measure 1
0000
0000
0000
0000
,  // measure 2
0000
0000
0000
0000
,  // measure 3
0000
0000
0000
0000
,  // measure 4
0001
1001
0010
1001
,  // measure 5
1000
0000
1001
0000
0010
0000
0001
1000
,  // measure 6
0100
0000
1001
0000
0010
0000
0001
1000
,  // measure 7
0001
0000
1001
0000
0100
0000
0001
1000
,  // measure 8
0100
0000
1100
0000
0100
0000
0010
0001
,  // measure 9
0100
0000
0101
0000
0010
1000
0001
1000
,  // measure 10
0010
0100
0010
0000
1000
0001
0100
0010
,  // measure 11
0100
0001
2000
0000
3001
0000
0010
0100
,  // measure 12
2000
0000
3001
0000
0100
0001
1000
0001
,  // measure 13
0200
0000
0310
0000
1000
0100
0010
0002
,  // measure 14
0000
0013
0100
1000
0001
1000
0010
0100
,  // measure 15
0010
2000
0000
3002
0000
0013
0100
0020
,  // measure 16
0000
0031
1000
0001
0100
0001
1000
0020
,  // measure 17
0000
1030
0001
1000
0100
1000
0001
1000
,  // measure 18
0000
0100
0010
0000
0001
0000
1000
0010
,  // measure 19
0100
0001
1000
0001
0100
0010
1000
0010
,  // measure 20
0100
0000
0001
0010
0100
1000
0100
1100
,  // measure 21
0000
1100
0100
0010
0001
0010
0100
0011
,  // measure 22
0000
0110
0000
1000
0010
0001
0001
0000
,  // measure 23
0010
0000
1000
0000
1000
0000
0000
0000
0001
1000
0000
0000
1100
0000
0000
0000
,  // measure 24
0100
1000
0010
1000
0001
0010
0001
0101
,  // measure 25
0000
0101
0000
0100
0001
1000
0100
1100
,  // measure 26
0000
1100
0000
0010
0100
1000
0001
0000
,  // measure 27
0100
0001
1000
0000
0100
1000
0001
1000
,  // measure 28
0100
0010
0001
0010
0100
2000
0010
0001
,  // measure 29
0000
3001
0020
0001
0030
1000
0100
0010
,  // measure 30
0000
0000
0100
0000
2010
0000
0000
0000
3001
0000
0010
0000
0100
1000
0100
0000
,  // measure 31
1000
0010
0100
0001
0010
0100
2002
0000
,  // measure 32
3003
0000
0101
0010
0100
0010
0100
0010
,  // measure 33
1000
0001
0200
1000
0300
1000
0100
0001
,  // measure 34
0000
0100
1001
0000
0100
0001
0010
0100
,  // measure 35
1000
0000
0001
1000
0100
0010
0100
0011
,  // measure 36
0000
1100
0000
0001
1000
0001
1000
0101
,  // measure 37
0000
1100
0000
1000
0001
1000
0001
1010
,  // measure 38
0000
1001
0000
0010
1000
0100
0001
0100
,  // measure 39
1000
0001
1000
0000
0010
1000
0001
0011
,  // measure 40
0000
1001
0000
1000
0100
1000
0001
0011
,  // measure 41
0000
1001
0000
0001
0100
0001
1000
1010
,  // measure 42
0000
1001
0000
1000
0100
0010
0100
1000
,  // measure 43
0001
0010
0100
1000
0001
1000
0100
0000
,  // measure 44
1001
0000
0100
1000
0001
1000
0100
1000
,  // measure 45
0001
0000
0010
0001
1000
0001
0010
0001
,  // measure 46
2000
0000
3010
0000
0001
1000
0001
0000
,  // measure 47
0020
0100
0130
0000
2000
0100
3001
0000
,  // measure 48
0202
0000
0303
0000
1000
0010
0100
0001
,  // measure 49
1000
0000
1001
0000
0001
0010
0100
1000
,  // measure 50
0100
0010
0001
0000
1000
0010
1000
0001
,  // measure 51
0000
0001
0010
0001
0100
0010
0100
0002
,  // measure 52
0000
1003
0010
0200
0000
0310
1000
0002
,  // measure 53
0000
1003
0010
0200
0000
0310
1000
0020
,  // measure 54
0000
0130
0001
2000
0000
3100
0010
0200
,  // measure 55
0000
1300
0100
0020
0000
0130
0010
0002
,  // measure 56
0000
0000
1003
0000
0001
0000
0100
0001
0100
0000
0010
0000
1000
0000
0002
0000
,  // measure 57
0000
0000
0103
0000
0000
0000
0010
1000
0010
0000
0100
0000
0001
0000
1000
0000
,  // measure 58
0100
1000
0100
0000
0000
1000
0001
0100
,  // measure 59
0001
0100
0000
0002
0000
0000
1003
0002
,  // measure 60
0100
0000
0100
0000
0100
0000
0103
0020
,  // measure 61
0100
0000
0100
0000
0100
0030
0100
2000
,  // measure 62
0100
0000
0100
0000
0100
3000
0100
0100
,  // measure 63
0100
0000
0100
0001
1000
0001
0100
0020
,  // measure 64
0100
0000
0100
0030
0100
0010
0100
2000
,  // measure 65
0100
0000
0100
3000
0100
1000
0100
0002
,  // measure 66
0100
0000
0100
0000
0100
0003
0100
0010
,  // measure 67
0100
0100
0100
0100
,  // measure 68
0001
0000
0101
0000
0020
0000
0031
1000
,  // measure 69
0000
0000
1001
0000
0020
0000
1030
0001
,  // measure 70
0000
0000
1001
0000
0020
0000
0031
0100
,  // measure 71
0100
0101
0100
0011
,  // measure 72
1100
0000
1100
0000
1100
0000
0100
0010
,  // measure 73
0100
0000
0100
0000
0100
0000
1000
0001
,  // measure 74
0100
0101
0100
1001
,  // measure 75
0010
0000
0001
0000
1000
0100
0001
0010
,  // measure 76
0000
0010
0001
0100
1000
0002
0010
1000
,  // measure 77
0003
1000
0020
0000
0130
0001
0100
0010
,  // measure 78
0000
0000
0100
0000
0012
0000
0000
0000
1003
0000
0010
0000
0100
0001
0100
0000
,  // measure 79
0001
0010
0100
1000
0010
0100
0001
1000
,  // measure 80
0010
0100
1001
0010
0100
1000
0010
0100
,  // measure 81
0001
1000
0200
0001
0300
0001
0100
1000
,  // measure 82
0000
0100
1001
0000
0100
1000
0010
0100
,  // measure 83
0001
0000
1000
0001
0100
0010
0100
1001
,  // measure 84
0000
0101
0000
1000
0100
1000
0001
1100
,  // measure 85
0000
0101
0000
0001
0010
0001
1000
0011
,  // measure 86
0000
1001
0000
0010
0001
0100
1000
0100
,  // measure 87
0001
1000
0001
0000
0010
0001
1000
1010
,  // measure 88
0000
1001
0000
0001
0100
0001
1000
1010
,  // measure 89
0000
1001
0000
1000
0100
1000
0001
0011
,  // measure 90
0000
1001
0000
0001
0100
0010
0100
0001
,  // measure 91
1000
0010
0001
1000
0100
0001
0100
0010
,  // measure 92
0100
0000
0000
0000
;

//---------------dance-single - ----------------
#NOTES:
     dance-single:
     :
     Medium:
     6:
     0.281294,0.371597,0.212053,0.111075,0.000000,390.000000,348.000000,42.000000,22.000000,0.000000,0.000000,0.281294,0.371597,0.212053,0.111075,0.000000,390.000000,348.000000,42.000000,22.000000,0.000000,0.000000:
// measure 0
0000
0000
0000
0000
,  // measure 1
0000
0000
0000
0000
,  // measure 2
0000
0000
0000
0000
,  // measure 3
0000
0000
0000
0000
,  // measure 4
1001
0000
0000
0000
2000
0000
3010
0100
,  // measure 5
0000
0000
0000
0000
0020
0000
1030
0001
,  // measure 6
0000
0000
0000
0000
0020
0000
0031
0100
,  // measure 7
0000
0000
0000
0100
0020
0000
1030
0100
,  // measure 8
1000
0000
0000
0000
0000
0000
0001
0010
,  // measure 9
0001
0000
0100
0010
,  // measure 10
1000
0001
1000
0000
0010
0000
0100
0000
,  // measure 11
0001
0100
0001
0000
1000
0000
0010
0000
,  // measure 12
1000
0000
0000
0000
0000
0000
0001
1000
,  // measure 13
0001
0000
0000
0000
0000
0000
0010
0001
,  // measure 14
0010
0000
0100
0000
,  // measure 15
1000
0001
0100
0010
,  // measure 16
1000
0010
1000
0000
0100
0000
0100
0000
,  // measure 17
0010
0001
0010
0000
0100
0000
0100
0000
,  // measure 18
1000
0001
0100
0010
,  // measure 19
1000
0010
0100
0001
,  // measure 20
1001
0000
0010
0000
0001
0000
0010
0100
,  // measure 21
0000
0000
1000
0000
0010
0000
1000
0100
,  // measure 22
0000
0010
0001
0100
,  // measure 23
0010
1000
0001
0010
,  // measure 24
0001
0000
0100
0000
0010
0000
1000
0001
,  // measure 25
0000
0000
0000
0000
0010
0000
0001
1000
,  // measure 26
0000
0000
0100
0100
,  // measure 27
0010
0001
0100
0010
,  // measure 28
1001
0010
0001
0010
,  // measure 29
1000
0010
0001
0000
0010
0000
1000
0000
,  // measure 30
0001
0010
1000
0000
0010
0000
0001
0000
,  // measure 31
1000
0001
1000
0001
1000
0000
1001
0000
,  // measure 32
0010
1000
0100
0001
,  // measure 33
1000
0100
0001
0000
0100
0000
0100
0000
,  // measure 34
0001
0100
1000
0000
0100
0000
0100
0000
,  // measure 35
0010
0001
0100
0010
,  // measure 36
1001
1001
1001
0010
,  // measure 37
1010
1010
1010
0100
,  // measure 38
1001
1001
1001
0100
,  // measure 39
0001
0100
1000
0100
,  // measure 40
1001
1001
1001
0100
,  // measure 41
0011
0011
0011
0100
,  // measure 42
1001
1001
1001
0100
,  // measure 43
0002
0000
0000
0003
,  // measure 44
1001
0010
0001
0010
,  // measure 45
0001
0010
1000
0010
,  // measure 46
1000
0100
1000
0100
,  // measure 47
0001
0000
0100
0000
0001
0000
0100
0100
,  // measure 48
0100
0001
1000
0001
,  // measure 49
0010
1000
0010
0001
,  // measure 50
0100
1000
0100
0001
,  // measure 51
0010
0000
0100
0000
1000
0000
0010
0010
,  // measure 52
0010
0100
0010
1001
,  // measure 53
0010
0001
0010
1001
,  // measure 54
0100
1001
0100
1001
,  // measure 55
0010
1001
0100
1001
,  // measure 56
0010
1000
0100
0001
,  // measure 57
1000
0001
1000
0010
,  // measure 58
1000
0100
0010
0100
,  // measure 59
0010
0001
0100
0010
,  // measure 60
0200
0000
0000
0000
,  // measure 61
0302
0000
0000
0000
,  // measure 62
2003
0000
0000
0000
,  // measure 63
3200
0000
0310
0001
,  // measure 64
2000
0000
0000
3010
,  // measure 65
0200
0000
0000
0301
,  // measure 66
0020
0000
0000
0000
0000
0000
0130
0100
,  // measure 67
0200
0000
1300
0001
,  // measure 68
0100
0000
0100
0000
0020
0000
1030
0001
,  // measure 69
0000
0000
0000
0000
0020
0000
0031
0100
,  // measure 70
0000
0000
0000
0000
0020
0000
1030
0001
,  // measure 71
0100
0000
0010
0000
1000
0010
1000
0000
,  // measure 72
1100
0000
0000
0000
0020
0000
1030
0001
,  // measure 73
0000
0000
0000
0000
0020
0000
0031
0100
,  // measure 74
0000
0000
0000
0000
0020
0000
0030
1000
,  // measure 75
0100
1000
0000
0001
0100
0000
1001
0000
,  // measure 76
0010
0001
0100
1000
,  // measure 77
1000
0100
0001
0100
0000
0010
1000
0000
,  // measure 78
0001
0010
1000
0000
0010
0000
0001
0000
,  // measure 79
1000
0001
0100
0001
1000
0000
1001
0000
,  // measure 80
0010
1000
0100
0001
,  // measure 81
1000
0100
0001
0000
0100
0001
0100
0000
,  // measure 82
0001
0100
1000
0000
0100
1000
0100
0000
,  // measure 83
0010
0001
0100
0010
,  // measure 84
1001
1010
1001
0100
,  // measure 85
1001
0011
1001
0100
,  // measure 86
1001
0101
1001
0100
,  // measure 87
0001
0000
0100
0000
1000
0000
0200
0010
,  // measure 88
0000
0010
0000
0010
0310
0000
2000
0001
,  // measure 89
0000
0001
0000
0001
3001
0000
0002
0100
,  // measure 90
0000
0100
0000
0100
0103
0000
0000
0001
,  // measure 91
0010
1000
0001
0100
1000
0000
0100
0000
,  // measure 92
1001
0000
0000
0000
;

//---------------dance-single - ----------------
#NOTES:
     dance-single:
     :
     Easy:
     4:
     0.208446,0.255473,0.055538,0.302932,0.000000,289.000000,278.000000,11.000000,60.000000,0.000000,0.000000,0.208446,0.255473,0.055538,0.302932,0.000000,289.000000,278.000000,11.000000,60.000000,0.000000,0.000000:
// measure 0
0000
0000
0000
0000
,  // measure 1
0000
0000
0000
0000
,  // measure 2
0000
0000
0000
0000
,  // measure 3
0000
0000
0000
0000
,  // measure 4
0010
0000
0000
0000
0002
0000
0100
0003
,  // measure 5
0000
0000
0000
0000
0020
0000
1000
0030
,  // measure 6
0000
0000
0000
0000
2000
0000
0100
3000
,  // measure 7
0000
0000
0001
1000
,  // measure 8
1001
0000
0000
0010
,  // measure 9
0001
0000
1000
0010
,  // measure 10
0100
0001
0010
0100
,  // measure 11
1000
0001
0100
0010
,  // measure 12
1000
0000
0000
0001
,  // measure 13
0010
0000
0000
0100
,  // measure 14
1000
0100
0001
0100
,  // measure 15
1000
0001
1000
0100
,  // measure 16
1000
1000
0001
1000
,  // measure 17
0001
0001
1000
0001
,  // measure 18
0100
0001
0100
0001
,  // measure 19
1000
0010
1000
0010
,  // measure 20
0100
0001
1000
0010
,  // measure 21
0100
0100
0001
1000
,  // measure 22
0010
0010
0100
0001
,  // measure 23
1000
0010
0100
0001
,  // measure 24
0010
0100
1000
0001
,  // measure 25
0010
0010
0100
1000
,  // measure 26
0001
0001
0010
0100
,  // measure 27
1000
1000
0001
0001
,  // measure 28
1001
1000
0001
1000
,  // measure 29
0200
1000
1000
1300
,  // measure 30
0002
0100
0100
0103
,  // measure 31
0010
0100
0110
1001
,  // measure 32
0010
0001
1000
0001
,  // measure 33
0010
0100
1000
0001
,  // measure 34
0200
0010
0010
0310
,  // measure 35
1000
0100
0010
0001
,  // measure 36
2000
0100
0001
3100
,  // measure 37
0002
0010
1000
0013
,  // measure 38
2000
0100
0001
3100
,  // measure 39
0001
0010
0100
1000
,  // measure 40
2000
0010
0001
3010
,  // measure 41
0002
0100
1000
0103
,  // measure 42
2000
0010
0001
3010
,  // measure 43
0200
0000
0000
0300
,  // measure 44
2002
3003
0200
0300
,  // measure 45
0002
0003
0200
0300
,  // measure 46
0020
0030
1000
0100
,  // measure 47
0010
0001
0100
0010
,  // measure 48
2000
3000
0200
0300
,  // measure 49
0002
0003
0200
0300
,  // measure 50
2000
3000
0020
0030
,  // measure 51
0100
0001
1000
0010
,  // measure 52
2020
3030
0002
0003
,  // measure 53
0022
0033
2000
3000
,  // measure 54
0010
1000
0001
0010
,  // measure 55
0001
1000
0010
0000
,  // measure 56
2002
3003
0100
0001
,  // measure 57
0200
0300
0010
1000
,  // measure 58
0020
0030
0100
0001
,  // measure 59
2000
3000
0020
0000
,  // measure 60
0200
0000
0000
0000
,  // measure 61
0330
0000
0000
0000
,  // measure 62
0000
0000
0000
0000
,  // measure 63
0000
0000
0001
0001
,  // measure 64
0020
0000
0030
1000
,  // measure 65
2000
0000
3000
0010
,  // measure 66
0020
0000
0030
0000
,  // measure 67
0100
0000
0001
0000
,  // measure 68
1000
0000
0000
0000
0020
0000
1000
0030
,  // measure 69
0000
0000
0000
0000
0002
0000
0010
0003
,  // measure 70
0000
0000
0000
0000
0200
0000
1000
0300
,  // measure 71
0000
0000
0000
0010
,  // measure 72
0001
0000
2000
0000
0002
0000
3000
0003
,  // measure 73
0000
0000
0000
0000
0020
0000
0100
0030
,  // measure 74
0000
0000
0000
0000
0200
0000
0000
0300
,  // measure 75
1000
0000
0001
0100
,  // measure 76
1001
0001
0010
0001
,  // measure 77
0200
0001
0001
0301
,  // measure 78
2000
0100
0100
3100
,  // measure 79
0010
0100
0110
1001
,  // measure 80
0010
0001
0100
1000
,  // measure 81
0100
0001
0010
1000
,  // measure 82
0200
0010
0010
0310
,  // measure 83
0001
0100
0010
1000
,  // measure 84
0002
1000
0100
1003
,  // measure 85
0200
0001
0010
0301
,  // measure 86
0020
1000
0100
1030
,  // measure 87
1000
0010
0100
0001
,  // measure 88
0002
1000
0010
1003
,  // measure 89
0020
0001
0100
0031
,  // measure 90
0200
1000
0310
2000
,  // measure 91
3020
0031
1000
0200
,  // measure 92
0301
0000
0000
0000
;

//---------------dance-single - ----------------
#NOTES:
     dance-single:
     :
     Beginner:
     1:
     0.138483,0.185799,0.060586,0.000000,0.000000,192.000000,180.000000,12.000000,0.000000,0.000000,0.000000,0.138483,0.185799,0.060586,0.000000,0.000000,192.000000,180.000000,12.000000,0.000000,0.000000,0.000000:
// measure 0
0000
0000
0000
0000
,  // measure 1
0000
0000
0000
0000
,  // measure 2
0000
0000
0000
0000
,  // measure 3
0000
0000
0000
0000
,  // measure 4
0001
0000
0010
0000
,  // measure 5
1000
0000
0010
0000
,  // measure 6
0001
0000
0100
0000
,  // measure 7
0001
0000
1000
0000
,  // measure 8
0100
0000
0000
0000
,  // measure 9
0010
0000
0000
0000
,  // measure 10
0001
0000
0001
0000
,  // measure 11
1000
0000
1000
0000
,  // measure 12
0100
0000
0000
0000
,  // measure 13
0010
0000
0000
0000
,  // measure 14
0001
0000
0001
0000
,  // measure 15
1000
0000
1000
0000
,  // measure 16
0010
0000
0010
0000
,  // measure 17
0100
0000
0100
0000
,  // measure 18
0001
0000
0001
0000
,  // measure 19
1000
0000
1000
0000
,  // measure 20
0100
0000
0010
0000
,  // measure 21
0001
0000
0010
0000
,  // measure 22
0100
0000
1000
0000
,  // measure 23
0001
0000
1000
0000
,  // measure 24
0001
0000
0100
0000
,  // measure 25
0010
0000
0100
0000
,  // measure 26
0010
0000
1000
0000
,  // measure 27
0100
0000
0010
0000
,  // measure 28
1001
0000
0010
0010
,  // measure 29
0010
0000
0000
0001
,  // measure 30
0001
0001
0000
1000
,  // measure 31
1000
0000
0010
0000
,  // measure 32
0100
0000
0010
0010
,  // measure 33
0010
0000
1000
1000
,  // measure 34
1000
0000
0001
0001
,  // measure 35
0001
0000
0100
0000
,  // measure 36
1001
0000
0110
0000
,  // measure 37
1000
1000
1000
0000
,  // measure 38
0001
0001
0001
0000
,  // measure 39
0100
0000
0010
0000
,  // measure 40
1001
0000
0110
0000
,  // measure 41
0001
0001
0001
0000
,  // measure 42
1000
1000
1000
0000
,  // measure 43
0010
0000
0000
0000
,  // measure 44
1000
0000
0001
0000
,  // measure 45
0010
0000
0100
0000
,  // measure 46
1000
0000
0100
0000
,  // measure 47
0001
0000
0010
0000
,  // measure 48
0100
0000
1000
0000
,  // measure 49
0001
0000
0100
0000
,  // measure 50
1000
0000
0100
0000
,  // measure 51
0001
0000
0010
0000
,  // measure 52
1001
0000
0010
0000
,  // measure 53
0001
0000
0010
0000
,  // measure 54
1000
0000
0010
0000
,  // measure 55
0001
0000
0010
0000
,  // measure 56
0100
0000
1000
0000
,  // measure 57
0001
0000
0100
0000
,  // measure 58
0010
0000
0000
0000
,  // measure 59
0100
0000
0010
0000
,  // measure 60
1000
0000
0000
0000
,  // measure 61
0000
0000
0000
0000
,  // measure 62
0000
0000
0000
0000
,  // measure 63
0000
0000
0100
0100
,  // measure 64
0100
0000
0000
0000
,  // measure 65
0010
0000
0000
0000
,  // measure 66
0001
0000
0000
0000
,  // measure 67
1000
0000
0000
0000
,  // measure 68
0100
0000
0100
0000
,  // measure 69
0100
0000
0100
0000
,  // measure 70
0100
0000
0100
0000
,  // measure 71
0100
0000
0100
0000
,  // measure 72
0100
0000
0100
0000
,  // measure 73
0100
0000
0100
0000
,  // measure 74
0100
0000
0100
0000
,  // measure 75
0100
0000
0100
0000
,  // measure 76
1001
0000
0010
0010
,  // measure 77
0010
0000
0000
1000
,  // measure 78
1000
1000
0000
0001
,  // measure 79
0001
0000
0010
0000
,  // measure 80
0100
0000
1000
1000
,  // measure 81
1000
0000
0010
0010
,  // measure 82
0010
0000
0100
0100
,  // measure 83
0100
0000
0001
0000
,  // measure 84
1001
0000
0110
0000
,  // measure 85
0001
0001
0001
0000
,  // measure 86
1000
1000
1000
0000
,  // measure 87
0010
0000
0100
0000
,  // measure 88
1001
0000
0110
0000
,  // measure 89
1000
1000
1000
0000
,  // measure 90
0001
0001
0001
0000
,  // measure 91
0010
0000
1000
0000
,  // measure 92
1001
0000
0000
0000
;
