#VERSION:0.81;
#TITLE:Flashlight;
#SUBTITLE:;
#ARTIST:Ellie Goulding feat. DJ Fresh;
#TITLETRANSLIT:;
#SUBTITLETRANSLIT:;
#ARTISTTRANSLIT:;
#GENRE:Halcyon Days;
#ORIGIN:;
#CREDIT:;
#BANNER:Flashlight-bn.png;
#BACKGROUND:Flashlight-bg.png;
#PREVIEWVID:;
#JACKET:Flashlight-jacket.png;
#CDIMAGE:;
#DISCIMAGE:;
#LYRICSPATH:;
#CDTITLE:;
#MUSIC:Flashlight.mp3;
#OFFSET:-0.024000;
#SAMPLESTART:43.906818;
#SAMPLELENGTH:21.085712;
#SELECTABLE:YES;
#BPMS:0.000=175.000;
#STOPS:92.000=1.029,
265.000=1.029;
#DELAYS:;
#WARPS:;
#TIMESIGNATURES:0.000=4=4,
88.000=5=4,
93.000=4=4,
261.000=5=4,
266.000=4=4;
#TICKCOUNTS:0.000=2;
#COMBOS:0.000=1;
#SPEEDS:0.000=1.000=0.000=0;
#SCROLLS:0.000=1.000;
#FAKES:;
#LABELS:0.000=Song Start;
#LASTSECONDHINT:133.089676;
#BGCHANGES:;
#KEYSOUNDS:;
#ATTACKS:
;

//---------------dance-single - ----------------
#NOTEDATA:;
#CHARTNAME:;
#STEPSTYPE:dance-single;
#DESCRIPTION:;
#CHARTSTYLE:;
#DIFFICULTY:Hard;
#METER:9;
#RADARVALUES:0.601370,0.554832,0.438809,0.111561,0.000000,492.000000,59.000000,15.000000,0.000000,0.000000,0.000000,0.000000,0.000000,0.601370,0.554832,0.438809,0.111561,0.000000,492.000000,59.000000,15.000000,0.000000,0.000000,0.000000,0.000000,0.000000;
#CREDIT:;
#NOTES:
0000
0000
0000
0000
,
0000
0000
0000
0000
,
0000
0000
0000
0000
,
0000
0000
0000
0000
,
0000
0000
0000
0000
,
0000
0000
0000
0000
,
0000
0000
0000
0000
,
0000
0000
0000
0000
,
0001
0000
0100
0010
1000
0000
0100
0010
,
0001
0000
1000
0000
0010
0000
1000
0010
,
0100
0000
1010
0000
0100
0000
0001
0010
,
0100
0000
0011
0000
0100
0000
1000
0001
,
1100
0000
0001
0100
0000
1000
0100
0000
,
0001
0000
1000
0100
0000
0001
0100
0000
,
1000
0000
0001
0100
0000
1000
0100
0000
,
0001
0000
1000
0100
0000
0001
0100
0010
,
1000
0000
0110
0000
0001
0000
0010
0100
,
1000
0010
0100
0001
1000
0000
0100
0010
,
0001
1000
0010
0100
0001
0000
1000
0010
,
0100
0001
0010
0100
1000
0000
0001
1000
,
0101
0000
1000
0010
0000
0001
0010
0000
,
1000
0000
0001
0010
0000
1000
0010
0000
,
0001
0000
1000
0010
0000
0001
0010
0000
,
0110
0000
1001
0000
1000
0100
0020
0000
,
1000
0100
0001
1030
,
0110
0000
1001
0000
0001
0100
0020
0000
,
0001
0100
1000
0031
,
0110
0000
1001
0000
1000
0020
0000
0031
,
0020
0000
1030
0000
0001
0020
0000
1030
,
0020
0000
0031
0000
1000
0020
0000
0031
,
0020
0000
1030
0000
0001
1000
0010
0100
,
0001
0000
0101
0000
1000
1100
0000
0001
,
0000
0101
0000
0010
0110
0000
1001
0000
,
0000
0000
0010
0100
0010
0000
1001
0000
,
0000
0000
0010
0000
1000
0100
0010
0001
,
0100
0010
1000
0000
0001
0100
0010
1000
,
0100
0010
0001
0000
1000
0010
0100
0001
,
0010
0100
1000
0010
0001
0010
1000
0100
,
0010
0001
0100
1000
0100
0001
0010
0100
,
1000
0000
1100
0000
0001
0101
0000
1000
,
0000
1100
0000
0010
0110
0000
1001
0000
,
0000
0000
0010
0100
0010
0000
1001
0000
,
0000
0000
0010
0000
0001
0100
0010
1000
,
0100
0010
0001
0000
1000
0100
0010
0001
,
0100
0010
1000
0000
0001
0010
0100
1000
,
0010
0100
0001
0010
1000
0010
0001
0100
,
0010
1000
0100
0001
0100
1000
0010
0100
,
0001
0000
0101
0000
0000
0001
0010
0100
,
1000
0000
1100
0000
0000
1000
0010
0100
,
0001
0000
0101
0000
0000
0001
0010
0100
,
1000
1100
0000
1001
,
0000
0000
0010
1000
0100
0010
0001
0100
,
0010
0100
0001
0010
0100
0010
0001
0000
,
1000
0001
1000
0010
0100
0010
1000
0100
,
0010
0100
1000
0010
0100
0001
1000
0000
,
0010
0100
0011
0000
1000
0010
0000
1000
,
1100
0000
0010
0000
0001
0010
0000
0001
,
0101
0000
0010
0000
1000
0010
0000
1000
,
1100
0000
0010
0000
0001
0010
0000
0001
,
0101
0000
0001
1000
0010
0100
0001
1000
,
0100
1000
0001
0010
0100
1000
0010
0100
,
0010
1000
0001
0100
0001
0010
0100
1000
,
0010
0100
0001
1000
0100
0010
0100
0001
,
1000
0010
1100
0000
0001
1000
0000
0010
,
0101
0000
0100
0000
1000
0001
0000
0010
,
1100
0000
0100
0000
0001
1000
0000
0010
,
0101
0000
1100
0000
1001
0000
1000
0010
,
0100
0001
0020
0000
0001
0000
0100
0000
,
1030
0000
1010
0000
0011
0000
0001
0010
,
0100
1000
0020
0000
1000
0000
0100
0000
,
0031
0000
0011
0000
0110
0000
0100
0101
,
0000
1000
1001
0000
1100
0000
0010
1010
,
0000
0010
0110
0000
0101
0000
0010
0100
,
1010
0000
0100
0010
0101
0000
1000
0010
,
0110
0110
1001
0000
0010
0000
1000
0010
,
0000
0001
0000
0010
0000
1000
0010
0000
,
0200
0000
0300
0000
0001
0100
0010
1000
,
0100
0010
0001
0000
1000
0010
0100
0001
,
0010
0100
1000
0010
1000
0100
0001
0100
,
1000
0100
0001
0100
1000
0010
0001
0010
,
1000
0010
0001
0010
1000
0100
0010
0001
,
0100
0010
1000
0100
0010
0001
0100
0010
,
1000
0100
0010
0000
0001
1000
0010
1100
,
0000
0010
0100
0011
0000
0100
0110
0000
,
1001
0000
0010
0001
1000
0010
0100
0001
,
1000
0000
0001
0100
0010
1000
0100
0010
,
0001
1000
0010
0100
0001
0010
1000
0010
,
0001
0010
1000
0010
0001
0100
1000
0100
,
0001
0100
1000
0100
0001
0010
0100
1000
,
0010
0100
0001
0010
0100
1000
0010
0100
,
0001
0010
0100
1000
0020
0000
0000
0000
,
0000
0030
0200
0000
,
0000
0300
2002
0000
,
0000
3003
0000
0000
;

//---------------dance-single - ----------------
#NOTEDATA:;
#CHARTNAME:;
#STEPSTYPE:dance-single;
#DESCRIPTION:;
#CHARTSTYLE:;
#DIFFICULTY:Medium;
#METER:7;
#RADARVALUES:0.430309,0.416124,0.193373,0.074374,0.000000,369.000000,26.000000,10.000000,0.000000,0.000000,0.000000,0.000000,0.000000,0.430309,0.416124,0.193373,0.074374,0.000000,369.000000,26.000000,10.000000,0.000000,0.000000,0.000000,0.000000,0.000000;
#CREDIT:;
#NOTES:
0000
0000
0000
0000
,
0000
0000
0000
0000
,
0000
0000
0000
0000
,
0000
0000
0000
0000
,
0000
0000
0000
0000
,
0000
0000
0000
0000
,
0000
0000
0000
0000
,
0000
0000
0000
0000
,
1000
0000
0100
0000
0010
0000
0001
1000
,
0001
0000
0100
0000
0010
0000
1000
0010
,
1000
0000
0100
0000
0010
0000
0001
0010
,
0001
0000
0100
0000
0010
0000
1000
0001
,
1000
0000
0000
0100
0000
0010
0100
0000
,
0010
0000
0000
0001
0000
1000
0001
0000
,
0100
0000
0000
0010
0000
0100
0010
0000
,
1000
0000
0000
0001
0000
1000
0001
0000
,
0010
0000
1000
0000
0100
0000
0010
0100
,
1000
0000
0010
0000
0100
0000
0001
1000
,
0010
0000
1000
0000
0100
0000
0010
0001
,
1000
0000
0001
0000
0010
0000
0001
0100
,
0010
0000
0000
1000
0000
0001
1000
0000
,
0100
0000
0000
0010
0000
1000
0010
0000
,
0100
0000
0000
1000
0000
0100
1000
0000
,
1001
0000
0000
0000
1000
0010
1000
0000
,
0100
0010
1001
0010
,
0001
0000
0000
0000
0001
0100
0001
0000
,
0010
0100
0001
0100
,
1000
0000
0010
0000
1000
0100
0000
0001
,
0100
0000
0010
0000
0001
0100
0000
1000
,
0100
0000
0010
0000
0100
1000
0000
0100
,
0001
0100
0010
0100
,
0010
0000
1001
0000
0010
1000
0000
0010
,
0000
0001
0000
0010
1000
0000
0110
0000
,
0000
0000
0010
0100
0010
0000
1001
0000
,
0000
0000
1000
0010
0100
0000
0001
0000
,
1000
0000
0001
0010
0001
0000
1000
0000
,
0100
0000
0010
0100
1000
0000
0010
0000
,
1000
0120
1000
0100
,
1000
0000
0130
0000
0000
0000
0001
1000
,
0001
0000
0010
0000
0001
0010
0000
1000
,
0000
0010
0000
0100
0010
0000
1001
0000
,
0000
0000
0010
0100
0010
0000
1001
0000
,
0000
0000
0001
0010
0001
0000
0100
0000
,
0010
0000
1000
0001
0100
0000
0010
0000
,
0100
0000
0001
0010
0100
0000
0010
0000
,
0001
0120
0001
0100
,
0001
0000
0130
0000
0000
0000
1000
0001
,
1000
0000
1001
0000
0000
0000
0010
1000
,
0010
0000
1010
0000
0000
0000
0100
0001
,
0100
0000
0101
0000
0000
0000
0001
1000
,
0001
1001
0000
0010
,
0000
0001
1000
0010
,
0100
0001
0100
0000
0010
0000
1000
0000
,
0100
0010
0001
0000
0100
0000
0010
0000
,
1000
0001
0100
0000
0010
0000
0100
0000
,
0001
1000
0001
0000
0000
0010
0000
0100
,
0010
0000
0100
0000
0000
1000
0000
0001
,
1000
0000
0100
0000
0000
0010
0000
0100
,
0010
0000
1000
0000
0000
0001
0000
1000
,
0001
0100
0010
1000
,
0100
1000
0100
0000
0010
0000
0001
0000
,
1000
0001
0100
0000
0001
0000
0010
0000
,
0001
0010
0001
0000
1000
0000
0010
0000
,
1000
0010
1000
0000
0000
0100
0000
0010
,
0100
0000
1000
0000
0000
0001
0000
1000
,
0001
0000
0100
0000
0000
0010
0000
0100
,
0010
0000
1001
0000
0000
0000
0001
0100
,
0001
0010
0100
1000
,
0010
0000
0100
0000
0001
0000
1000
0010
,
1000
0100
0010
0001
,
1000
0000
0100
0000
0010
0000
0100
1000
,
0000
0100
1000
0000
0010
0000
0100
0001
,
0000
0100
0001
0000
0010
0000
1100
0000
,
0010
0101
0010
1100
,
0110
0000
1001
0000
0010
0000
0001
0010
,
0000
1000
0000
0010
0000
0100
0010
0000
,
1001
0000
0000
0000
1000
0010
0100
0000
,
0001
0100
0001
0000
0001
0010
0100
0000
,
1000
0100
1000
0000
1010
0000
0100
0000
,
0010
0100
0010
0000
0011
0000
0100
0000
,
0010
0100
0010
0000
2000
0000
0001
0000
,
0100
3001
0002
1000
,
0100
0000
1003
0000
0010
0000
0001
0010
,
0000
1000
0000
0010
0000
0100
0010
0000
,
1001
0000
0000
0000
1000
0010
0100
0000
,
0001
0000
1000
0000
0001
0010
0100
0000
,
1000
0001
0011
0100
,
0010
0100
0010
0000
1010
0000
0100
0000
,
0010
0100
0010
0000
0002
0000
1000
0000
,
0010
1003
2000
0001
,
0010
3001
0020
0000
,
0000
0030
0200
0000
,
0000
0300
2002
0000
,
0000
3003
0000
0000
;

//---------------dance-single - ----------------
#NOTEDATA:;
#CHARTNAME:;
#STEPSTYPE:dance-single;
#DESCRIPTION:;
#CHARTSTYLE:;
#DIFFICULTY:Easy;
#METER:5;
#RADARVALUES:0.335747,0.346770,0.171061,0.126436,0.000000,276.000000,23.000000,17.000000,0.000000,0.000000,0.000000,0.000000,0.000000,0.335747,0.346770,0.171061,0.126436,0.000000,276.000000,23.000000,17.000000,0.000000,0.000000,0.000000,0.000000,0.000000;
#CREDIT:;
#NOTES:
0000
0000
0000
0000
,
0000
0000
0000
0000
,
0000
0000
0000
0000
,
0000
0000
0000
0000
,
0000
0000
0000
0000
,
0000
0000
0000
0000
,
0000
0000
0000
0000
,
0000
0000
0000
0000
,
1000
0010
1000
0010
,
0100
0001
0100
0001
,
0010
0001
0010
0001
,
1000
0100
1000
0100
,
0010
0010
0100
0000
,
0010
0010
0100
0000
,
0010
0010
0100
0000
,
0001
0000
1000
0000
,
0010
1000
0010
1000
,
0100
0010
0100
0010
,
0001
0100
0001
0100
,
0010
1000
0010
1000
,
0100
0100
0010
0000
,
0100
0100
0010
0000
,
0100
0100
0010
0000
,
1001
0000
2000
0010
,
0001
0010
0001
0010
,
3001
0002
0010
1000
,
0010
1000
0010
1000
,
0010
1003
0100
0010
,
0000
0001
0100
0010
,
0000
1000
0100
0010
,
0010
0001
1000
0001
,
1000
1001
0010
1001
,
0000
0110
0100
0110
,
0000
0001
0100
0101
,
0000
1000
0100
1100
,
0000
0020
0030
1000
,
0001
0200
0300
0010
,
0100
0001
0010
0100
,
1000
0001
0000
0010
,
0100
1001
0010
1001
,
0000
0110
0100
0110
,
0000
1000
0100
1100
,
0000
0001
0100
0101
,
0000
0020
0030
0001
,
1000
0200
0300
0010
,
0001
1000
0010
0100
,
0001
1000
0000
0010
,
0100
0110
0000
0001
,
1000
1001
0000
0100
,
0010
0110
0000
1000
,
0001
1001
0000
0010
,
0000
1000
0100
1000
,
0100
0001
0100
0001
,
0100
0010
0100
0010
,
0100
1000
0001
1000
,
0001
1000
0010
0100
,
0000
0001
0010
0100
,
0000
1000
0001
0100
,
0000
0010
1000
0001
,
0000
0010
0001
0010
,
0001
0100
0010
0100
,
0010
0100
0001
0100
,
0001
1000
0010
1000
,
0010
1000
0100
0010
,
0000
0001
0100
0010
,
0000
1000
0001
0100
,
0000
1001
0000
0002
,
0100
1000
0100
1000
,
0100
1003
2000
0100
,
0001
0100
0001
0100
,
0001
0000
0100
0000
3001
0000
0000
0100
,
0000
0000
0010
0000
1000
0000
0000
0100
,
0000
0010
0001
0100
,
1000
0100
0001
0100
,
1000
0100
0020
0000
,
0000
0000
0000
0000
,
0000
0030
0010
1001
,
0100
0000
0010
0110
,
0100
0000
0002
0003
,
0010
0100
2000
3000
,
0010
0100
0001
0010
,
0100
1000
0001
0000
,
1000
0010
1000
0100
,
0001
0100
1000
0100
,
0001
0000
0010
1001
,
0100
0000
0010
0110
,
0100
0000
0002
0003
,
1000
0100
2000
3000
,
0010
1000
0100
0010
,
0001
1000
0100
0010
,
0001
1000
0020
0000
,
0000
0030
0200
0000
,
0000
0300
2002
0000
,
0000
3003
0000
0000
;

//---------------dance-single - ----------------
#NOTEDATA:;
#CHARTNAME:;
#STEPSTYPE:dance-single;
#DESCRIPTION:;
#CHARTSTYLE:;
#DIFFICULTY:Beginner;
#METER:2;
#RADARVALUES:0.138124,0.171991,0.022312,0.000000,0.000000,127.000000,3.000000,0.000000,0.000000,0.000000,0.000000,0.000000,0.000000,0.138124,0.171991,0.022312,0.000000,0.000000,127.000000,3.000000,0.000000,0.000000,0.000000,0.000000,0.000000,0.000000;
#CREDIT:;
#NOTES:
// measure 0
0000
0000
0000
0000
,  // measure 1
0000
0000
0000
0000
,  // measure 2
0000
0000
0000
0000
,  // measure 3
0000
0000
0000
0000
,  // measure 4
0000
0000
0000
0000
,  // measure 5
0000
0000
0000
0000
,  // measure 6
0000
0000
0000
0000
,  // measure 7
0000
0000
0000
0000
,  // measure 8
0010
0000
0010
0000
,  // measure 9
1000
0000
1000
0000
,  // measure 10
0100
0000
0100
0000
,  // measure 11
0010
0000
0010
0000
,  // measure 12
0001
0000
0000
0000
,  // measure 13
1000
0000
0000
0000
,  // measure 14
0010
0000
0000
0000
,  // measure 15
0100
0000
0000
0000
,  // measure 16
0001
0000
0001
0000
,  // measure 17
0100
0000
0100
0000
,  // measure 18
0010
0000
0010
0000
,  // measure 19
1000
0000
1000
0000
,  // measure 20
0100
0000
0000
0000
,  // measure 21
0010
0000
0000
0000
,  // measure 22
0100
0000
0000
0000
,  // measure 23
0010
0010
0000
0000
,  // measure 24
0000
0001
0000
0000
,  // measure 25
0000
0100
0000
0000
,  // measure 26
0000
1000
0000
0000
,  // measure 27
0000
0100
0000
0000
,  // measure 28
0000
0001
0000
0000
,  // measure 29
0000
0010
0000
0000
,  // measure 30
0000
0100
0000
0000
,  // measure 31
0000
1000
0000
1000
,  // measure 32
0000
1000
0000
0000
,  // measure 33
0000
0010
0000
0000
,  // measure 34
0000
0001
0000
0000
,  // measure 35
0000
0100
0000
0010
,  // measure 36
0000
0100
0000
0010
,  // measure 37
0000
1001
0000
0010
,  // measure 38
0000
0100
0000
0000
,  // measure 39
0000
0001
0000
0010
,  // measure 40
0000
0001
0000
0000
,  // measure 41
0000
1000
0000
0010
,  // measure 42
0000
1000
0000
0000
,  // measure 43
0000
0010
0000
0100
,  // measure 44
0000
0010
0000
0100
,  // measure 45
0000
1001
0000
0010
,  // measure 46
0000
0100
0000
0000
,  // measure 47
0000
0001
0000
0000
,  // measure 48
0000
1000
0000
0000
,  // measure 49
0000
0001
0000
0000
,  // measure 50
0000
1000
0000
0000
,  // measure 51
0000
0010
0000
0010
,  // measure 52
0000
0100
0000
0100
,  // measure 53
0000
0001
0000
0001
,  // measure 54
0000
1000
0000
1000
,  // measure 55
0000
0100
0000
0000
,  // measure 56
0000
0010
0000
0000
,  // measure 57
0000
0100
0000
0000
,  // measure 58
0000
0010
0000
0000
,  // measure 59
0000
0001
0000
0001
,  // measure 60
0000
0100
0000
0100
,  // measure 61
0000
0010
0000
0010
,  // measure 62
0000
1000
0000
1000
,  // measure 63
0000
0100
0000
0000
,  // measure 64
0000
0010
0000
0000
,  // measure 65
0000
0100
0000
0000
,  // measure 66
0000
0010
0010
0000
,  // measure 67
0000
0000
0001
0000
,  // measure 68
0000
0000
0100
0000
,  // measure 69
0000
0000
1000
0000
,  // measure 70
0000
0000
0100
0000
,  // measure 71
0000
0000
0001
0000
,  // measure 72
0000
0000
0010
0000
,  // measure 73
0100
0000
0010
0000
,  // measure 74
0100
0000
1000
0000
,  // measure 75
0000
0000
0000
0000
,  // measure 76
0000
0000
0001
0000
,  // measure 77
0010
0000
0100
0000
,  // measure 78
1000
0000
0010
0000
,  // measure 79
0100
0000
0001
0000
,  // measure 80
0010
0000
0100
0000
,  // measure 81
1000
0000
0010
0000
,  // measure 82
0100
0000
0001
0000
,  // measure 83
0010
0000
1000
0000
,  // measure 84
0010
0000
0001
0000
,  // measure 85
0100
0000
1000
0000
,  // measure 86
0010
0000
0001
0000
,  // measure 87
0100
0000
1000
0000
,  // measure 88
0010
0000
0100
0000
,  // measure 89
0001
0000
0010
0000
,  // measure 90
0100
0000
0010
0000
,  // measure 91
0000
0000
0100
0000
,  // measure 92
0000
0000
1001
0000
;
