#TITLE:Five More Hours;
#SUBTITLE:;
#ARTIST:Deorro feat. Chris Brown;
#TITLETRANSLIT:;
#SUBTITLETRANSLIT:;
#ARTISTTRANSLIT:;
#GENRE:Good Evening;
#CREDIT:;
#BANNER:Five More Hours-bn.png;
#BACKGROUND:Five More Hours-bg.png;
#LYRICSPATH:;
#CDTITLE:;
#MUSIC:Five More Hours.mp3;
#OFFSET:-0.020530;
#SAMPLESTART:45.020187;
#SAMPLELENGTH:15.000000;
#LASTBEATHINT:256.915405;
#SELECTABLE:YES;
#DISPLAYBPM:128.000000;
#BPMS:0.000000=128.000000
,160.000000=126.999992
,172.000000=128.000000
,188.000000=131.050003
,192.000000=128.000000
;
#STOPS:
;
#BGCHANGES:0.000=Five More Hours-video.avi=1.000=1=0=0=StretchNoLoop==CrossFade==,
99999=-nosongbg-=1.000=0=0=0 // don't automatically add -songbackground-
;
#KEYSOUNDS:;
#ATTACKS:;

//---------------dance-single - ----------------
#NOTES:
     dance-single:
     :
     Hard:
     7:
     0.476768,0.476323,0.207548,0.149435,0.037359,402.000000,377.000000,25.000000,18.000000,0.000000,0.000000,0.476768,0.476323,0.207548,0.149435,0.037359,402.000000,377.000000,25.000000,18.000000,0.000000,0.000000:
0000
0000
0000
0000
,
0000
0000
0000
0000
,
0000
0000
0000
0000
,
0000
0000
0000
0000
,
1000
0000
0000
0000
0001
0000
0000
0100
0000
0000
0010
0000
1000
0000
0100
0000
,
0010
0000
0000
0000
0001
0000
0000
1000
0000
0000
0010
0000
0100
0000
0000
0000
,
0010
0000
0000
0000
1000
0000
0000
0100
0000
0000
1000
0000
0001
0000
0100
0000
,
0010
1000
0100
0010
0000
0001
1000
0001
,
0000
1000
0000
1100
0000
0010
0000
0110
,
0000
0001
0000
1001
0000
0010
0001
1000
,
0000
0010
0100
0010
0000
0110
0000
1001
,
0000
0100
0000
0001
0000
1000
0000
1010
,
0000
0011
0000
1001
0100
0010
1000
0100
,
0000
0010
0000
0011
0000
1000
0001
0100
,
0000
0010
1000
0100
0000
0110
0000
1001
,
0000
0100
0000
0010
1000
0000
0001
0000
,
1001
0000
1100
0000
0101
0000
1000
0100
,
0000
0110
0000
0001
1000
0000
0010
1000
,
0001
0000
0010
0000
0001
0000
1000
0000
0001
0000
0010
0000
0001
1000
0001
0000
,
0010
0001
1000
0100
2000
0000
3010
0000
,
1010
0000
0011
0000
1001
0000
0001
0100
,
0000
0110
0000
1000
0001
0000
0100
0001
,
1000
0000
0010
0000
1000
0000
0001
0000
1000
0000
0010
0000
1000
0001
1000
0000
,
0010
1000
0001
0100
0002
0000
0013
0000
,
0011
0001
0010
0100
0010
0001
0010
0100
,
1000
0100
0010
0100
1000
0100
0010
0001
,
1000
0000
0010
0000
1000
0000
0001
0000
1000
0000
0100
0000
0010
0100
0010
0000
,
0001
1000
0001
0100
0020
0000
1030
0000
,
0100
1000
0100
0010
0100
0001
0100
1000
,
0100
0010
0001
0010
0100
1000
0100
0010
,
0100
0000
1000
0000
0001
1000
0100
0010
,
0000
0010
0000
0001
1000
0000
1001
0000
,
0100
1000
0100
0010
0100
0001
0100
0010
,
0100
1000
0100
0010
0100
0001
0100
0010
,
0001
0010
0100
0010
1000
0010
0100
0010
,
0001
0010
0100
0010
1000
0010
0001
0010
,
0001
0100
0010
0100
0001
0100
1000
0100
,
0001
0100
0010
0100
0001
0100
1000
0100
,
0001
0010
1000
0010
0001
0100
1000
0100
,
0001
0010
1000
0010
0001
0100
1000
0100
,
0010
0000
1000
0001
0200
0000
0301
0000
,
0010
0001
1000
0010
0200
0000
0310
0000
,
1000
0100
0010
0001
2000
0000
0100
3100
,
0000
0000
0000
1000
0010
1000
0001
0020
,
0000
0000
0130
1000
0001
0000
0101
0000
,
0001
1000
0010
0100
0001
0000
0101
0000
,
0001
1000
0100
1000
0002
0000
0100
0103
,
0000
0000
0000
0000
,
0010
0000
1000
0000
0100
0000
1000
0001
,
0000
0101
0000
0001
1000
0000
2200
0000
,
3300
0000
0010
0000
0100
0000
0001
0000
1000
0000
0010
0000
1000
0001
1000
0000
,
0100
0010
0001
1000
0200
0000
0310
0000
,
0001
0000
0100
0000
0001
1000
0100
0010
,
0000
0100
0000
1000
0001
0000
0100
0000
,
0000
0000
0010
0000
1000
0000
0100
0000
1000
0000
0010
0000
0100
0001
0100
0000
,
0010
1000
0100
0010
0002
0000
1003
0000
,
0001
0100
1000
0100
0001
0100
0010
1000
,
0010
0001
0010
1000
0001
1000
0100
0010
,
0001
0000
1000
0000
0100
0000
1000
0000
0001
0000
0010
0000
0100
1000
0001
0000
,
0010
0001
1000
0100
0020
0000
0130
0000
,
1000
0010
1000
0001
1000
0100
1000
0001
,
0010
0001
1000
0001
0100
0001
1000
0001
,
0020
0000
0230
0000
1300
0001
0100
0020
,
0000
2030
0000
3001
0200
0000
0310
0000
;

//---------------dance-single - ----------------
#NOTES:
     dance-single:
     :
     Medium:
     6:
     0.374773,0.476323,0.298869,0.240756,0.000000,316.000000,280.000000,36.000000,29.000000,0.000000,0.000000,0.374773,0.476323,0.298869,0.240756,0.000000,316.000000,280.000000,36.000000,29.000000,0.000000,0.000000:
0000
0000
0000
0000
,
0000
0000
0000
0000
,
0000
0000
0000
0000
,
0000
0000
0000
0000
,
1000
0000
0010
0000
1000
0100
1000
0000
,
0001
0000
0010
0000
0001
0100
0001
0000
,
1000
0000
0001
0000
0100
0010
0100
0000
,
0010
1000
0100
0100
,
1000
1100
0010
0110
,
0001
0000
1001
0000
0010
0001
1000
0000
,
0010
0100
0010
0000
0110
0000
1001
0000
,
0100
0001
1000
1000
,
0010
0000
0100
0000
0010
1000
0100
0000
,
0010
0000
0011
0000
1000
0001
0100
0000
,
0010
1000
0100
0000
0110
0000
1001
0000
,
0100
0010
1000
0001
,
1001
0000
0100
0000
0010
0000
1000
0001
,
0000
1000
0000
0001
1000
0000
0100
0000
,
0000
0010
0001
0010
0002
0000
1003
0000
,
0010
1000
0020
0000
0130
0000
0100
0000
,
0001
0000
0010
0000
0100
0000
1000
0001
,
0000
1000
0000
0001
1000
0000
0100
0000
,
0000
0010
0100
0010
0200
0000
1300
0000
,
0001
0100
0020
0000
1030
0000
0001
0000
,
1100
1100
1001
1001
,
0101
0101
1001
1001
,
0010
0000
0001
0000
1000
0000
0001
0100
,
0020
1030
0100
1001
,
0011
0011
1010
1010
,
1001
1001
0110
0110
,
0001
0000
0100
0000
0010
0000
1000
0100
,
0000
0010
0000
0100
0020
0000
0130
0000
,
1100
0000
1100
0000
0001
1000
0001
0000
,
0101
0000
0101
0000
1000
0001
1000
0000
,
1100
0000
1100
0000
0001
1000
0001
0000
,
0101
0000
0101
0000
1000
0001
0100
0001
,
1000
0000
1000
0000
0010
1000
0010
0000
,
0001
0000
0001
0000
0010
0001
0010
0000
,
1000
0000
0100
0000
0001
1000
0001
0000
,
0100
0000
0010
0000
1000
0001
1000
0000
,
0010
0000
1000
0010
2000
0000
3100
0000
,
0010
0100
0010
0000
0002
0000
1003
0000
,
0010
0100
0010
0000
1000
0000
0001
0000
,
0100
0000
0000
0000
0010
0100
0010
0000
,
1000
0000
0100
0010
0200
0000
0310
0000
,
0001
1000
0001
0000
0200
0000
0310
0000
,
0100
0001
0100
0000
0010
0000
1000
0000
,
0200
0300
0020
0030
,
0001
0000
1000
0000
0001
0000
1000
0001
,
0000
1000
0000
0001
2000
0000
3100
0000
,
0000
0010
0100
0010
0200
0000
1300
0000
,
0001
1000
0100
0000
0020
0000
0031
0000
,
0100
0000
0010
0000
1000
0000
0001
1000
,
0000
0100
0000
0010
0200
0000
0310
0000
,
0000
0001
1000
0001
2000
0000
3010
0000
,
0100
0001
1000
0000
0020
0000
0030
0000
,
2001
0000
3002
0000
2003
0000
3001
0100
,
0000
0001
0000
1000
0100
0000
0010
0000
,
0001
0100
0001
0000
1000
0010
1000
0000
,
0100
1000
0100
0000
0020
0000
0130
0000
,
0210
0000
0320
0000
0230
0000
0310
0001
,
0000
1000
0000
0001
0100
0000
0010
0000
,
2000
0000
3200
0000
0320
0000
0031
1000
,
0000
0001
0000
0100
0020
0000
0130
0000
;

//---------------dance-single - ----------------
#NOTES:
     dance-single:
     :
     Easy:
     4:
     0.236012,0.238161,0.008302,0.132831,0.000000,199.000000,198.000000,1.000000,16.000000,0.000000,0.000000,0.236012,0.238161,0.008302,0.132831,0.000000,199.000000,198.000000,1.000000,16.000000,0.000000,0.000000:
// measure 0
0000
0000
0000
0000
,  // measure 1
0000
0000
0000
0000
,  // measure 2
0000
0000
0000
0000
,  // measure 3
0000
0000
0000
0000
,  // measure 4
1000
1000
0100
0000
,  // measure 5
0001
0001
1000
0000
,  // measure 6
0010
0010
0100
0000
,  // measure 7
0001
0001
0100
0000
,  // measure 8
0010
0010
1000
1000
,  // measure 9
0100
0100
0010
0010
,  // measure 10
0001
0001
1000
1000
,  // measure 11
0100
0000
0000
0000
,  // measure 12
0010
0010
0001
0001
,  // measure 13
1000
1000
0010
0010
,  // measure 14
0100
0100
0001
0001
,  // measure 15
0010
0000
0000
0000
,  // measure 16
0100
1000
0001
1000
,  // measure 17
0001
1000
0100
0010
,  // measure 18
0000
0002
0103
0020
,  // measure 19
1030
0200
0310
0001
,  // measure 20
1000
0010
0100
0001
,  // measure 21
0010
0100
0010
0100
,  // measure 22
0000
2000
3001
0200
,  // measure 23
0310
0002
1003
0010
,  // measure 24
1000
0100
0010
0001
,  // measure 25
0100
0010
0100
0010
,  // measure 26
0000
2000
0010
0001
,  // measure 27
0010
0001
0010
0001
,  // measure 28
3010
0100
0010
0100
,  // measure 29
0001
1000
0100
0010
,  // measure 30
0001
0001
0100
0000
,  // measure 31
1000
0000
0100
0000
,  // measure 32
1001
0000
0010
0001
,  // measure 33
1000
0000
0010
1000
,  // measure 34
0001
0100
0001
1000
,  // measure 35
0001
0100
0001
1000
,  // measure 36
0100
0010
0001
0000
,  // measure 37
0100
0010
1000
0000
,  // measure 38
0001
1000
0100
1000
,  // measure 39
0001
0100
0001
1000
,  // measure 40
0002
0003
0010
0100
,  // measure 41
2000
3000
0100
0010
,  // measure 42
0002
0003
1000
0001
,  // measure 43
0100
0000
0010
1000
,  // measure 44
0200
0300
0010
0001
,  // measure 45
0200
0300
0010
1000
,  // measure 46
0002
0003
2000
3000
,  // measure 47
0200
0300
0020
0030
,  // measure 48
0001
0001
0100
0000
,  // measure 49
1000
0000
0100
0000
,  // measure 50
0000
0010
0001
0100
,  // measure 51
0010
0100
0010
0100
,  // measure 52
0010
1000
0100
0000
,  // measure 53
0010
0001
0100
0000
,  // measure 54
0000
0001
1000
0100
,  // measure 55
0010
0100
0010
0000
,  // measure 56
0001
0100
1000
0000
,  // measure 57
1000
0100
0001
0000
,  // measure 58
0001
0100
1000
0100
,  // measure 59
0010
0100
0001
0100
,  // measure 60
0001
0010
1000
0000
,  // measure 61
1000
0010
0001
0000
,  // measure 62
1000
0001
0100
0100
,  // measure 63
1000
0001
0100
0100
;

//---------------dance-single - ----------------
#NOTES:
     dance-single:
     :
     Beginner:
     1:
     0.154179,0.158152,0.000000,0.000000,0.000000,130.000000,130.000000,0.000000,0.000000,0.000000,0.000000,0.154179,0.158152,0.000000,0.000000,0.000000,130.000000,130.000000,0.000000,0.000000,0.000000,0.000000:
// measure 0
0000
0000
0000
0000
,  // measure 1
0000
0000
0000
0000
,  // measure 2
0000
0000
0000
0000
,  // measure 3
0000
0000
0000
0000
,  // measure 4
1000
0000
0100
0000
,  // measure 5
0001
0000
0100
0000
,  // measure 6
1000
0000
0100
0000
,  // measure 7
0001
0000
0010
0000
,  // measure 8
0100
0000
0100
0000
,  // measure 9
1000
0000
1000
0000
,  // measure 10
0001
0000
0001
0000
,  // measure 11
0100
0000
0100
0000
,  // measure 12
0010
0000
1000
0000
,  // measure 13
0100
0000
0010
0000
,  // measure 14
0001
0000
0100
0000
,  // measure 15
0010
0000
1000
0000
,  // measure 16
0100
0100
0100
0000
,  // measure 17
0010
0000
0001
0000
,  // measure 18
0000
1000
1000
1000
,  // measure 19
1000
0000
0001
0000
,  // measure 20
0100
0000
0010
0000
,  // measure 21
1000
0000
0100
0000
,  // measure 22
0000
0010
0010
0010
,  // measure 23
0010
0000
0001
0000
,  // measure 24
0100
0000
0010
0000
,  // measure 25
1000
0000
0100
0000
,  // measure 26
0010
0000
0001
0000
,  // measure 27
0100
0000
0010
0000
,  // measure 28
1000
1000
1000
0000
,  // measure 29
0100
0000
0010
0000
,  // measure 30
0001
0001
0001
0000
,  // measure 31
0010
0000
0100
0000
,  // measure 32
1000
0000
1000
0000
,  // measure 33
0001
0001
0001
0000
,  // measure 34
0100
0000
0100
0000
,  // measure 35
0010
0010
0010
0000
,  // measure 36
1000
0000
0100
0000
,  // measure 37
0010
0010
0010
0000
,  // measure 38
0001
0000
0100
0000
,  // measure 39
0010
0010
0010
0000
,  // measure 40
1000
0000
0100
0000
,  // measure 41
0100
0000
0000
0000
,  // measure 42
0010
0000
0001
0000
,  // measure 43
0100
0000
0000
0000
,  // measure 44
0001
0000
1000
0000
,  // measure 45
0100
0000
0000
0000
,  // measure 46
0010
0000
0001
0000
,  // measure 47
0100
0000
0000
0000
,  // measure 48
0010
0010
0010
0000
,  // measure 49
1000
0000
0100
0000
,  // measure 50
0010
0000
0001
0000
,  // measure 51
0100
0000
0010
0000
,  // measure 52
1000
1000
1000
0000
,  // measure 53
0100
0000
0010
0000
,  // measure 54
0001
0000
0100
0000
,  // measure 55
0010
0000
1000
0000
,  // measure 56
0001
0001
0001
0000
,  // measure 57
0010
0000
0100
0000
,  // measure 58
1000
0000
0010
0000
,  // measure 59
0001
0000
0010
0000
,  // measure 60
1000
1000
1000
0000
,  // measure 61
0100
0000
0010
0000
,  // measure 62
0001
0001
0001
0000
,  // measure 63
0010
0000
0100
0000
;
