#VERSION:0.83;
#TITLE:Fergalicious;
#SUBTITLE:;
#ARTIST:Fergie;
#TITLETRANSLIT:;
#SUBTITLETRANSLIT:;
#ARTISTTRANSLIT:;
#GENRE:The Dutchess;
#ORIGIN:;
#CREDIT:;
#BANNER:Fergalicious-bn.png;
#BACKGROUND:Black.png;
#PREVIEWVID:Fergalicious-preview.avi;
#JACKET:Fergalicious-jacket.png;
#CDIMAGE:;
#DISCIMAGE:Fergalicious-bg.png;
#LYRICSPATH:;
#CDTITLE:;
#MUSIC:Fergalicious.mp3;
#OFFSET:-0.002006;
#SAMPLESTART:45.991531;
#SAMPLELENGTH:15.307110;
#SELECTABLE:YES;
#DISPLAYBPM:129.000000;
#BPMS:0.000=129.025,
125.500=516.100,
128.000=129.025,
264.500=516.100,
271.000=129.025,
301.500=126.000,
302.000=100.000,
302.750=95.000,
303.000=90.000,
303.250=85.000,
303.500=80.000,
303.750=75.000,
304.000=70.000;
#STOPS:125.500=0.174,
126.000=0.174,
126.500=0.174,
127.000=0.087,
127.250=0.087,
127.500=0.174,
128.000=1.395,
131.000=0.465,
134.000=0.465,
264.500=0.174,
265.000=0.087,
265.250=0.087,
265.500=0.174,
266.000=0.174,
266.500=0.174,
267.000=0.174,
267.500=0.174,
268.000=0.174,
268.500=0.174,
269.000=0.174,
269.500=0.174,
270.000=0.174,
270.500=0.174;
#DELAYS:;
#WARPS:;
#TIMESIGNATURES:0.000=4=4;
#TICKCOUNTS:0.000=2;
#COMBOS:0.000=1;
#SPEEDS:0.000=1.000=0.000=0;
#SCROLLS:0.000=1.000;
#FAKES:;
#LABELS:0.000=Song Start;
#LASTSECONDHINT:145.419769;
#BGCHANGES:-0.500=Fergalicious-video.avi=1.000=0=0=0=StretchNoLoop====,
99999=-nosongbg-=1.000=0=0=0 // don't automatically add -songbackground-
;
#KEYSOUNDS:;
#ATTACKS:
;

//---------------dance-single - ----------------
#NOTEDATA:;
#CHARTNAME:;
#STEPSTYPE:dance-single;
#DESCRIPTION:;
#CHARTSTYLE:;
#DIFFICULTY:Challenge;
#METER:10;
#RADARVALUES:0.642937,0.726191,0.334229,0.201690,0.636763,781.000000,723.000000,58.000000,35.000000,0.000000,2.000000,0.000000,0.000000,0.000000,0.642937,0.726191,0.334229,0.201690,0.636763,781.000000,723.000000,58.000000,35.000000,0.000000,2.000000,0.000000,0.000000,0.000000;
#CREDIT:;
#DISPLAYBPM:129.000000;
#NOTES:
0000
0000
0000
0000
,
0000
0000
0000
0000
,
0000
0000
0000
0000
,
0000
0000
0000
0000
,
0000
0000
0000
0000
,
0001
1000
0100
1000
0100
1000
0100
1000
0100
1000
0100
1000
0100
1000
0100
1000
,
0001
1000
0100
1000
0100
1000
0001
1000
0100
1000
0100
1000
0001
1000
0100
1000
,
0001
0100
0010
0100
0010
0100
0010
0100
0010
0100
0010
0100
0010
0100
0010
0100
,
0001
0100
0010
0100
0010
0100
0001
0100
0010
0100
0010
0100
0001
0100
0010
0100
,
0001
1000
0010
0010
0001
1000
0100
0100
,
0001
0000
1000
0000
0100
0000
0010
0000
0001
0000
1100
0000
0000
0011
0000
0000
,
1100
0000
1000
0000
0001
0000
0100
0000
0010
1000
0010
0000
1000
0000
0001
0000
,
0001
0000
0100
0000
1000
0000
0010
0000
1000
0000
1000
0000
0001
0010
0001
0000
,
0100
0100
1000
0001
0100
0100
0010
1000
,
0001
0000
0001
0000
0010
0000
0100
0000
1000
0000
1000
0000
0100
0010
0001
0000
,
0100
0000
0001
0000
1000
0000
0100
0000
1000
0001
0100
0000
0001
0000
1000
0000
,
0010
0100
1000
0001
0100
0010
1000
0100
,
0010
0000
0001
0000
2000
0000
0200
3000
0002
0300
0200
0003
0000
0300
1001
0000
,
0000
0000
0001
0000
0010
0000
0100
0000
1000
0000
0010
0100
0000
0001
1000
0000
,
0100
0000
0010
0000
0001
0000
0100
0000
1000
0100
1000
0000
0000
0000
0010
0000
,
0100
0000
0001
0000
1000
0000
0010
0000
0100
0000
0001
0000
0010
0100
1000
0000
,
0001
0000
0100
0000
0202
0000
0000
1010
0000
0303
0100
0000
0001
0000
0100
0000
,
0001
0000
0010
0000
1100
0000
0000
0011
0000
0000
0001
0000
1000
0100
0010
0000
,
0001
0000
0100
0000
0001
0000
0001
0000
1000
0010
1000
0000
0010
0000
0100
0000
,
0201
0000
1000
0001
1300
0000
0110
1001
,
0010
1000
0100
1000
0100
1000
0100
1000
0100
1000
0100
1000
0100
1000
0100
1000
,
0010
1000
0100
1000
0100
1000
0010
1000
0100
1000
0100
1000
0010
1000
0100
1000
,
0010
0100
0001
0100
0001
0100
0001
0100
0001
0100
0001
0100
0001
0100
0001
0100
,
0010
0100
0001
0100
0001
0100
0010
0100
0001
0100
0001
0100
0010
0100
0001
0100
,
0010
1000
0001
1000
0001
1000
0001
1000
0001
1000
0001
1000
0001
1000
0001
1000
,
0010
1000
0001
1000
0001
1000
0010
1000
0001
1000
0001
1000
0010
1000
0001
1000
,
0010
1000
0100
0010
0001
1000
0100
0000
0100
0000
0100
0000
0100
0010
0100
0000
,
0100
0000
1001
0100
1000
0100
0001
0000
,
1001
0100
1000
0100
0001
0000
1001
0100
,
1000
0100
0001
0000
0001
0001
0001
0001
,
0001
0001
0001
0001
0001
0001
2010
0000
,
3001
0000
1000
0100
0010
0000
0000
0000
2100
0000
3001
0100
0010
0000
1000
0000
,
0001
1000
1100
0011
1100
1100
0012
0000
,
0103
0000
0001
1000
0010
0000
0000
0000
0102
0000
1003
0001
0100
0000
0010
0000
,
1000
0001
0101
1010
0101
0101
1200
0000
,
0310
0000
0100
1000
0010
0000
0000
0000
0102
0000
1003
0010
0100
0000
0001
0000
,
0010
0000
0100
0000
0110
0000
0011
0000
1100
0000
1000
0001
0200
0000
0000
0000
,
0310
0000
1000
0100
0020
0000
0000
0000
0031
0000
1000
0100
0000
0000
0100
0001
,
0000
0000
0001
1000
0100
0010
0100
0000
0010
0000
0000
0000
0001
1000
0010
0100
,
0001
1000
0100
0000
0100
1000
0010
0100
0001
0000
0010
0001
0100
0010
1000
0100
,
0010
0001
0100
0000
0100
0001
1000
0010
0200
0000
0000
0000
0301
1000
0100
1000
,
0001
0010
0100
0000
1000
0100
0010
0001
0100
0000
0010
0000
1000
0010
0100
0001
,
0001
0010
0100
1000
1000
0001
0100
0010
0100
0000
0001
1000
0100
0010
0001
1000
,
0100
0000
0010
0100
1000
0100
0001
0100
0010
0100
1000
0001
0100
0000
0010
1000
,
0001
0100
0010
1000
0100
0000
0010
0100
1000
1000
0001
0100
0010
1000
0100
0000
,
0000
0000
1000
0001
1000
0000
0010
0000
0100
0001
1000
0000
0001
0100
0001
0000
,
0000
0010
0100
1000
0001
1000
0100
0010
,
0002
0000
0200
0003
2000
0300
0200
3000
0000
0300
1001
0000
0000
0000
0100
0000
,
1000
0000
0010
0000
1000
0000
1000
0001
0000
0100
0001
0000
0100
0000
0001
0000
,
1000
0000
0010
0000
0100
0010
0100
0000
0000
0000
0001
0000
0100
0000
1000
0000
,
0001
0000
0010
0000
1000
0000
0010
0000
0001
1000
0100
0000
1000
0000
0100
0000
,
2200
0000
0000
0011
0000
3300
0100
0000
1000
0000
0100
0000
1000
0000
0001
0000
,
1010
0000
0000
0101
0000
0000
0001
0000
0010
0100
1000
0000
0001
0000
0100
0000
,
0001
0000
1000
0000
0100
0010
0100
0000
0010
0000
1000
0000
0200
0000
0000
0000
,
0001
0000
1000
0000
0301
0000
0000
0000
0110
0000
1001
0000
1000
0001
0100
0001
,
0010
0001
0100
0001
0010
0001
0100
0001
0010
0001
0100
0001
1000
0001
0100
0001
,
0010
0001
1000
0001
0100
0001
0010
0001
1000
0001
0100
0001
1000
0100
1000
0010
,
1000
0100
1000
0010
1000
0100
1000
0010
1000
0100
1000
0010
0100
0010
1000
0100
,
1000
0010
0100
0010
1000
0100
1000
0010
0100
0010
1000
0100
1000
0001
0100
0001
,
1000
0001
0100
0001
1000
0001
0100
0001
1000
0001
0100
0001
0010
0001
0100
0001
,
1000
0001
0010
0001
0100
0001
1000
0001
0010
0001
0100
0001
1000
0010
0100
0001
,
1000
0010
0100
0000
0000
0000
0000
0000
0000
0000
0000
0000
0000
0000
0000
0000
,
0000
0000
0000
0000
0000
0000
0102
0003
,
2010
0000
3001
0010
0100
0000
0000
0000
0021
0000
0130
1000
0010
0000
0100
0000
,
0001
1000
1100
0011
0101
0101
1020
0030
,
0201
0000
0310
1000
0100
0000
0000
0000
0120
0000
0031
1000
0010
0000
0100
0000
,
0001
1000
1010
0110
0101
1001
0021
0030
,
1200
0000
0310
0001
0100
0000
0000
0000
2010
0000
3001
0100
0010
0000
1000
0000
,
0100
0000
0010
0000
0110
0000
0011
0000
1100
0000
0010
0100
2000
0000
0000
0000
,
3001
0000
0010
0100
2000
0000
0000
0000
3000
0000
0001
0010
0000
0000
0010
1000
,
0000
0000
1000
0001
0010
0100
0010
0100
0000
0000
2000
0000
0000
0000
0000
0000
,
0000
0000
0000
3000
0000
0000
0000
0000
;

//---------------dance-single - ----------------
#NOTEDATA:;
#CHARTNAME:;
#STEPSTYPE:dance-single;
#DESCRIPTION:;
#CHARTSTYLE:;
#DIFFICULTY:Hard;
#METER:8;
#RADARVALUES:0.384445,0.374098,0.126776,0.109489,0.020169,467.000000,445.000000,22.000000,19.000000,0.000000,0.000000,0.000000,0.000000,0.000000,0.384445,0.374098,0.126776,0.109489,0.020169,467.000000,445.000000,22.000000,19.000000,0.000000,0.000000,0.000000,0.000000,0.000000;
#CREDIT:;
#DISPLAYBPM:129.000000;
#NOTES:
0000
0000
0000
0000
,
0000
0000
0000
0000
,
0000
0000
0000
0000
,
0000
0000
0000
0000
,
0000
0000
0000
0000
,
1000
0000
0002
0000
0103
0000
0101
1000
,
0010
0000
0100
0000
0010
1000
0100
0000
,
1100
0002
0013
1100
,
0010
1000
0100
0001
0000
0000
0000
0000
,
0100
0010
0100
0100
0010
0001
0010
0010
,
0001
1000
0001
0100
0001
0001
0000
0000
,
1000
0010
1000
0100
1000
1000
0100
0100
,
0010
0100
1000
0100
0010
0000
0001
1000
,
0001
0000
0100
0010
1100
0000
0010
0100
,
0010
0000
0100
0001
1010
0000
0001
1000
,
0001
0000
0010
0100
0011
0000
0100
0010
,
0100
0001
1000
0001
1000
0000
0010
0100
,
0101
0000
1000
0100
1000
0100
0000
1001
,
0000
0000
1000
0000
0010
0000
0100
0000
0001
0000
0000
1000
0000
0000
0100
0000
,
0010
0001
0010
0001
0010
0001
0000
1000
,
0010
0100
0010
1000
0010
0010
1000
0001
,
1000
0000
0101
0000
1010
0000
0100
0010
,
0100
0000
0000
0000
1000
0000
0000
1000
0000
0000
1000
0000
0001
0000
0100
0000
,
0010
0010
0100
0001
1000
0000
0001
0010
,
0100
0000
1000
0001
1000
0000
0010
0100
,
0020
0000
1030
0000
0001
1000
0200
0000
,
1000
0000
0000
0000
0010
0000
0000
0010
0300
0000
0100
0000
0010
0000
0001
0000
,
0200
0000
0301
0000
1000
0001
0010
0001
,
1000
0000
0001
0000
0100
0000
0000
0100
0000
0000
0010
0000
0100
0000
0001
0000
,
1000
0100
1000
0000
0001
0010
0100
1000
,
0001
0000
0100
0000
0001
0000
0000
1000
0000
0000
0010
0000
0100
0000
0001
0000
,
0100
0001
0000
1000
1000
1000
1000
1000
,
1000
0000
0001
0010
0100
1000
1100
0000
,
0001
0010
0100
1000
1100
0000
0001
0010
,
0100
1000
0100
0000
2200
0000
3300
0000
,
2200
3300
1100
1001
,
0001
1000
0010
0000
1000
0001
0100
0010
,
0100
0010
1000
0001
0100
0010
0100
0000
,
0001
1000
0010
0000
1000
0001
0100
0010
,
1000
0001
0100
0010
0100
0010
0100
0000
,
0001
0010
0100
0000
1000
0010
0100
0001
,
0010
0100
1000
0010
0100
0001
0010
0000
,
0100
1000
0010
0000
0100
0001
0000
0010
,
0000
0100
1000
0010
1010
0000
1000
0001
,
1000
1000
0001
1000
0001
0010
0001
1000
,
0001
1000
0001
0100
0002
0000
1003
0001
,
1000
0001
1000
0010
1000
0001
1000
0100
,
1000
0100
0001
0100
1000
0010
1000
0100
,
1000
0100
1000
0100
0001
0100
0010
0100
,
0001
0100
1000
0100
0010
0100
1000
2000
,
0000
3001
0100
0010
0100
0010
0100
0200
,
0000
0301
1000
0001
0010
0100
1100
0000
,
0010
0001
1000
0001
0000
1001
0000
1000
,
0010
0000
0001
0000
0010
0000
0000
0100
0000
0000
0001
0000
0010
0000
1000
0000
,
0010
0100
0010
0010
0000
0001
0100
0010
,
0100
0001
1000
1000
0010
0100
0001
0000
,
0101
0000
1010
0000
0001
0010
0100
1000
,
0010
0000
0000
0010
0000
0000
0010
0000
0100
0000
0001
0000
1000
0000
1000
0000
,
0010
0100
0001
0001
0010
0100
1000
0000
,
0010
0100
0010
0000
1000
0001
0200
0000
,
0310
0000
0001
1000
0010
0100
0002
0000
,
0010
1000
0000
0010
1003
0000
0020
0000
,
0130
0000
0001
0010
0100
1000
0001
0100
,
0010
2000
0000
3010
0100
0001
1000
0100
,
1000
0000
0001
0010
0100
1000
0020
0000
,
0100
1000
0000
0100
1030
0000
0002
0000
,
1003
0000
0000
0000
,
0000
0000
0000
1001
,
0001
0010
0100
0000
1000
0010
0100
0001
,
1000
0100
1000
0001
0100
0001
0100
0000
,
1000
0001
0100
0000
0010
1000
0100
0010
,
0001
1000
0100
0010
0100
0010
0100
0000
,
0010
0001
1000
0000
0010
0100
0001
0010
,
0100
1000
0001
0010
0100
1000
0010
0000
,
0100
0001
0010
0000
0100
1000
0000
0001
,
0000
0100
0100
0100
0000
0200
0000
0000
,
0000
0000
0000
0300
0000
0000
0000
0000
;

//---------------dance-single - ----------------
#NOTEDATA:;
#CHARTNAME:;
#STEPSTYPE:dance-single;
#DESCRIPTION:;
#CHARTSTYLE:;
#DIFFICULTY:Medium;
#METER:6;
#RADARVALUES:0.288951,0.352093,0.178639,0.288128,0.000000,351.000000,320.000000,31.000000,50.000000,0.000000,0.000000,0.000000,0.000000,0.000000,0.288951,0.352093,0.178639,0.288128,0.000000,351.000000,320.000000,31.000000,50.000000,0.000000,0.000000,0.000000,0.000000,0.000000;
#CREDIT:;
#DISPLAYBPM:129.000000;
#NOTES:
0000
0000
0000
0000
,
0000
0000
0000
0000
,
0000
0000
0000
0000
,
0000
0000
0000
0000
,
0000
0000
0000
0000
,
1000
0000
0001
0000
2000
0000
3000
0010
,
1000
0010
0000
0200
0000
0000
0300
0000
,
0001
0010
0100
1000
,
0001
1000
0000
0002
0000
0000
0003
0000
,
2000
3010
0002
0103
,
0010
0000
0100
0000
0010
0100
0010
0000
,
0002
1003
0020
0130
,
0001
0000
1000
0000
0100
1000
0001
0000
,
0010
0000
0010
0100
1000
0000
2000
0000
,
3010
0000
0010
0100
0001
0000
0002
0000
,
0013
0001
0010
0000
0100
1000
0100
0000
,
1000
0001
1000
0000
0010
0000
0110
0000
,
2000
3002
0103
1001
,
0100
1001
0100
1001
,
0010
0001
0010
0001
0010
0000
1001
0000
,
0100
0001
0100
0001
0100
0000
1001
0000
,
0002
2003
3100
1001
,
1000
0100
1000
0000
0001
1000
0100
0100
,
0010
0010
0100
0100
,
1000
0000
0001
0000
1001
0000
0010
0001
,
2000
0001
0010
0001
,
3010
0000
0100
0001
0100
0000
1001
0000
,
0020
0001
0100
0001
,
0130
0000
1000
0100
1000
0000
0001
0000
,
0210
1000
0010
1000
,
0310
0000
0001
1000
0001
0000
0110
0000
,
2002
3003
0000
0000
,
0000
0000
0001
1000
0001
1000
0100
0000
,
0001
1000
0001
1000
0100
0000
0001
1000
,
0001
1000
0100
0000
0001
0000
0100
0000
,
1000
0100
0001
2002
,
3003
1000
0020
0000
0030
1000
0100
0000
,
0010
0000
0001
0100
0001
0000
2002
0000
,
3003
0001
0020
0000
0030
0001
0100
0000
,
0010
0000
1000
0001
0100
0000
2002
0000
,
3003
0010
2000
0000
3000
1000
0001
0000
,
0010
0000
0100
0010
0001
0000
2002
0000
,
3003
0100
0020
0000
0030
1000
0000
0100
,
0000
0001
0000
0000
0000
0000
1000
0001
,
1000
0000
0001
1000
0001
0000
1000
0010
,
1000
0000
0010
0000
0000
0000
0100
0001
,
0100
0000
0001
0100
0001
0000
1000
0100
,
1000
0000
0100
1000
0100
0000
0010
0000
,
0010
0000
0001
1000
0001
0000
0100
0010
,
0100
0000
0010
1000
0010
0000
1000
0001
,
0000
0000
0100
0000
0010
0000
0001
1000
,
0000
0000
0010
0000
0100
0000
1000
0100
,
0002
1003
1001
0100
,
1001
0000
0100
0000
1001
0000
0010
1000
,
0010
1000
0010
0000
1001
0000
0100
1000
,
0100
1000
0100
0000
1001
0000
2000
0000
,
3002
0000
0103
0000
1001
0000
0010
0100
,
0001
0000
0010
0001
1000
0100
0010
0000
,
0010
0001
0001
1000
,
0100
0000
0110
0000
0010
0001
0200
0000
,
0001
0010
0001
0310
,
0100
0001
1000
0000
1001
0000
0020
0000
,
1000
0100
1000
0130
,
0010
1000
0100
0000
0010
0000
2001
0000
,
0001
0010
0001
3010
,
0100
0001
1000
0000
0110
0000
2002
0000
,
3003
0000
0000
0000
,
0000
0000
0000
2002
,
3003
0001
0200
0000
0300
0010
1000
0000
,
0001
0000
0010
0100
1000
0000
2020
0000
,
3030
0001
0020
0000
0030
0100
1000
0000
,
0001
0000
0100
0001
1000
0000
0202
0000
,
0303
1000
0200
0000
0300
0010
0100
0000
,
1000
0000
0001
0010
0100
0000
0022
0000
,
0033
1000
0010
0000
0000
0100
0000
0100
,
0000
0100
0100
0100
0000
0200
0000
0000
,
0000
0000
0000
0300
0000
0000
0000
0000
;

//---------------dance-single - ----------------
#NOTEDATA:;
#CHARTNAME:;
#STEPSTYPE:dance-single;
#DESCRIPTION:;
#CHARTSTYLE:;
#DIFFICULTY:Easy;
#METER:4;
#RADARVALUES:0.217331,0.258451,0.086438,0.144064,0.000000,264.000000,249.000000,15.000000,25.000000,0.000000,0.000000,0.000000,0.000000,0.000000,0.217331,0.258451,0.086438,0.144064,0.000000,264.000000,249.000000,15.000000,25.000000,0.000000,0.000000,0.000000,0.000000,0.000000;
#CREDIT:;
#DISPLAYBPM:129.000000;
#NOTES:
// measure 0
0000
0000
0000
0000
,  // measure 1
0000
0000
0000
0000
,  // measure 2
0000
0000
0000
0000
,  // measure 3
0000
0000
0000
0000
,  // measure 4
0000
0000
0000
0000
,  // measure 5
1000
0100
0020
0030
,  // measure 6
0100
0100
2000
3000
,  // measure 7
0001
0100
0010
0010
,  // measure 8
0100
0001
2000
3000
,  // measure 9
0001
0001
1000
1000
,  // measure 10
0001
0010
0100
1000
,  // measure 11
0001
0001
1000
1000
,  // measure 12
0100
1000
0010
0100
,  // measure 13
0010
0010
2000
3001
,  // measure 14
0010
0010
0002
1003
,  // measure 15
0100
0010
0001
0100
,  // measure 16
0010
1000
0001
0100
,  // measure 17
0202
0303
2000
3000
,  // measure 18
2200
3300
0020
0030
,  // measure 19
0100
0010
1000
0001
,  // measure 20
0010
0100
1000
0001
,  // measure 21
0200
0300
0020
0030
,  // measure 22
1000
0001
0010
0010
,  // measure 23
0100
1000
0001
0100
,  // measure 24
0010
0010
0010
0000
,  // measure 25
1001
0100
1000
0100
,  // measure 26
1000
0100
0001
0100
,  // measure 27
0010
0100
0010
0100
,  // measure 28
0010
0001
0100
0001
,  // measure 29
1000
0010
1000
0010
,  // measure 30
1000
0010
0100
0010
,  // measure 31
1000
0100
0010
0000
,  // measure 32
0001
0001
0100
0101
,  // measure 33
0001
0100
0101
0001
,  // measure 34
0100
0202
0000
0000
,  // measure 35
0000
0000
0303
0001
,  // measure 36
0100
1000
0100
0001
,  // measure 37
0001
1000
1001
0100
,  // measure 38
0010
1000
0001
0010
,  // measure 39
0010
0100
1001
1000
,  // measure 40
0010
0001
0010
1000
,  // measure 41
1000
0001
1001
0100
,  // measure 42
1000
0100
0001
0000
,  // measure 43
0000
1000
0001
0010
,  // measure 44
0010
0100
0100
1000
,  // measure 45
0001
0100
0020
0130
,  // measure 46
0001
1000
0001
0010
,  // measure 47
0100
0010
0100
1000
,  // measure 48
0100
1000
1000
0001
,  // measure 49
0010
0001
0001
0020
,  // measure 50
0000
1030
1000
0002
,  // measure 51
0000
0103
0010
2020
,  // measure 52
3030
0002
0003
0022
,  // measure 53
0033
0200
0300
0010
,  // measure 54
1000
0100
0100
0010
,  // measure 55
0100
0010
0010
0001
,  // measure 56
2000
3001
0100
0010
,  // measure 57
1000
1000
0100
0010
,  // measure 58
0100
1000
0001
0100
,  // measure 59
0100
0100
0000
1001
,  // measure 60
1000
0010
0100
0001
,  // measure 61
0001
0010
0010
0100
,  // measure 62
1000
0001
0100
0010
,  // measure 63
0010
0100
0100
0001
,  // measure 64
1000
0010
0100
0001
,  // measure 65
0001
1000
1000
0100
,  // measure 66
0100
0000
0000
0000
,  // measure 67
0000
0000
0000
0001
,  // measure 68
0010
1000
0010
0001
,  // measure 69
0001
0010
0110
1000
,  // measure 70
0100
0001
0100
1000
,  // measure 71
1000
0001
0110
1000
,  // measure 72
0100
0001
0010
0100
,  // measure 73
1000
0001
1001
1000
,  // measure 74
0010
0001
0100
1000
;

//---------------dance-single - ----------------
#NOTEDATA:;
#CHARTNAME:;
#STEPSTYPE:dance-single;
#DESCRIPTION:;
#CHARTSTYLE:;
#DIFFICULTY:Beginner;
#METER:2;
#RADARVALUES:0.121014,0.193838,0.000000,0.063388,0.000000,147.000000,147.000000,0.000000,11.000000,0.000000,0.000000,0.000000,0.000000,0.000000,0.121014,0.193838,0.000000,0.063388,0.000000,147.000000,147.000000,0.000000,11.000000,0.000000,0.000000,0.000000,0.000000,0.000000;
#CREDIT:;
#DISPLAYBPM:129.000000;
#NOTES:
// measure 0
0000
0000
0000
0000
,  // measure 1
0000
0000
0000
0000
,  // measure 2
0000
0000
0000
0000
,  // measure 3
0000
0000
0000
0000
,  // measure 4
0000
0000
0000
0000
,  // measure 5
0010
0000
0000
0000
,  // measure 6
1000
0000
0000
0000
,  // measure 7
0001
0000
0010
0000
,  // measure 8
0100
0000
1000
0000
,  // measure 9
0010
0000
1000
0000
,  // measure 10
0001
0000
0100
0000
,  // measure 11
0001
0000
0001
0000
,  // measure 12
1000
0000
1000
0000
,  // measure 13
0010
0000
0100
0000
,  // measure 14
0010
0000
0100
0000
,  // measure 15
0001
0000
0010
0000
,  // measure 16
0100
0000
1000
0000
,  // measure 17
0100
0000
0100
0000
,  // measure 18
0010
0000
0010
0000
,  // measure 19
0001
0000
0001
0000
,  // measure 20
1000
0000
1000
0000
,  // measure 21
0010
0000
0010
0000
,  // measure 22
0100
0000
0100
0000
,  // measure 23
0001
0000
0010
0000
,  // measure 24
0100
0000
0000
0000
,  // measure 25
1000
0000
0001
0000
,  // measure 26
1000
0000
1000
0000
,  // measure 27
0001
0000
0010
0000
,  // measure 28
0001
0000
0001
0000
,  // measure 29
0010
0000
0100
0000
,  // measure 30
1000
0000
0001
0000
,  // measure 31
1000
0000
0000
0000
,  // measure 32
0000
0100
0100
0100
,  // measure 33
0100
0100
0100
0100
,  // measure 34
0100
0100
0000
0000
,  // measure 35
0000
0000
0000
0100
,  // measure 36
0000
0010
0000
0010
,  // measure 37
0010
0010
0000
1000
,  // measure 38
0000
0001
0000
1000
,  // measure 39
1000
1000
0000
0010
,  // measure 40
0000
0001
0000
0100
,  // measure 41
0100
0100
0000
0010
,  // measure 42
0000
1000
0000
0100
,  // measure 43
0000
0010
0000
0100
,  // measure 44
0000
1000
0000
0001
,  // measure 45
0000
1000
1000
1000
,  // measure 46
0000
0001
0000
0100
,  // measure 47
0000
0010
0000
0100
,  // measure 48
0000
0001
0001
0001
,  // measure 49
0000
1000
1000
1000
,  // measure 50
0000
0010
0000
0100
,  // measure 51
0000
0001
0001
0001
,  // measure 52
0000
1000
1000
1000
,  // measure 53
0000
0001
0000
0100
,  // measure 54
0000
0010
0000
1000
,  // measure 55
1000
1000
0000
0001
,  // measure 56
0000
0010
0000
0100
,  // measure 57
0100
0100
0000
1000
,  // measure 58
0000
0001
0000
0100
,  // measure 59
0000
0010
0000
0100
,  // measure 60
0000
0000
0000
0002
,  // measure 61
0003
0002
0003
0002
,  // measure 62
0000
0003
0000
2000
,  // measure 63
3000
2000
3000
2000
,  // measure 64
0000
3000
0000
0020
,  // measure 65
0030
0200
0300
0020
,  // measure 66
0000
0030
0000
2000
,  // measure 67
3000
0002
0003
0100
,  // measure 68
0000
0010
0000
1000
,  // measure 69
1000
1000
0000
0001
,  // measure 70
0000
0010
0000
0100
,  // measure 71
0100
0100
0000
1000
,  // measure 72
0000
0001
0000
0100
,  // measure 73
0100
0100
0000
0010
,  // measure 74
0000
1000
0000
0001
;
