#VERSION:0.83;
#TITLE:Femininomenon;
#SUBTITLE:;
#ARTIST:Chappell Roan;
#TITLETRANSLIT:;
#SUBTITLETRANSLIT:;
#ARTISTTRANSLIT:;
#GENRE:The Rise and Fall of a Midwest Princess;
#ORIGIN:;
#CREDIT:[Ness];
#BANNER:Femininomenon.png;
#BACKGROUND:Femininomenon-bg.png;
#PREVIEWVID:;
#JACKET:Femininomenon-jacket.png;
#CDIMAGE:;
#DISCIMAGE:;
#LYRICSPATH:Femininomenon.lrc;
#CDTITLE:;
#MUSIC:Femininomenon.mp3;
#OFFSET:-0.857000;
#SAMPLESTART:66.988754;
#SAMPLELENGTH:15.599998;
#SELECTABLE:YES;
#DISPLAYBPM:115.000000:125.000000;
#BPMS:0.000=121.500,
35.000=124.000,
47.000=122.000,
52.000=123.000,
59.000=124.000,
67.000=123.000,
76.000=120.000,
80.000=122.000,
82.000=120.000,
84.000=124.000,
96.000=115.100,
99.500=125.000;
#STOPS:128.000=1.920,
128.500=0.240,
129.000=0.720,
194.000=2.400,
223.000=1.440;
#DELAYS:;
#WARPS:;
#TIMESIGNATURES:0.000=4=4,
128.000=2=4,
130.000=4=4,
194.000=1=4,
195.000=4=4,
223.000=1=4,
224.000=4=4;
#TICKCOUNTS:0.000=2;
#COMBOS:0.000=1;
#SPEEDS:0.000=1.000=0.000=0;
#SCROLLS:0.000=1.000;
#FAKES:;
#LABELS:0.000=Song Start;
#LASTSECONDHINT:146.928757;
#BGCHANGES:;
#KEYSOUNDS:;
#ATTACKS:
;

//---------------dance-single - ----------------
#NOTEDATA:;
#CHARTNAME:;
#STEPSTYPE:dance-single;
#DESCRIPTION:;
#CHARTSTYLE:;
#DIFFICULTY:Challenge;
#METER:9;
#RADARVALUES:0.504390,0.652063,0.183680,0.074832,0.506820,519.000000,492.000000,27.000000,11.000000,8.000000,0.000000,10.000000,0.000000,0.000000,0.504390,0.652063,0.183680,0.074832,0.506820,519.000000,492.000000,27.000000,11.000000,8.000000,0.000000,10.000000,0.000000,0.000000;
#CREDIT:;
#DISPLAYBPM:115.000000:125.000000;
#NOTES:
0000
0000
0000
0000
,
0000
0000
0000
0000
,
0000
0000
0000
0000
,
0000
0000
0000
0000
,
0000
0000
0000
0000
,
0001
0200
0000
0010
0000
1000
0000
0301
,
0000
0000
1000
0001
0010
0000
0000
0000
,
0200
1000
0000
0010
0000
0000
1000
1000
,
0000
0000
0010
0010
0000
1000
0300
0000
,
0001
1000
0000
0010
0000
0100
0000
0002
,
0000
0000
1003
0001
0010
0000
0000
0000
,
0002
0100
0000
0010
0000
1000
0000
0203
,
0010
0000
0310
2000
0100
0100
3000
0000
,
1100
0000
0100
0000
0010
0000
0011
0000
0001
0000
1000
0000
,
1001
0000
1000
0000
0010
0000
0200
0000
0000
0310
0000
0000
,
0110
0000
1000
0000
0100
0000
1001
0000
0100
0000
0010
0000
,
0101
0000
0010
0000
0100
0000
2000
0000
0000
3001
0000
0000
,
0100
0001
0010
0100
1000
0010
1000
0000
,
1000
0010
0001
0010
0100
0001
0100
0000
,
0001
0010
0100
2000
0000
0000
3010
1000
,
0100
0010
0000
0011
0000
0001
1000
0001
,
0200
0010
0000
0001
0000
0000
0010
0310
,
0000
0000
1100
0101
,
1000
0010
0100
0001
0000
0010
0100
1000
,
0002
0000
0000
0000
0000
0000
0000
0000
0000
0000
0000
0000
0000
0000
0013
0100
,
4000
0000
0000
0000
0000
0000
0000
0000
0000
0000
0000
0000
3000
0000
0100
0010
,
0004
0000
0000
0000
0003
0000
M000
0M00
000M
00M0
0000
0000
0000
0000
0001
0100
,
0040
0000
0000
0000
0000
0000
0000
0000
0000
0000
0000
0000
0030
0000
1000
0100
,
0004
0000
0000
0000
0003
0000
00M0
000M
0M00
M000
0000
0000
0000
0000
0010
1000
,
0400
0000
0010
0000
0000
0000
0010
0000
0000
0000
0010
0000
0300
0000
0010
0001
,
4000
0000
0100
0000
3000
0000
0100
0000
0000
0000
0100
0000
0000
0000
0100
1000
,
0004
0000
1000
0000
0000
0000
1000
0000
0000
0000
1000
0000
0003
0000
1000
0001
,
0000
0000
0000
0000
0000
0000
0010
0100
1000
0000
0010
0100
1000
0000
0001
0000
,
0101
0000
0100
0001
0000
0000
0010
0001
1000
0000
0010
0001
1000
0000
0010
0000
,
1010
0000
1000
0010
0000
0000
1000
0001
0100
0000
1000
0001
0100
0000
0010
0000
,
0110
0000
0001
0010
0000
0000
0100
1000
0001
0000
0100
1000
0010
0100
0001
0000
,
1001
0000
0001
1000
0000
0000
0001
0100
0010
0000
0001
0100
0010
0000
0100
0000
,
1100
0000
1000
0010
0000
0000
1000
0001
0010
0000
1000
0001
0010
0000
0100
0000
,
0011
0000
0100
0010
0000
0000
0001
1000
0100
0000
0001
1000
0100
0000
0010
0000
,
1100
0000
0010
0100
0000
0000
0010
1000
0001
0000
0010
0100
0001
0010
0100
0000
,
1001
0000
0001
0100
0000
0000
0000
0000
0110
0000
0000
1000
0100
0000
0000
0000
,
1000
0000
0000
0001
0100
0000
0000
0000
0010
0000
0000
1000
0001
0000
0000
0000
,
0010
0001
0000
0001
0100
0000
0010
0000
1000
0000
0000
0001
1000
0000
0000
0000
,
0100
0000
0000
0010
0100
0000
0000
0000
1000
0000
0000
0010
0100
0000
0000
0000
,
0001
0100
0000
0100
0010
0000
1000
0000
0001
0000
0000
0010
1000
0000
0000
0000
,
1000
0000
0000
0100
0001
0000
0000
0000
0010
0000
0000
0100
0001
0000
0000
0000
,
1000
0010
0000
0100
0001
0000
1000
0000
0100
0000
0000
0001
0010
0000
0000
0000
,
0001
0000
0000
0100
1000
0000
0000
0000
0010
0000
0000
1000
0100
0000
0000
0000
,
0100
0001
0000
0100
1000
0000
0100
0000
0000
0000
1000
0001
0100
0000
1000
0001
,
0100
0000
0010
0000
1000
0100
1000
0001
0000
0000
1000
0100
0010
0000
1000
0100
,
0010
0000
0001
0000
0001
0100
0010
0100
0000
0000
0001
1000
0010
0000
0001
1000
,
0010
0000
0100
0000
0001
1000
0100
0010
0000
0000
0001
1000
0100
0000
0001
1000
,
0010
0100
0001
0000
1000
0001
1000
0100
0000
0000
0001
0100
0040
0000
0000
1000
,
0000
0000
0000
0000
0100
0000
0000
1000
0030
0000
0001
1000
0400
0000
0000
0000
,
0300
0000
0010
0000
0001
0000
0100
0001
0000
0000
0010
0100
4000
0000
0000
0100
,
0000
0000
0000
0000
0001
0000
0000
0100
3000
0000
0000
0000
0000
0000
0000
0000
,
1010
0000
0010
1000
0100
0000
0010
0000
0011
0000
0001
1000
0010
0000
0100
0001
,
0010
0000
0100
0001
0010
0000
0100
0000
1100
0000
1000
0001
0100
0000
0010
1000
,
0100
0000
0010
1000
0100
0000
0010
0000
0011
0000
0100
0010
0100
0000
0001
1000
,
0010
0000
0001
1000
0010
0100
0001
0000
0101
0000
1000
0100
0010
0000
0001
1000
,
0100
0000
0001
1000
0100
0000
0010
0000
0011
0000
0100
0010
1000
0000
0001
1000
,
0010
0000
0001
1000
0010
0000
0100
0000
0101
0000
1000
0100
0010
0000
1000
0001
,
0100
0000
1000
0001
0100
0000
0010
0000
1100
0000
0010
0100
0001
0000
0010
0100
,
1000
0000
0010
0100
1000
0001
0100
0000
0110
0000
0001
0010
0000
0100
1000
0000
,
0010
0000
0000
0010
1000
0000
0001
0000
0010
0001
0000
0010
0001
0000
0100
0010
,
1000
0000
0000
0001
0100
0000
0010
0000
1000
0100
0000
1000
0100
0000
0010
0001
,
1000
0000
0000
0001
0100
0000
0010
0000
1000
0100
0000
1000
0100
0000
0010
0001
,
1000
0000
0010
0100
0001
1000
0100
0000
0010
0000
0001
0100
0000
0010
1000
0000
,
0001
0000
0000
0010
0100
0000
1000
0000
1000
0100
0000
1000
0100
0000
0010
0001
,
0100
0000
0000
0010
1000
0000
0001
0000
0100
0001
0000
0100
0001
0000
0010
0001
,
1000
0000
0000
0010
0100
0000
0001
0000
1000
0100
0000
0010
0100
0000
1000
0001
,
0100
0000
0000
0000
;

//---------------dance-single - ----------------
#NOTEDATA:;
#CHARTNAME:;
#STEPSTYPE:dance-single;
#DESCRIPTION:;
#CHARTSTYLE:;
#DIFFICULTY:Hard;
#METER:7;
#RADARVALUES:0.378050,0.434709,0.061227,0.074832,0.214293,389.000000,380.000000,9.000000,11.000000,0.000000,0.000000,0.000000,0.000000,0.000000,0.378050,0.434709,0.061227,0.074832,0.214293,389.000000,380.000000,9.000000,11.000000,0.000000,0.000000,0.000000,0.000000,0.000000;
#CREDIT:;
#DISPLAYBPM:115.000000:125.000000;
#NOTES:
0000
0000
0000
0000
,
0000
0000
0000
0000
,
0000
0000
0000
0000
,
0000
0000
0000
0000
,
0000
0000
0000
0000
,
1000
0001
0000
0010
0000
0100
0000
1000
,
0000
0000
0001
1000
0010
0000
0100
0000
,
0001
0100
0000
0010
0000
0000
1000
0000
,
0100
0000
0010
0100
1000
0000
0001
0000
,
0100
0010
0000
1000
0000
0001
0000
0010
,
0000
0000
0100
0010
0001
0000
1000
0000
,
0010
1000
0000
0001
0000
0010
0000
0100
,
0000
0000
1000
0001
0100
0000
0010
0000
,
1000
0000
0100
0000
1000
0000
0001
0000
0100
0000
0001
0000
,
1000
0000
0010
0000
1000
0000
0002
0000
0000
0013
0000
0000
,
0100
0000
0010
0000
0100
0000
0010
0000
0001
0000
0010
0000
,
0001
0000
1000
0000
0001
0000
0200
0000
0000
0310
0000
0000
,
1000
0001
0000
0100
0000
0010
0000
0100
,
0000
0001
0000
0010
0000
0000
0000
0000
,
0100
1000
0000
0010
0000
0000
0100
0001
,
0000
0010
0000
0100
0000
0000
0000
0000
,
0020
0001
0000
0100
0000
0000
0031
1000
,
0000
0000
1001
0110
,
0100
0010
0000
1000
0000
0000
0001
1000
,
0020
0000
0000
0000
0000
0000
0000
0000
0030
0000
0000
0000
0000
0000
0100
0001
,
0200
0000
0000
0000
0000
0000
0000
0000
0300
0000
0000
0000
0000
0000
1000
0010
,
2000
0000
0000
0000
0000
0000
0000
0000
3000
0000
0000
0000
0000
0000
0100
1000
,
0200
0000
0000
0000
0000
0000
0000
0000
0300
0000
0000
0000
0000
0000
0001
0010
,
0002
0000
0000
0000
0000
0000
0000
0000
0003
0000
0000
0000
0000
0000
0010
1000
,
0020
0000
0000
0000
0000
0000
0000
0000
0030
0000
0000
0000
0000
0000
0100
0001
,
0200
0000
0000
0000
0000
0000
0000
0000
0300
0000
0000
0000
0000
0000
0001
1000
,
0002
0000
0003
0000
,
0000
0000
0000
0000
0000
0000
0000
0000
0001
0000
1000
0100
1000
0000
0001
0000
,
0100
0000
0000
0000
0101
0000
0000
0000
0100
0000
0010
0100
0010
0000
1000
0000
,
0001
0000
0000
0000
1001
0000
0000
0000
0010
0000
0001
0010
0001
0000
1000
0000
,
0100
0000
0000
0000
1100
0000
0000
0000
0100
0000
0010
0100
0010
0000
0001
0000
,
0100
0000
0000
0000
0010
0000
1000
0000
0001
0000
1000
0010
1000
0000
0001
0000
,
0100
0000
0000
0000
1001
0000
0000
0000
0001
0000
0010
0001
0010
0000
0100
0000
,
1000
0000
0000
0000
1001
0000
0000
0000
1000
0000
0010
0100
0010
0000
0100
0000
,
0001
0000
0000
0000
0110
0000
0000
0000
0010
0000
0001
1000
0001
0000
0100
0000
,
0010
0000
1000
0000
0100
0000
0000
0000
1100
0000
0000
1000
0100
0000
0000
0000
,
1000
0000
0000
0001
0100
0000
0000
0000
0010
0000
0000
1000
0001
0000
0000
0000
,
0100
0010
0000
0100
0010
0000
0100
0000
0010
0000
0000
1000
0001
0000
0000
0000
,
0100
0000
0000
0010
0100
0000
0000
0000
0001
0000
0000
0010
0100
0000
0000
0000
,
1000
0001
0000
1000
0001
0000
1000
0000
0001
0000
0000
1000
0010
0000
0000
0000
,
1000
0000
0000
0001
0100
0000
0000
0000
0010
0000
0000
1000
0001
0000
0000
0000
,
1000
0100
0000
1000
0100
0000
0010
0000
0001
0000
0000
0010
0001
0000
0000
0000
,
0010
0000
0000
0100
0010
0000
0000
0000
0100
0000
0000
1000
0001
0000
0000
0000
,
0100
0001
0000
0100
0001
0000
0100
0000
0000
0000
0000
0000
0000
0000
1000
0000
,
0100
1000
0001
0100
0010
0000
0000
0001
,
0010
0001
1000
0010
0100
0000
0000
0010
,
1000
0100
1000
0001
0010
0000
0000
0100
,
1000
0100
0010
0001
0100
0000
0001
1000
,
0010
0100
0001
0100
0001
0000
0010
1000
,
0001
0010
0100
1000
0100
0000
1000
0100
,
0010
0001
0100
0010
1000
0000
0000
0000
,
0000
0000
0001
1000
0001
0000
0100
0000
0010
0000
1000
0000
0001
0000
0000
0000
,
0010
0000
0100
1000
0100
0000
0010
0000
0001
0000
1000
0000
0010
0000
0000
0000
,
0100
0000
0001
0010
0001
0000
1000
0000
0010
0000
0100
0000
0001
0000
0000
0000
,
1000
0000
0100
0010
0100
0000
1000
0000
0001
0000
0100
0000
0010
0000
0000
0000
,
1000
0000
0010
1000
0010
0000
0100
0000
0001
0000
0010
0000
0100
0000
0000
0000
,
0010
0000
0001
1000
0001
0000
0010
0000
0100
0000
1000
0000
0010
0000
0000
0000
,
0100
0000
0001
0100
0001
0000
1000
0000
0100
0000
0010
0000
0001
0000
0000
0000
,
0010
0000
0100
0010
0100
0000
1000
0000
0010
0000
0100
0000
0001
0000
0010
0000
,
0100
0000
0000
1000
0100
0000
0010
0000
0001
0000
0000
0000
1000
0000
0001
0000
,
0100
0000
0000
0001
0100
0000
0010
0000
1000
0000
0000
0000
0001
0000
1000
0000
,
0010
0000
0000
0100
0010
0000
1000
0000
0001
0000
0000
0000
0010
0000
0100
0000
,
1000
0000
0000
0001
0100
0000
0001
0000
1000
0000
0000
0000
0001
0000
0010
0000
,
0100
0000
0000
0010
0001
0000
1000
0000
0100
0000
0000
0000
1000
0000
0010
0000
,
1000
0000
0000
0100
0010
0000
0001
0000
1000
0000
0000
0000
0001
0000
1000
0000
,
0010
0000
0000
0100
0001
0000
0010
0000
0100
0000
0000
0000
1000
0000
0001
1000
,
0100
0000
0000
0000
;

//---------------dance-single - ----------------
#NOTEDATA:;
#CHARTNAME:;
#STEPSTYPE:dance-single;
#DESCRIPTION:;
#CHARTSTYLE:;
#DIFFICULTY:Medium;
#METER:6;
#RADARVALUES:0.276977,0.362257,0.204089,0.326542,0.003401,285.000000,255.000000,30.000000,48.000000,0.000000,0.000000,0.000000,0.000000,0.000000,0.276977,0.362257,0.204089,0.326542,0.003401,285.000000,255.000000,30.000000,48.000000,0.000000,0.000000,0.000000,0.000000,0.000000;
#CREDIT:;
#DISPLAYBPM:115.000000:125.000000;
#NOTES:
0000
0000
0000
0000
,
0000
0000
0000
0000
,
0000
0000
0000
0000
,
0000
0000
0000
0000
,
0000
0000
0000
0000
,
0100
0010
0000
0002
0000
0000
0000
2003
,
0000
0000
0000
3020
0000
0000
0000
0030
,
0100
0001
0000
2000
0000
0000
0000
3002
,
0000
0000
0000
0203
0000
0310
0000
0000
,
0100
0001
0000
2000
0000
0000
0000
3200
,
0000
0000
0000
0320
0000
0000
0000
0030
,
0001
1000
0000
0020
0000
0000
0000
0230
,
0000
0000
0000
0302
0000
1003
0000
0000
,
2001
3000
0020
0030
,
1002
0003
0020
0130
,
0210
0300
2000
3000
,
0120
0030
0002
0013
,
0200
1300
0020
0031
,
2000
3001
0100
0000
,
0020
1030
0200
0301
,
2000
3002
0103
0000
,
0202
0000
0000
0303
,
0000
0000
0200
0310
,
2020
0000
0000
3030
,
0000
0000
0000
0000
0000
0000
0000
1000
,
0001
0000
0000
0000
0000
0000
0000
0001
,
1000
0000
0000
0000
0000
0000
0000
1000
,
0010
0000
0000
0000
0000
0000
0000
0010
,
0100
0000
0000
0000
0000
0000
0000
0100
,
0001
0000
0000
0000
0000
0000
0000
0001
,
0010
0000
0000
0000
0000
0000
0000
0010
,
0100
0000
0000
0000
0000
0000
0000
1000
,
0100
0000
0010
1010
,
1000
0000
0001
1000
0100
0000
1100
0000
,
0001
0000
0100
0001
0010
0000
0011
0000
,
0100
0000
1000
0010
0100
0000
0110
0000
,
0001
1000
0100
0000
0010
0000
1001
0000
,
0010
0000
0100
0001
1000
0000
1001
0000
,
0100
0000
0001
0010
0100
0000
0110
0000
,
1000
0000
0010
1000
0001
0000
1001
0000
,
0010
0001
0100
0000
0102
0000
0003
0000
,
2010
3000
0220
0330
,
0001
1000
0100
0000
0201
0000
0300
0000
,
2100
0000
3000
0000
0001
0010
0100
0000
,
0010
0000
0000
0000
0000
0000
0000
0000
0001
0000
0000
0000
1000
0000
0000
0000
0010
0000
0000
0000
0000
0000
0000
0000
0000
0000
0000
0220
0000
0000
0000
0000
,
0000
0330
0000
0000
1000
0000
0000
0000
,
0202
0303
0001
1000
,
0002
0013
1000
0001
,
2000
3100
0000
0000
,
0101
0000
0010
0000
1000
0100
1000
0000
,
1010
0000
0100
0000
0001
0010
0001
0000
,
1100
0000
0100
0000
1000
0010
1000
0000
,
0011
0000
0010
0001
1000
0000
0100
0000
,
0101
0000
0010
0000
1000
0100
1000
0000
,
1010
0000
0100
0000
0001
0010
0001
0000
,
1100
0000
0100
0000
1000
0010
1000
0000
,
0001
0010
0001
0010
0001
0010
0001
0000
,
1000
0010
1000
0010
1000
0010
1000
0000
,
0001
1000
0001
1000
0001
1000
0001
0000
,
0100
0010
0100
0010
0100
0010
0100
0000
,
0001
1000
0001
1000
0001
1000
0001
0000
,
0010
0001
0010
0001
0010
0001
0010
0000
,
0100
1000
0100
1000
0100
1000
0100
0000
,
1000
0001
1000
0001
1000
0001
1000
0000
,
0020
0000
0230
0000
,
0301
1000
0100
0010
,
0001
0000
1000
0000
0010
1000
0001
0000
,
1000
0100
1000
0100
1000
0100
1000
0100
,
2000
0000
3002
0000
,
0103
0000
1001
0000
0100
0000
0010
1000
,
0001
0000
1001
0000
0010
0000
0001
1000
,
0100
0000
0000
0000
;

//---------------dance-single - ----------------
#NOTEDATA:;
#CHARTNAME:;
#STEPSTYPE:dance-single;
#DESCRIPTION:;
#CHARTSTYLE:;
#DIFFICULTY:Easy;
#METER:3;
#RADARVALUES:0.171046,0.217354,0.000000,0.312936,0.000000,176.000000,176.000000,0.000000,46.000000,0.000000,0.000000,0.000000,0.000000,0.000000,0.171046,0.217354,0.000000,0.312936,0.000000,176.000000,176.000000,0.000000,46.000000,0.000000,0.000000,0.000000,0.000000,0.000000;
#CREDIT:;
#DISPLAYBPM:115.000000:125.000000;
#NOTES:
// measure 0
0000
0000
0000
0000
,  // measure 1
0000
0000
0000
0000
,  // measure 2
0000
0000
0000
0000
,  // measure 3
0000
0000
0000
0000
,  // measure 4
0000
0000
0000
0000
,  // measure 5
2000
0000
3000
0000
,  // measure 6
0200
0000
0300
0000
,  // measure 7
0020
0000
0030
0000
,  // measure 8
0002
0003
0200
0300
,  // measure 9
0002
0000
0003
0000
,  // measure 10
2000
0000
3000
0000
,  // measure 11
0020
0000
0030
0000
,  // measure 12
0200
0300
0002
0003
,  // measure 13
0020
0000
0030
0000
,  // measure 14
0200
0000
0300
0000
,  // measure 15
2000
0000
3000
0000
,  // measure 16
0020
0030
0200
0300
,  // measure 17
0001
0100
0002
0003
,  // measure 18
1000
0010
2000
3000
,  // measure 19
0002
0003
2000
3000
,  // measure 20
0002
0013
2000
3100
,  // measure 21
0020
0000
0000
0000
,  // measure 22
0130
0000
1000
0001
,  // measure 23
2000
0000
0000
3000
,  // measure 24
0020
0000
0000
0030
,  // measure 25
0100
0100
0100
0100
,  // measure 26
0002
0013
0000
0000
,  // measure 27
1000
1000
1000
1000
,  // measure 28
0020
0130
0000
0000
,  // measure 29
0100
0100
0100
0100
,  // measure 30
2000
3010
0000
0000
,  // measure 31
1000
1000
1000
0020
,  // measure 32
0031
0000
0000
0001
,  // measure 33
0100
1000
0000
1000
,  // measure 34
0100
0001
0000
1000
,  // measure 35
0010
0100
0000
1000
,  // measure 36
0010
0001
0000
0001
,  // measure 37
0010
0100
0000
0001
,  // measure 38
0100
1000
0000
0001
,  // measure 39
0010
1000
0000
0100
,  // measure 40
0010
0001
2000
3000
,  // measure 41
0002
0003
2000
3000
,  // measure 42
0001
0010
0200
0300
,  // measure 43
0020
0030
0200
0300
,  // measure 44
1000
0010
0200
0300
,  // measure 45
0002
0003
0020
0030
,  // measure 46
0100
1000
0002
0003
,  // measure 47
2000
3000
0020
0030
,  // measure 48
0100
0001
0010
0000
,  // measure 49
0100
1000
0001
0000
,  // measure 50
1000
0001
0100
0000
,  // measure 51
0001
0010
0001
0000
,  // measure 52
1000
0010
0100
0000
,  // measure 53
1000
0001
1000
0000
,  // measure 54
0010
0100
0010
0000
,  // measure 55
0001
1000
0001
0000
,  // measure 56
0000
1000
0100
1000
,  // measure 57
0100
1000
0001
1000
,  // measure 58
0001
0100
0001
0100
,  // measure 59
0001
1000
0001
1000
,  // measure 60
0001
0010
0100
0010
,  // measure 61
0100
1000
0001
1000
,  // measure 62
0001
0100
0010
0100
,  // measure 63
0010
0001
1000
0001
,  // measure 64
2000
3000
0002
0003
,  // measure 65
1000
0010
1000
0010
,  // measure 66
0200
0300
0020
0030
,  // measure 67
0100
0001
0100
0001
,  // measure 68
0020
0030
0200
0300
,  // measure 69
1000
0001
1000
0001
,  // measure 70
0100
0010
0100
0010
,  // measure 71
0100
0000
0000
0000
;

//---------------dance-single - ----------------
#NOTEDATA:;
#CHARTNAME:;
#STEPSTYPE:dance-single;
#DESCRIPTION:;
#CHARTSTYLE:;
#DIFFICULTY:Beginner;
#METER:1;
#RADARVALUES:0.094269,0.168458,0.000000,0.095241,0.000000,97.000000,97.000000,0.000000,14.000000,0.000000,0.000000,0.000000,0.000000,0.000000,0.094269,0.168458,0.000000,0.095241,0.000000,97.000000,97.000000,0.000000,14.000000,0.000000,0.000000,0.000000,0.000000,0.000000;
#CREDIT:;
#DISPLAYBPM:115.000000:125.000000;
#NOTES:
// measure 0
0000
0000
0000
0000
,  // measure 1
0000
0000
0000
0000
,  // measure 2
0000
0000
0000
0000
,  // measure 3
0000
0000
0000
0000
,  // measure 4
0000
0000
0000
0000
,  // measure 5
0001
0000
0000
0000
,  // measure 6
1000
0000
0000
0000
,  // measure 7
0001
0000
0000
0000
,  // measure 8
0100
0000
0100
0000
,  // measure 9
0100
0000
0000
0000
,  // measure 10
0010
0000
0000
0000
,  // measure 11
1000
0000
0000
0000
,  // measure 12
0001
0000
0001
0000
,  // measure 13
0010
0000
0000
0000
,  // measure 14
0100
0000
0000
0000
,  // measure 15
1000
0000
0000
0000
,  // measure 16
0010
0000
0010
0000
,  // measure 17
0010
0000
0000
0000
,  // measure 18
0100
0000
0000
0000
,  // measure 19
0001
0000
0000
0000
,  // measure 20
0010
0000
0010
0000
,  // measure 21
0010
0000
0000
0000
,  // measure 22
0000
0000
0100
0000
,  // measure 23
0100
0000
0000
0000
,  // measure 24
0000
0000
0000
0000
,  // measure 25
2000
0000
0000
0000
,  // measure 26
0000
3000
0000
0000
,  // measure 27
0002
0000
0000
0000
,  // measure 28
0000
0003
0000
0000
,  // measure 29
0020
0000
0000
0000
,  // measure 30
0000
0030
0000
0000
,  // measure 31
0200
0000
0000
0000
,  // measure 32
0300
0000
0000
0100
,  // measure 33
0100
0000
0000
0010
,  // measure 34
0010
0000
0000
0100
,  // measure 35
0100
0000
0000
0010
,  // measure 36
0010
0000
0000
0001
,  // measure 37
0001
0000
0000
1000
,  // measure 38
1000
0000
0000
0001
,  // measure 39
0001
0000
0000
1000
,  // measure 40
1000
0000
0010
0000
,  // measure 41
0010
0000
0010
0000
,  // measure 42
0100
0000
0001
0000
,  // measure 43
0001
0000
0001
0000
,  // measure 44
0010
0000
0100
0000
,  // measure 45
0100
0000
0100
0000
,  // measure 46
0010
0000
1000
0000
,  // measure 47
1000
0000
1000
0000
,  // measure 48
0100
0000
0000
0000
,  // measure 49
0001
0000
0000
0000
,  // measure 50
0010
0000
0000
0000
,  // measure 51
0100
0000
0000
0000
,  // measure 52
1000
0000
0000
0020
,  // measure 53
0000
0000
0000
0000
,  // measure 54
0030
0000
0000
0200
,  // measure 55
0000
0000
0000
0300
,  // measure 56
0000
0100
0100
0100
,  // measure 57
0000
0001
0001
0001
,  // measure 58
0000
1000
1000
1000
,  // measure 59
0000
0010
0010
0010
,  // measure 60
0000
0100
0100
0100
,  // measure 61
0000
0001
0001
0001
,  // measure 62
0000
1000
1000
1000
,  // measure 63
0000
0010
0010
0010
,  // measure 64
0020
0000
0000
0000
,  // measure 65
0000
0030
0000
0000
,  // measure 66
0200
0000
0000
0000
,  // measure 67
0000
0300
0000
0000
,  // measure 68
0002
0003
0002
0003
,  // measure 69
0002
0003
0002
0003
,  // measure 70
2000
3000
2000
3000
;
