#VERSION:0.83;
#TITLE:Feels Like Summer;
#SUBTITLE:;
#ARTIST:Weezer;
#TITLETRANSLIT:;
#SUBTITLETRANSLIT:;
#ARTISTTRANSLIT:;
#GENRE:Pacific Daydream;
#ORIGIN:;
#CREDIT:;
#BANNER:Feels Like Summer-bn.png;
#BACKGROUND:Feels Like Summer-bg.png;
#PREVIEWVID:;
#JACKET:Feels Like Summer-jacket.png;
#CDIMAGE:;
#DISCIMAGE:;
#LYRICSPATH:;
#CDTITLE:;
#MUSIC:Feels Like Summer.mp3;
#OFFSET:-0.040000;
#SAMPLESTART:40.244015;
#SAMPLELENGTH:22.840908;
#SELECTABLE:YES;
#DISPLAYBPM:88.000000;
#BPMS:0.000=88.000,
201.500=78.000,
202.000=57.000;
#STOPS:58.500=0.682;
#DELAYS:;
#WARPS:;
#TIMESIGNATURES:0.000=4=4;
#TICKCOUNTS:0.000=2;
#COMBOS:0.000=1;
#SPEEDS:0.000=1.000=0.000=0;
#SCROLLS:0.000=1.200;
#FAKES:;
#LABELS:0.000=Song Start;
#LASTSECONDHINT:131.589890;
#BGCHANGES:0.000=Feels Like Summer-video.avi=1.000=0=0=0=StretchNoLoop====,
99999=-nosongbg-=1.000=0=0=0 // don't automatically add -songbackground-
;
#KEYSOUNDS:;
#ATTACKS:
;

//---------------dance-single - ----------------
#NOTEDATA:;
#CHARTNAME:;
#STEPSTYPE:dance-single;
#DESCRIPTION:;
#CHARTSTYLE:;
#DIFFICULTY:Hard;
#METER:7;
#RADARVALUES:0.333797,0.413474,0.035510,0.177552,0.035510,329.000000,324.000000,5.000000,25.000000,0.000000,0.000000,0.000000,0.000000,0.000000,0.333797,0.413474,0.035510,0.177552,0.035510,329.000000,324.000000,5.000000,25.000000,0.000000,0.000000,0.000000,0.000000,0.000000;
#CREDIT:;
#DISPLAYBPM:88.000000;
#NOTES:
0000
0000
0000
0000
,
0000
0000
0000
0000
,
0001
1000
0100
0000
0001
1000
0001
0000
,
0100
0001
0010
0000
0100
1000
0100
0000
,
0010
0001
1000
0000
0010
1000
0010
0000
,
0100
0001
1000
0000
0010
1000
0100
0000
,
0010
0100
1000
0000
0001
0010
0001
0000
,
1000
0100
0001
0000
0001
0100
1000
0000
,
0010
0100
0001
0000
1000
0010
0001
0000
,
0001
0010
1000
0000
0001
0100
0001
0000
,
2000
0000
0010
0001
,
0200
0000
3300
0001
0100
1000
0100
0010
,
0200
0000
0001
0010
,
0301
0001
1000
1000
0001
0001
1000
1000
,
0010
0100
0001
1000
0001
1000
1001
0100
,
0001
0100
1000
0010
0100
0001
1000
0000
,
0001
1000
0100
0010
0100
2000
0000
3001
,
0010
1000
0010
0001
0100
0010
0000
1010
,
0000
0101
0000
1000
0010
0001
0010
1000
,
0001
1000
0100
0001
0100
1000
0010
0000
,
0100
0001
1000
0010
0100
0020
0000
1030
,
0001
1000
0100
0010
0001
1000
0010
0000
,
0010
0000
0000
0000
0100
0000
0000
0000
0001
0000
0000
0000
1000
0000
0000
0000
0100
0000
0000
0000
0010
0000
0000
0000
0100
0000
0000
1000
0010
0000
0000
0000
,
0010
0000
0000
0000
0100
0000
0000
0001
0010
0000
0000
0000
0010
0000
0000
0000
0010
0000
0000
0001
0100
0000
0000
0000
0001
0000
0000
1000
0010
0000
0000
0000
,
0010
0000
0000
0000
1000
0000
0000
0001
0010
0000
0000
0000
0002
0000
0000
0000
0100
0000
0000
0000
1003
0000
0000
0000
1001
0000
0000
0000
1000
0000
0000
0000
,
0001
0100
0001
0001
1000
0000
0010
1000
,
0100
1000
0001
0010
0001
0000
0100
0010
,
1000
0001
1000
0010
1000
0000
0001
0100
,
0010
1000
0001
0100
0001
0000
0010
0001
,
0010
1000
0002
0000
0103
0000
0010
0100
,
0001
1000
0200
0000
0310
0000
0100
1000
,
0010
1000
0002
0000
0103
0000
0010
0100
,
0001
1000
0200
0000
0310
0000
0002
0000
,
0000
0010
1000
0200
,
0303
1000
0100
0001
0100
1000
0002
0000
,
0000
0000
0023
0000
0230
0000
1300
0001
,
0100
0010
0100
0001
1000
0001
0101
1000
,
0010
1000
0001
0010
0100
1000
0010
0000
,
0010
1000
0001
0100
0010
2000
0000
3001
,
0010
0001
1000
0100
0001
0100
0010
0000
,
0010
0001
1000
0100
0010
0001
1000
0010
,
1000
0001
0200
0000
0310
0000
0100
0001
,
1000
0001
0020
0000
0230
0000
1300
0100
,
0001
0100
1000
0010
0001
0010
1000
0100
,
0010
0001
2000
0000
3002
0000
0103
1000
,
0100
0001
0020
0000
0130
0000
1000
0010
,
0001
0010
2000
0000
3001
0000
0010
0001
,
0100
1000
0100
0001
0010
0100
2000
0000
,
3001
0000
0000
0000
1000
0000
0000
0000
0200
0000
0000
0000
0000
0000
0000
0000
0310
0000
0000
0000
0000
0000
0000
0000
0001
0000
0000
1000
0010
0000
0000
0000
,
0010
0000
0000
0000
0001
0000
0000
1000
0010
0000
0000
0000
0010
0000
0000
0000
0010
0000
0000
1000
0100
0000
0000
0000
1000
0000
0000
0001
0010
0000
0000
0000
,
0010
0000
0000
0000
1000
0000
0000
0001
0010
0000
0000
0000
0010
0000
0000
0000
1000
0000
0000
0000
0100
0000
0000
0000
0000
0000
0000
0000
0000
0000
0000
0000
;

//---------------dance-single - ----------------
#NOTEDATA:;
#CHARTNAME:;
#STEPSTYPE:dance-single;
#DESCRIPTION:;
#CHARTSTYLE:;
#DIFFICULTY:Medium;
#METER:5;
#RADARVALUES:0.214077,0.287634,0.063919,0.184654,0.000000,211.000000,202.000000,9.000000,26.000000,0.000000,0.000000,0.000000,0.000000,0.000000,0.214077,0.287634,0.063919,0.184654,0.000000,211.000000,202.000000,9.000000,26.000000,0.000000,0.000000,0.000000,0.000000,0.000000;
#CREDIT:;
#DISPLAYBPM:88.000000;
#NOTES:
0000
0000
0000
0000
,
0000
0000
0000
0000
,
0001
0010
0000
0000
0100
1000
0000
0000
,
0001
1000
0000
0000
0010
1000
0000
0000
,
0001
0010
0000
0000
0100
1000
0000
0000
,
0001
0100
0000
0000
0010
1000
0000
0000
,
0001
0010
0000
0000
0100
1000
0000
0000
,
0010
0100
0000
0000
0001
1000
0000
0000
,
0100
1000
0000
0000
0001
0100
0000
0000
,
0010
1000
0000
0000
0001
0010
0000
0000
,
0200
0000
1300
0001
,
2000
0000
0000
0000
3010
0100
0001
0000
,
2000
0000
3020
2030
,
3002
0000
0000
0000
,
0013
0100
0010
0100
0010
0000
1001
0000
,
0110
0000
1000
0001
0000
0000
0010
0000
,
0100
0000
1000
0001
0100
0010
0000
0000
,
1000
0000
0001
1000
0001
1000
0000
0001
,
0000
0100
0000
0001
1000
0000
1001
0000
,
0110
0000
0001
1000
0000
0000
0001
0000
,
0010
0000
0100
1000
0001
0100
0000
0000
,
1001
0000
0010
0100
0000
0000
0001
0000
,
0010
0000
0100
1000
0100
1000
0000
0000
,
0001
0100
0000
0000
1000
0010
0000
0000
,
0100
0001
0000
0000
0000
0000
1000
0010
,
0000
0000
1000
0100
0000
0000
0001
0100
,
0000
0000
0001
0010
0000
0000
0100
0100
,
0000
0000
0010
0010
0000
0000
0100
1000
,
0000
0000
0010
0100
0000
0000
0010
0000
,
1000
0002
0103
1000
,
0010
0001
0010
0200
,
1300
0000
2000
0000
3001
0000
1000
0010
,
0001
0020
0130
0002
,
0000
1003
0010
2000
,
0000
0000
3001
0010
0100
0000
2000
0000
,
0000
3002
0023
0230
,
0000
1300
0001
1001
,
0110
0000
1000
0001
0000
0000
1000
0000
,
0010
0000
0100
0001
1000
0000
1001
0000
,
0110
0000
0001
1000
0000
0000
0010
0000
,
1000
0100
0010
0000
0001
0000
2000
0000
,
0100
0002
3003
0002
,
0100
2000
3003
0000
,
0010
1000
0100
0000
0100
1000
0010
0000
,
0100
0002
0000
2003
,
0010
0002
3003
0002
,
0010
0000
2000
0000
3003
0000
0001
0100
,
0010
0000
0010
0100
0001
0000
0010
0000
,
0100
1000
0200
0000
0000
0000
0310
0001
,
0001
0010
0001
0001
0010
0100
1000
0100
,
0100
1000
0100
0100
0100
0100
0000
0000
;

//---------------dance-single - ----------------
#NOTEDATA:;
#CHARTNAME:;
#STEPSTYPE:dance-single;
#DESCRIPTION:;
#CHARTSTYLE:;
#DIFFICULTY:Easy;
#METER:3;
#RADARVALUES:0.184654,0.233703,0.163348,0.276981,0.000000,182.000000,159.000000,23.000000,39.000000,0.000000,0.000000,0.000000,0.000000,0.000000,0.184654,0.233703,0.163348,0.276981,0.000000,182.000000,159.000000,23.000000,39.000000,0.000000,0.000000,0.000000,0.000000,0.000000;
#CREDIT:;
#DISPLAYBPM:88.000000;
#NOTES:
// measure 0
0000
0000
0000
0000
,  // measure 1
0000
0000
0000
0000
,  // measure 2
0001
0010
0200
1300
,  // measure 3
0001
1000
0020
1030
,  // measure 4
0001
0010
0200
1300
,  // measure 5
0001
0100
0020
1030
,  // measure 6
0001
0010
0200
1300
,  // measure 7
0010
0100
0002
1003
,  // measure 8
0100
1000
0002
0103
,  // measure 9
0010
1000
0002
0013
,  // measure 10
0200
0000
1300
0001
,  // measure 11
2000
0000
3010
0100
,  // measure 12
0002
0000
1000
0010
,  // measure 13
2000
0000
0000
0000
,  // measure 14
3003
0000
0000
1001
,  // measure 15
1001
1001
0000
0010
,  // measure 16
0100
1000
0001
0110
,  // measure 17
1001
0110
1001
0000
,  // measure 18
0001
0000
1000
1001
,  // measure 19
1001
1001
0000
0001
,  // measure 20
0010
0100
1000
0110
,  // measure 21
1001
0110
1001
0001
,  // measure 22
0010
0100
1000
0000
,  // measure 23
0001
0000
0010
0000
,  // measure 24
0100
0000
0000
1000
,  // measure 25
0010
2000
3100
0001
,  // measure 26
0100
0002
0013
0100
,  // measure 27
1000
0002
0013
0100
,  // measure 28
1000
0020
0130
0010
,  // measure 29
1000
0002
0000
1003
,  // measure 30
0010
0200
0000
0301
,  // measure 31
1000
0200
0000
0310
,  // measure 32
0001
2000
0000
3020
,  // measure 33
0000
0130
0001
2000
,  // measure 34
0000
3001
0010
0200
,  // measure 35
0000
2300
3020
0230
,  // measure 36
0000
0301
0001
1001
,  // measure 37
0110
1001
0000
1000
,  // measure 38
0010
0100
0001
0110
,  // measure 39
1001
0110
1001
0010
,  // measure 40
1000
0001
0100
1000
,  // measure 41
0100
0020
0000
0031
,  // measure 42
0100
0020
0000
1030
,  // measure 43
0010
0100
0001
1000
,  // measure 44
0001
2000
0000
3001
,  // measure 45
0010
0022
0033
1000
,  // measure 46
0010
2020
3030
0001
,  // measure 47
0100
0010
1000
0001
,  // measure 48
1000
0200
0000
0320
,  // measure 49
0030
0002
0000
0003
2000
0000
3200
0000
,  // measure 50
0300
0020
0000
0000
0000
0030
0000
0000
;

//---------------dance-single - ----------------
#NOTEDATA:;
#CHARTNAME:;
#STEPSTYPE:dance-single;
#DESCRIPTION:;
#CHARTSTYLE:;
#DIFFICULTY:Beginner;
#METER:1;
#RADARVALUES:0.123779,0.173113,0.127837,0.127837,0.000000,122.000000,104.000000,18.000000,18.000000,0.000000,0.000000,0.000000,0.000000,0.000000,0.123779,0.173113,0.127837,0.127837,0.000000,122.000000,104.000000,18.000000,18.000000,0.000000,0.000000,0.000000,0.000000,0.000000;
#CREDIT:;
#DISPLAYBPM:88.000000;
#NOTES:
// measure 0
0000
0000
0000
0000
,  // measure 1
0000
0000
0000
0000
,  // measure 2
0001
0000
1000
0000
,  // measure 3
0010
0000
0100
0000
,  // measure 4
0001
0000
1000
0000
,  // measure 5
0100
0000
0010
0000
,  // measure 6
0001
0000
1000
0000
,  // measure 7
0001
0000
0100
0000
,  // measure 8
1000
0000
0010
0000
,  // measure 9
0100
0000
0001
0000
,  // measure 10
2000
0000
3000
0000
,  // measure 11
0002
0000
0003
0000
,  // measure 12
0200
0000
0300
0000
,  // measure 13
0020
0000
0030
0000
,  // measure 14
1000
0000
0000
1001
,  // measure 15
1001
1001
0000
0100
,  // measure 16
0000
0100
0000
1001
,  // measure 17
1001
1001
0000
0100
,  // measure 18
0000
0100
0000
0110
,  // measure 19
0110
0110
0000
0100
,  // measure 20
0000
0100
0000
0110
,  // measure 21
0110
0110
0000
0010
,  // measure 22
0000
1000
0000
0100
,  // measure 23
0000
0100
0000
0100
,  // measure 24
0000
0100
0000
0001
,  // measure 25
0000
0001
0000
1000
,  // measure 26
0000
0010
0000
1000
,  // measure 27
0000
1000
0000
0001
,  // measure 28
0000
0010
0000
0001
,  // measure 29
0001
0001
0000
1000
,  // measure 30
1000
1000
0000
0010
,  // measure 31
0010
0010
0000
0100
,  // measure 32
0100
0100
0000
0001
,  // measure 33
0000
0010
0010
0010
,  // measure 34
0000
0100
0100
0200
,  // measure 35
0000
0000
0300
2000
,  // measure 36
0000
0000
3000
1001
,  // measure 37
1001
1001
0000
0010
,  // measure 38
0000
0100
0000
0110
,  // measure 39
0110
0110
0000
0001
,  // measure 40
0000
1000
0000
0001
,  // measure 41
0001
0002
0003
1000
,  // measure 42
1000
2000
3000
0020
,  // measure 43
0030
0200
0300
0020
,  // measure 44
0030
0200
0300
0001
,  // measure 45
0001
0002
0003
1000
,  // measure 46
1000
2000
3000
0020
,  // measure 47
0030
0200
0300
0002
,  // measure 48
0003
2000
3000
0100
;
