#VERSION:0.83;
#TITLE:Feel Good Inc;
#SUBTITLE:;
#ARTIST:Gorillaz;
#TITLETRANSLIT:;
#SUBTITLETRANSLIT:;
#ARTISTTRANSLIT:;
#GENRE:Demon Days;
#ORIGIN:;
#TAGS:;
#CREDIT:[Ness];
#BANNER:Feel Good Inc-bn.png;
#BACKGROUND:Black.png;
#PREVIEWVID:Feel Good Inc-preview.avi;
#JACKET:Feel Good Inc-jacket.png;
#CDIMAGE:;
#DISCIMAGE:Feel Good Inc-bg.png;
#LYRICSPATH:;
#CDTITLE:;
#MUSIC:Feel Good Inc.mp3;
#OFFSET:0.587000;
#SAMPLESTART:51.399239;
#SAMPLELENGTH:25.987148;
#SELECTABLE:YES;
#BPMS:0.000000=138.529999
;
#STOPS:116.000000=1.299000
;
#DELAYS:;
#WARPS:;
#TIMESIGNATURES:0.000000=4=4
;
#TICKCOUNTS:0.000000=2
;
#COMBOS:0.000000=1
;
#SPEEDS:0.000000=1.000000=0.000000=0
;
#SCROLLS:0.000000=1.000000
;
#LABELS:0.000000=Song Start
;
#BGCHANGES:;
#KEYSOUNDS:;
#ATTACKS:
;

//---------------dance-single - ----------------
#NOTEDATA:;
#CHARTNAME:[Ness];
#CHARTHASH:3240384;
#STEPSTYPE:dance-single;
#BANNER:;
#DESCRIPTION:[Ness];
#CHARTSTYLE:;
#DIFFICULTY:Easy;
#METER:4;
#METERF:4.000000;
#LASTSECONDHINT:109.858032;
#RADARVALUES:0.000000,0.000000,0.000000,0.000000,0.000000,0.000000,0.000000,0.000000,0.000000,0.000000,0.000000,0.000000,0.000000,0.000000,0.000000,0.000000,0.000000,0.000000,0.000000,0.000000,0.000000,0.000000,0.000000,0.000000,0.000000,0.000000,0.000000,0.000000;
#CREDIT:[Ness];
#NOTES:
// measure 0
0000
0000
0000
0000
,  // measure 1
0000
0000
0000
0000
,  // measure 2
0000
0000
0000
0000
,  // measure 3
0000
0000
0000
0000
,  // measure 4
1000
0100
1000
0000
,  // measure 5
0001
0010
0100
0100
,  // measure 6
1000
0001
0100
0000
,  // measure 7
0010
0100
0001
0001
,  // measure 8
1000
0010
0100
0000
,  // measure 9
0010
1000
0100
0100
,  // measure 10
0010
0001
0100
0000
,  // measure 11
0001
0000
1000
0000
,  // measure 12
0100
1000
0100
0000
,  // measure 13
0010
0000
0100
0000
,  // measure 14
1000
0001
1000
0000
,  // measure 15
0001
0000
0100
0000
,  // measure 16
0010
0100
0001
0000
,  // measure 17
1000
0000
0010
0000
,  // measure 18
0001
0010
1000
0000
,  // measure 19
0010
0000
0100
0000
,  // measure 20
1000
1000
0100
0100
,  // measure 21
0001
0100
0001
0000
,  // measure 22
0001
0001
0100
0100
,  // measure 23
1000
0010
0100
0000
,  // measure 24
0010
0010
1000
1000
,  // measure 25
0001
1000
0100
0000
,  // measure 26
0010
0010
0100
0100
,  // measure 27
1000
0100
1000
0100
,  // measure 28
0001
0000
1000
0000
,  // measure 29
0100
2000
0000
0000
,  // measure 30
3000
0002
0000
0000
,  // measure 31
0003
0200
0300
0020
,  // measure 32
0030
2000
3000
0002
,  // measure 33
0003
0020
0100
0000
,  // measure 34
0130
2000
0001
0000
,  // measure 35
3001
0200
0010
0000
,  // measure 36
0310
0002
1000
0000
,  // measure 37
1003
0010
0100
0000
,  // measure 38
0100
0001
0010
0000
,  // measure 39
0001
0100
1000
0000
,  // measure 40
1000
0010
0001
0010
,  // measure 41
1000
0100
0001
0000
,  // measure 42
0001
0100
1000
0000
,  // measure 43
1000
0010
0100
0000
,  // measure 44
0010
1000
0000
0100
,  // measure 45
0000
0010
0000
0001
,  // measure 46
0000
1000
0000
0000
,  // measure 47
0000
0001
0001
1000
,  // measure 48
1000
0100
0010
0100
,  // measure 49
0100
1000
0100
1000
,  // measure 50
0100
0002
0000
0003
,  // measure 51
0000
1000
1000
0001
,  // measure 52
0001
1000
0010
1000
,  // measure 53
0010
0100
0001
0010
,  // measure 54
0001
0010
0100
2000
,  // measure 55
0000
3001
0000
0100
,  // measure 56
0000
0010
0000
1000
,  // measure 57
0001
0100
0000
0010
,  // measure 58
0000
1000
0000
0001
,  // measure 59
0010
0100
0100
1000
,  // measure 60
1000
0001
0001
1000
,  // measure 61
0010
0100
0100
0001
,  // measure 62
0001
1000
0000
0100
,  // measure 63
0100
0000
0000
0000
;

//---------------dance-single - ----------------
#NOTEDATA:;
#CHARTNAME:[Ness];
#CHARTHASH:2386596726;
#STEPSTYPE:dance-single;
#BANNER:;
#DESCRIPTION:[Ness];
#CHARTSTYLE:;
#DIFFICULTY:Medium;
#METER:5;
#METERF:5.000000;
#LASTSECONDHINT:108.775238;
#RADARVALUES:0.000000,0.000000,0.000000,0.000000,0.000000,0.000000,0.000000,0.000000,0.000000,0.000000,0.000000,0.000000,0.000000,0.000000,0.000000,0.000000,0.000000,0.000000,0.000000,0.000000,0.000000,0.000000,0.000000,0.000000,0.000000,0.000000,0.000000,0.000000;
#CREDIT:[Ness];
#NOTES:
0000
0000
0000
0000
,
0000
0000
0000
0000
,
0000
0000
0000
0000
,
0000
0000
0000
0000
,
0001
0010
1000
0100
,
0010
0100
1000
1001
,
0010
1000
0001
0010
,
0100
1000
0010
0110
,
1000
0100
0010
0100
,
1000
0001
0100
1001
,
0001
0010
0100
1000
,
0010
0100
0001
1001
,
1000
0100
1000
0001
,
1000
0000
0010
0100
0010
0000
0000
0000
,
1000
0001
0010
0100
,
1000
0100
1000
0000
0000
0000
0000
0000
,
0001
1000
0010
0100
,
0001
0000
1000
0100
1000
0000
0000
0000
,
0001
1000
0010
0100
,
0001
0100
0001
0000
0000
0000
0000
0000
,
1000
0010
0001
0010
,
0100
0000
1000
0001
1000
0000
0000
0000
,
0010
1000
0100
0010
,
0001
1000
0001
0000
0000
0000
0000
0000
,
0010
0100
0010
0001
,
1000
0000
0100
0000
0001
0100
0001
0000
,
1000
0010
0100
0001
,
1000
0010
0001
0010
,
1000
0100
0010
0100
,
1000
0001
0001
1000
,
1000
0010
0001
0010
,
0000
1000
1000
0001
,
0001
0100
1000
0100
,
0000
1000
0100
0010
,
0100
1000
0010
0001
,
0000
0001
0100
0001
,
0010
1000
0010
0001
,
0010
0000
1000
0000
0100
0000
0010
0001
,
0100
0001
0100
0010
,
1000
0000
0001
0000
0010
0000
0100
1000
,
0001
1000
0010
0100
,
0001
0000
1000
0000
0010
0000
0001
0100
,
0010
1000
0001
0010
,
0100
0000
1000
0000
0100
0000
0010
0001
,
0100
0000
0010
1000
0100
0000
0010
0001
,
0100
0001
0001
1000
,
1000
0100
0000
0000
,
0000
0000
0010
0000
0100
0000
1000
0100
,
1000
0000
0001
0000
0010
0000
0100
1000
,
0100
0000
1000
0000
0010
0000
0100
0001
,
0100
0000
0010
1000
0010
0100
0000
0000
,
0000
0000
0001
0000
0010
0000
0001
1000
,
0001
0000
1000
0000
0010
0000
1000
0001
,
1000
0000
0100
0000
0010
0000
0001
0100
,
0001
0000
1000
0100
1000
0100
0000
0000
,
0000
0010
0100
1000
,
0001
1000
0010
0100
,
1001
0010
0100
0001
,
0010
0100
1000
0010
,
1001
0100
1000
0010
,
0100
0001
0010
0100
,
1001
0000
0010
0000
0000
1000
0001
1000
,
0000
0001
0000
0100
0000
0000
0000
0000
;

//---------------dance-single - ----------------
#NOTEDATA:;
#CHARTNAME:[Ness];
#CHARTHASH:2350064169;
#STEPSTYPE:dance-single;
#BANNER:;
#DESCRIPTION:[Ness];
#CHARTSTYLE:;
#DIFFICULTY:Hard;
#METER:7;
#METERF:0.000000;
#LASTSECONDHINT:109.858032;
#RADARVALUES:0.000000,0.000000,0.000000,0.000000,0.000000,0.000000,0.000000,0.000000,0.000000,0.000000,0.000000,0.000000,0.000000,0.000000,0.000000,0.000000,0.000000,0.000000,0.000000,0.000000,0.000000,0.000000,0.000000,0.000000,0.000000,0.000000,0.000000,0.000000;
#CREDIT:[Ness];
#NOTES:
0000
0000
0000
0000
,
0000
0000
0000
0000
,
0000
0000
0000
0000
,
0000
0000
0000
0000
,
1001
0000
0100
0010
1000
0001
0000
0010
,
0000
0100
0010
0000
0011
0000
1100
0000
,
0001
0000
1000
0010
0100
0010
0000
1000
,
0000
0001
0100
0000
0101
0000
1100
0000
,
0001
0000
0100
0010
1000
0010
0000
0100
,
0000
0001
1000
0000
0101
0000
1010
0000
,
0010
0000
0100
0001
1000
0100
0000
0010
,
0000
0001
1000
0000
0110
0000
1001
0000
,
0001
0100
0002
0000
1003
0000
0101
0000
,
0010
1000
0100
2000
0000
3002
0100
0003
,
0010
0001
0200
0000
0310
0000
1001
0000
,
0010
0100
0001
0202
0000
0000
0303
0000
,
1000
0001
0100
0010
1000
0000
1100
0000
,
0010
0100
0001
0020
0000
0230
0000
0300
,
0000
0000
1100
1000
0010
0000
0101
0001
,
1000
0010
0100
0002
0000
0000
0013
0000
,
1000
0100
2000
0000
3001
0000
1100
0000
,
0010
0001
0100
0002
0000
2003
0100
3000
,
0010
1000
0100
0010
0001
0000
0101
0000
,
0001
0010
0100
2200
0000
0000
3300
0000
,
0001
1000
0100
0010
0001
0000
0101
0000
,
0010
0100
1000
0002
0000
2003
0100
3000
,
0010
0001
1000
0001
0100
0000
0110
1000
,
0001
0010
0100
2000
0000
0001
3000
0000
,
0100
0010
1000
0001
0100
0010
1000
0001
,
0100
0000
0002
0010
0000
1000
0000
0010
,
0000
1003
0020
1000
0000
0100
0000
1000
,
0000
0130
0002
0100
0000
0010
0000
0100
,
0000
0013
2000
0100
0000
0001
0000
0100
,
0000
3010
0001
0100
0001
0000
0000
1000
,
0100
0010
0100
1000
0001
0000
0000
1000
,
0010
0100
0010
1000
0001
0000
0000
0010
,
0001
1000
0010
0000
0010
0000
0010
0000
,
1001
0000
0100
0001
0100
0010
0000
1000
,
0100
0001
0100
1000
0100
0010
0000
0001
,
0100
1000
0100
0010
1000
0100
0000
1000
,
0100
0000
0001
0000
0100
0000
0010
0000
0001
0000
0100
0000
0010
0000
0000
1000
,
0010
0100
0002
1000
0000
0010
0000
1003
,
0100
0000
2000
0000
0001
0010
0000
3001
,
0100
0000
1100
0000
0101
0000
0000
0100
,
1001
0000
0010
1000
0100
0000
0010
0001
,
0100
0000
0100
0001
0010
0000
0100
1000
,
0010
0000
0010
0100
0010
0100
0001
1000
,
0100
0000
0101
0000
1100
0000
0001
0100
,
0001
0100
1000
0100
0001
0100
1000
0100
,
1000
0100
0001
0010
0100
1000
0001
0010
,
0100
1000
0001
1000
0001
0202
0000
0000
,
0303
0000
1010
0000
0011
0000
1000
0100
,
0010
0001
1000
0100
1000
0100
0001
0100
,
1000
0100
0010
0001
0100
0001
1000
0010
,
0100
0001
1000
0001
1000
2200
0000
0000
,
3300
0000
1001
0000
0010
0001
0100
0010
,
0000
1100
0000
0101
0000
0100
0020
1000
,
1030
0000
0001
0000
1000
0001
0010
0100
,
0000
1001
0000
0110
0000
0001
0020
0100
,
0130
0000
1100
0000
1000
0001
0100
0010
,
0000
1010
0000
0011
0000
1000
0020
0100
,
0130
0000
0101
0000
0000
0100
0001
1000
,
0000
0100
0000
0010
0100
0000
0010
0000
,
1001
0000
0000
0000
;

//---------------dance-single - ----------------
#NOTEDATA:;
#CHARTNAME:[Ness];
#CHARTHASH:3241079596;
#STEPSTYPE:dance-single;
#BANNER:;
#DESCRIPTION:[Ness];
#CHARTSTYLE:;
#DIFFICULTY:Beginner;
#METER:1;
#METERF:1.000000;
#RADARVALUES:0.133048,0.166059,0.000000,0.000000,0.000000,106.000000,106.000000,0.000000,0.000000,0.000000,0.000000,0.000000,0.000000,0.000000,0.133048,0.166059,0.000000,0.000000,0.000000,106.000000,106.000000,0.000000,0.000000,0.000000,0.000000,0.000000,0.000000,0.000000;
#CREDIT:[Ness];
#NOTES:
// measure 0
0000
0000
0000
0000
,  // measure 1
0000
0000
0000
0000
,  // measure 2
0000
0000
0000
0000
,  // measure 3
0000
0000
0000
0000
,  // measure 4
0010
0000
0010
0000
,  // measure 5
0100
0000
0000
0000
,  // measure 6
1000
0000
1000
0000
,  // measure 7
0001
0000
0000
0000
,  // measure 8
0100
0000
0001
0000
,  // measure 9
0010
0000
0000
0000
,  // measure 10
0100
0000
1000
0000
,  // measure 11
0001
0000
0000
0000
,  // measure 12
1000
0000
0010
0000
,  // measure 13
0100
0000
0000
0000
,  // measure 14
0001
0000
0010
0000
,  // measure 15
0100
0000
1000
0000
,  // measure 16
1000
0000
0001
0000
,  // measure 17
0100
0000
0000
0000
,  // measure 18
0010
0000
0000
1000
,  // measure 19
0001
0000
0000
0000
,  // measure 20
0010
0000
0100
0000
,  // measure 21
1000
0000
0000
0000
,  // measure 22
0001
0000
0001
0000
,  // measure 23
1000
0000
0000
0000
,  // measure 24
0010
0000
0010
0000
,  // measure 25
0100
0000
0100
0000
,  // measure 26
0001
0000
1000
0000
,  // measure 27
0010
0000
0100
0000
,  // measure 28
0001
0000
0000
0000
,  // measure 29
0000
0100
0000
0000
,  // measure 30
0000
0001
0000
0000
,  // measure 31
0000
1000
0000
0000
,  // measure 32
0000
0100
0000
0000
,  // measure 33
0000
0010
0010
0000
,  // measure 34
0000
0001
0001
0000
,  // measure 35
0000
1000
1000
0000
,  // measure 36
0000
0100
0000
0100
,  // measure 37
0000
0010
0010
0000
,  // measure 38
0000
0100
0100
0000
,  // measure 39
0000
1000
0000
0001
,  // measure 40
0000
0100
0000
0100
,  // measure 41
0000
0010
0000
1000
,  // measure 42
0000
0100
0000
0001
,  // measure 43
0000
0010
0000
1000
,  // measure 44
0000
0100
0000
0001
,  // measure 45
0000
0100
0000
0000
,  // measure 46
0000
0100
0000
0000
,  // measure 47
0000
0001
0000
0001
,  // measure 48
0000
0000
0000
1000
,  // measure 49
0000
0100
0000
0100
,  // measure 50
0000
0010
0010
0010
,  // measure 51
0000
0001
0000
1000
,  // measure 52
0000
0000
0000
0010
,  // measure 53
0000
0100
0000
0001
,  // measure 54
0000
0100
0100
0100
,  // measure 55
0000
0010
0000
1000
,  // measure 56
0000
0100
0000
0010
,  // measure 57
0010
0010
0000
0001
,  // measure 58
0000
1000
0000
0001
,  // measure 59
0001
0001
0000
0100
,  // measure 60
0000
0010
0000
1000
,  // measure 61
1000
1000
0000
0001
,  // measure 62
0000
0010
0000
0100
,  // measure 63
0100
0000
0000
0000
;
