#TITLE:False Alarm;
#SUBTITLE:;
#ARTIST:Matoma & Becky Hill;
#TITLETRANSLIT:;
#SUBTITLETRANSLIT:;
#ARTISTTRANSLIT:;
#GENRE:False Alarm;
#CREDIT:;
#BANNER:False Alarm-bn.png;
#BACKGROUND:False Alarm-bg.png;
#LYRICSPATH:;
#CDTITLE:;
#MUSIC:False Alarm.mp3;
#OFFSET:-0.057000;
#SAMPLESTART:91.215218;
#SAMPLELENGTH:18.349518;
#LASTBEATHINT:208.000000;
#SELECTABLE:YES;
#BPMS:0.000000=103.000000
;
#STOPS:
;
#BGCHANGES:0.000=False Alarm-video.avi=1.000=0=0=0=StretchNoLoop====,
99999=-nosongbg-=1.000=0=0=0 // don't automatically add -songbackground-
;
#KEYSOUNDS:;
#ATTACKS:;

//---------------dance-single - ----------------
#NOTES:
     dance-single:
     :
     Hard:
     7:
     0.420495,0.433690,0.137848,0.170283,0.210827,363.000000,346.000000,17.000000,21.000000,0.000000,0.000000,0.420495,0.433690,0.137848,0.170283,0.210827,363.000000,346.000000,17.000000,21.000000,0.000000,0.000000:
// measure 0
0000
0000
0000
0000
,  // measure 1
0000
0000
0000
0000
,  // measure 2
0010
0000
1000
0100
0010
0001
0100
0010
,  // measure 3
0100
0000
0001
0010
0100
1000
0010
0100
,  // measure 4
0010
0000
2000
0000
3000
0000
0000
0001
,  // measure 5
0100
0010
1000
0002
0000
1003
0100
0000
,  // measure 6
0010
0000
0001
0010
1000
0010
0001
1000
,  // measure 7
0001
0000
0100
1000
0100
0001
1000
0010
,  // measure 8
1000
0000
0200
0000
0300
0000
0000
0010
,  // measure 9
0001
0000
1000
0000
0200
0000
0000
0000
0000
0000
0000
0300
0000
0000
0000
0000
,  // measure 10
0010
0000
0001
0000
1000
0000
0001
0100
0001
0000
0000
0000
1000
0000
0010
0000
,  // measure 11
1000
0000
0100
1000
0100
0000
0000
0000
0000
0000
0000
0000
0010
0000
0000
0000
,  // measure 12
0001
0100
0010
0000
1000
0000
0010
0100
0001
0000
0000
0000
1000
0000
0010
0000
,  // measure 13
0010
1000
0100
0020
0000
0000
0031
0000
,  // measure 14
1000
0001
0100
0001
1000
0010
1000
0100
,  // measure 15
0010
0000
0001
0010
0100
1000
0010
0100
,  // measure 16
0001
0000
1000
0000
0100
1000
0100
0000
0000
0000
0000
0000
0000
0000
0010
0000
,  // measure 17
0100
0000
1000
0000
0100
0000
0020
0000
0000
0000
0001
0000
0100
0000
0031
0100
,  // measure 18
0000
0000
0110
0000
0001
0000
0100
0000
1000
0000
0100
0001
0000
0000
0100
0000
,  // measure 19
0000
0000
0110
0000
1000
0000
0100
0000
0001
0000
0100
1000
0000
0000
0010
0000
,  // measure 20
0000
0000
0110
0000
0001
0000
0100
0000
1000
0000
0100
0001
0000
0000
0100
0010
,  // measure 21
0100
0000
0001
0000
1000
0000
0100
0000
0010
0000
0001
1000
0000
1000
0001
0000
,  // measure 22
0000
0000
0110
0000
1000
0000
0001
0000
0100
0000
1000
0100
0000
0000
0010
0000
,  // measure 23
0000
0000
1010
0000
1000
0000
0001
0000
0100
0000
0001
1000
0000
0000
0100
0000
,  // measure 24
0000
0000
0110
0000
0001
0000
1000
0000
0100
0000
0010
0001
0000
0000
1000
0010
,  // measure 25
1000
0000
0001
0000
0100
0000
0010
0000
1000
0000
1000
0001
0000
1000
0200
0000
,  // measure 26
0000
0310
0001
0100
0020
0000
1030
0002
,  // measure 27
0000
1003
0100
0001
0100
0000
0010
0200
,  // measure 28
0000
1300
0010
0100
0001
0000
1000
0020
,  // measure 29
0000
0000
1030
0000
0100
0000
0010
0000
0001
0000
0000
0001
1000
0000
0000
0000
,  // measure 30
0100
1000
0010
0100
0001
0010
0100
1000
,  // measure 31
0020
0000
1030
0100
1000
0001
0100
0001
,  // measure 32
1000
0000
0001
0000
0100
0001
0200
0000
0000
0000
0300
0000
0000
0000
0010
0000
,  // measure 33
1000
0000
0100
0000
0010
0000
0200
0000
0000
0000
1300
0000
0001
0000
1000
0100
,  // measure 34
1000
0000
0010
0000
0001
0000
0020
0000
0000
0000
1030
0000
0100
0000
1000
0010
,  // measure 35
0100
0000
0110
0000
0001
0000
0100
0000
1000
0000
0100
0001
0100
0000
0010
0000
,  // measure 36
1000
0000
0100
0000
0010
0000
0001
0000
1000
0000
0100
0001
0100
0000
0010
0000
,  // measure 37
0001
0000
1000
0000
0010
0000
0001
0000
0010
0000
1000
0010
1000
0000
0001
0000
,  // measure 38
0100
0000
0010
0000
1000
0000
0001
0000
0010
0000
0001
1000
0000
0001
1000
0000
,  // measure 39
0000
0000
0010
0000
1000
0000
0001
0000
0100
0000
0001
0010
0000
0100
1000
0000
,  // measure 40
0000
0000
0010
0000
0100
0000
0001
0000
0010
0000
0100
1000
0000
0001
0100
0000
,  // measure 41
0000
0000
0010
0000
0100
0000
0001
0000
1000
0000
0010
1000
0000
0100
1000
0000
,  // measure 42
0100
0000
1000
0000
0010
0000
0001
0000
0010
0000
0010
0100
0000
0000
0001
0000
,  // measure 43
1000
0000
0010
0000
1010
0000
0000
0001
0000
1000
0000
2002
0000
0000
3003
0000
,  // measure 44
0001
0000
0010
0000
0011
0000
0000
1000
0000
0001
0000
0000
0100
0000
0100
0000
,  // measure 45
0010
0000
1000
0000
1010
0000
0000
0001
0000
1000
0000
0101
0000
0000
0001
0000
,  // measure 46
0010
0000
0001
0000
0100
0000
0020
0000
0000
0000
1030
0000
0001
0000
1000
0100
,  // measure 47
0010
0000
0001
0000
0011
0000
0000
1000
0000
0001
0000
2200
0000
0000
3300
0000
,  // measure 48
0010
0000
0100
0000
0110
0000
0000
1000
0000
0001
0000
0000
0100
0000
0010
0000
,  // measure 49
1000
0000
0010
0000
1001
0000
0000
0001
0000
0100
0000
1001
0000
0000
0100
0000
,  // measure 50
0010
0000
1000
0000
0100
0000
0020
0000
0000
0000
0031
0000
1000
0000
0001
1000
;

//---------------dance-single - ----------------
#NOTES:
     dance-single:
     :
     Medium:
     4:
     0.247895,0.288062,0.064870,0.235153,0.000000,214.000000,206.000000,8.000000,29.000000,0.000000,0.000000,0.247895,0.288062,0.064870,0.235153,0.000000,214.000000,206.000000,8.000000,29.000000,0.000000,0.000000:
0000
0000
0000
0000
,
0000
0000
0000
0000
,
1002
0000
1000
1000
1000
0000
1000
1000
,
1000
0000
0100
0100
0100
0000
0100
0100
,
0103
0000
0000
0010
,
1000
0100
0010
0001
,
2001
0000
0001
0001
0001
0000
0001
0001
,
0001
0000
0100
0100
0100
0000
0100
0100
,
3100
0000
0000
0010
,
0001
0100
0010
1000
,
0001
0010
0200
0000
,
1300
0010
0200
0000
,
0301
1000
0200
0000
,
1300
0001
1000
0000
0010
0000
0100
0000
,
0001
0000
0010
0000
0100
0000
1000
0100
,
2000
0000
3010
0000
0100
0000
0001
0100
,
0002
0000
0000
0000
,
0013
0100
2000
3001
,
1002
0100
1000
0100
,
2003
0100
0001
0100
,
3002
0100
1000
0100
,
1003
0001
0100
0000
0001
0100
0001
0000
,
2001
0100
0001
0100
,
3002
0100
1000
0100
,
2003
0100
0001
0100
,
3001
1000
0100
0000
1000
0100
1000
0000
,
0010
1000
0200
0000
,
1300
0001
0200
0000
,
0310
1000
0020
0000
,
0130
0001
0200
0000
,
0310
0000
1000
0000
0100
0000
0010
0100
,
0010
0000
0001
0000
0100
0000
0010
0100
,
0020
0000
0000
0000
,
1030
0100
0020
0000
,
0031
0100
0020
0000
,
0032
0100
1000
0103
,
0020
1000
0100
1030
,
0200
0010
1000
0310
,
2000
0100
0001
3100
,
0020
1000
0001
1030
,
0200
0001
1000
0301
,
2000
0010
0001
3100
,
0002
0100
1000
0013
,
1000
1000
1000
0000
0100
0000
0110
0000
,
0001
0001
0001
0000
0100
0010
0100
0000
,
0010
0010
0010
0000
1000
0000
1001
0000
,
0100
0001
1000
0000
0001
1000
0001
0000
,
0010
0010
0010
0000
0100
0000
1001
0000
,
1000
1000
1000
0000
0001
1000
0001
0000
,
0010
0010
0010
0000
0100
0000
0110
0000
,
0001
1000
0010
0000
0100
0001
1000
0000
;

//---------------dance-single - ----------------
#NOTES:
     dance-single:
     :
     Easy:
     2:
     0.145957,0.205759,0.016217,0.186501,0.000000,126.000000,124.000000,2.000000,23.000000,0.000000,0.000000,0.145957,0.205759,0.016217,0.186501,0.000000,126.000000,124.000000,2.000000,23.000000,0.000000,0.000000:
0000
0000
0000
0000
,
0000
0000
0000
0000
,
1002
1000
1000
1000
,
0100
0100
0100
0100
,
1003
0000
0000
0000
,
0010
0000
0100
0000
,
2001
0001
0001
0001
,
0100
0100
0100
0100
,
3001
0000
0000
0000
,
0010
0100
0000
0000
,
1000
0001
0200
0300
,
1000
0002
0000
0000
,
0013
0001
2000
0000
,
3010
0001
0000
0000
,
1000
0001
0100
0100
,
1000
0001
0010
0010
,
1000
0001
2000
0000
,
3100
0010
0001
0000
,
0020
0000
0100
0100
,
0000
0000
0100
0100
,
0000
0000
0100
0100
,
0130
0000
1000
0001
,
2000
0000
0010
0010
,
0000
0000
0001
0001
,
0000
0000
0100
0100
,
0000
0000
3010
0100
,
0020
0030
1000
1000
,
0002
0000
0000
0003
,
0200
0000
0000
0300
,
0020
0000
0000
0030
,
1000
1000
1000
0100
,
0001
0001
0001
0100
,
2000
0000
0000
3000
,
0010
0100
0020
0030
,
0010
0100
0020
0030
,
0200
0000
0010
0010
,
0000
0000
0010
0010
,
0000
0000
0010
0010
,
0000
0000
0001
0301
,
0002
0000
0010
0010
,
0000
0000
1000
1000
,
0000
0000
0100
0100
,
0000
0000
1003
0001
,
1000
0000
0200
0300
,
0001
0000
0200
0300
,
1000
0000
0200
0300
,
0001
1000
0010
0100
,
0001
0000
2000
3000
,
0010
0000
0200
0300
,
0001
0000
2000
3000
,
0010
0100
0001
1000
;

//---------------dance-single - ----------------
#NOTES:
     dance-single:
     :
     Beginner:
     1:
     0.114680,0.143322,0.016217,0.064870,0.000000,99.000000,97.000000,2.000000,8.000000,0.000000,0.000000,0.114680,0.143322,0.016217,0.064870,0.000000,99.000000,97.000000,2.000000,8.000000,0.000000,0.000000:
0000
0000
0000
0000
,
0000
0000
0000
0000
,
1001
0000
1000
0000
,
0100
0000
0100
0000
,
1000
0000
0000
0000
,
0010
0000
0100
0000
,
1001
0000
0001
0000
,
0100
0000
0100
0000
,
0001
0000
0000
0000
,
0010
0000
0000
0000
,
1000
0000
0100
0000
,
1000
1000
0000
0000
,
0010
0000
0001
0000
,
0010
0010
0000
0000
,
1000
0000
0001
0000
,
0100
0000
0100
0000
,
1000
0000
0001
0000
,
1000
0000
0001
0000
,
0010
0000
0100
0100
,
0000
0000
0100
0100
,
0000
0000
0100
0100
,
0100
0000
1000
1000
,
1000
0000
0010
0010
,
0000
0000
0001
0001
,
0000
0000
0100
0100
,
0000
0000
0010
0010
,
0010
0000
1000
1000
,
1000
0000
0000
0000
,
0200
0000
0300
0000
,
0020
0000
0030
0000
,
1000
0000
0100
0000
,
0001
0000
0100
0000
,
2000
0000
3000
0000
,
0010
0000
0200
0300
,
0010
0000
0200
0300
,
0100
0000
0010
0010
,
0000
0000
0010
0010
,
0000
0000
0010
0010
,
0000
0000
0001
0001
,
0001
0000
0010
0010
,
0000
0000
1000
1000
,
0000
0000
0100
0100
,
0000
0000
1000
1000
,
1000
0000
0200
0300
,
0001
0000
0200
0300
,
1000
0000
0200
0300
,
0001
0000
1000
0000
,
0010
0000
0100
0000
,
0001
0000
1000
0000
,
0010
0000
0100
0000
,
0001
0000
1000
0000
;
