#TITLE:Falling Down;
#SUBTITLE:;
#ARTIST:Selena Gomez and The Scene;
#TITLETRANSLIT:;
#SUBTITLETRANSLIT:;
#ARTISTTRANSLIT:;
#GENRE:Kiss & Tell;
#CREDIT:;
#BANNER:Falling Down-bn.png;
#BACKGROUND:Black.png;
#LYRICSPATH:Falling Down-lrc.lrc;
#CDTITLE:;
#MUSIC:Falling Down.mp3;
#OFFSET:-1.060000;
#SAMPLESTART:42.174797;
#SAMPLELENGTH:23.999996;
#SELECTABLE:YES;
#BPMS:0.000000=140.000000
;
#STOPS:
;
#BGCHANGES:-2.500=Falling Down-video.avi=1.000=1=0=0=StretchNoLoop==CrossFade==,
287.500=Black.png=1.000=0=0=1=====,
99999=-nosongbg-=1.000=0=0=0 // don't automatically add -songbackground-
;
#KEYSOUNDS:;
#ATTACKS:;

//---------------dance-single - ----------------
#NOTES:
     dance-single:
     :
     Hard:
     8:
     0.524754,0.561738,0.289173,0.148494,0.058616,470.000000,433.000000,37.000000,19.000000,0.000000,0.000000,0.524754,0.561738,0.289173,0.148494,0.058616,470.000000,433.000000,37.000000,19.000000,0.000000,0.000000:
0000
0000
0000
0000
,
0000
0000
0000
0000
,
0000
0000
0000
0000
,
0000
0000
0000
0000
,
0101
0000
1100
0000
0000
0100
1000
0100
,
0000
0000
1001
0000
1000
0010
1000
0001
,
0100
0000
0100
0000
0000
0010
1000
0001
,
0000
0011
1010
1001
,
0000
0010
1000
0001
0100
1000
0100
0001
,
2000
3020
0230
0302
,
1003
0100
0010
0001
1000
0010
0100
1000
,
0100
0001
1000
0001
0010
0000
1001
0000
,
0001
0100
1000
0100
0001
0100
0001
0010
,
1000
0010
0001
1000
0001
0000
0100
0000
,
0010
1000
0100
0001
0100
0010
0001
1000
,
0010
0001
0010
1000
0001
1000
0010
0100
,
0001
0000
0101
0000
0000
0010
0010
1000
,
0100
0000
1100
0000
0000
0100
1000
0010
,
0100
0000
0101
0000
0000
0001
0010
0100
,
1000
0000
1001
0000
0000
1000
0001
0010
,
0100
0000
0011
0000
0000
0010
0010
0100
,
1000
0000
0101
0000
0000
1000
1000
0010
,
0100
0000
0101
0000
0001
1000
0010
0100
,
0000
0001
1000
0001
0010
0100
0110
0000
,
1001
1000
0010
1000
0001
0100
0001
0000
,
0010
0001
1000
0100
1000
0010
0100
0000
,
0010
0000
1000
0000
0100
0000
0001
0000
0100
0000
1000
0000
0010
0000
0000
2000
,
0010
0000
3000
0002
0010
0000
0003
1000
0010
0000
0100
0000
1001
0000
1000
0000
,
0010
0000
0100
1000
0001
0100
0010
0000
,
0100
0001
0010
1000
0010
0001
1000
0000
,
1010
0000
0010
0000
0100
0000
0001
0000
1000
0000
0010
0000
0100
0000
0000
0002
,
0010
0000
0003
2000
0100
0000
3000
0001
0010
0000
0100
0000
1001
0000
0001
0000
,
0010
0000
1001
0010
0100
0100
1001
0000
,
0010
1000
0001
0010
0100
1000
0001
0000
,
1001
1000
0010
1000
0100
0100
0100
0010
,
0001
0000
0011
0000
0010
0100
0100
0100
,
1000
0000
1100
1000
0010
0100
0101
0001
,
0010
0000
1001
0000
0002
1000
1000
0000
,
0103
0000
0001
0100
0010
0010
1000
0100
,
0010
0001
1000
0001
0100
0000
0010
0000
,
1000
0001
1000
0010
1000
0001
0100
0010
,
0010
1000
0100
0010
0001
0000
1000
0000
,
0001
0000
0010
0100
1000
0000
0101
0000
,
0100
0000
0010
1000
0100
0010
0001
0100
,
0010
0000
1000
0001
0100
0000
1001
0000
,
0001
1000
0010
0100
0001
0000
1000
0000
,
1002
0100
0010
1000
,
0100
0013
1001
1010
,
2100
0001
0010
0100
,
3001
1000
1001
0010
,
0200
0001
0010
1300
,
0002
0010
1000
0103
,
0020
1000
0100
0031
,
2000
0000
3001
0000
0010
1001
0010
1001
,
0010
1000
0100
0001
0100
1000
0010
0000
,
0100
0001
0010
1000
0010
0001
0100
0000
,
0001
0000
0010
0000
0100
0000
1000
0000
0010
0000
0001
0000
0010
0000
0000
2000
,
0010
0000
3000
0002
0100
0000
0003
0002
0010
0000
1003
0000
0100
0000
0100
1000
,
0010
0100
0001
1000
0100
0001
0100
0000
,
1000
0001
0100
1000
0100
0001
0010
0000
,
0001
0010
0100
1000
0010
0100
1000
0100
,
0001
0000
0000
0002
0010
0000
0003
0010
1000
0000
0010
0000
0100
0000
0100
0000
,
0010
0000
1001
0010
0100
0001
0010
0000
,
0001
0010
1000
0010
0001
0100
0010
0000
,
1000
0100
0001
0100
1000
0010
0100
0001
,
1000
0000
0000
0000
1001
0000
0000
1000
0010
1000
0010
0000
1000
0000
0001
0010
,
0100
0010
0001
0010
0001
1000
0001
1000
,
0001
0100
0001
0100
0010
1000
0010
1000
,
0100
0000
1000
0100
0001
0100
1000
0010
,
0100
0001
0010
0100
1000
0000
0001
0000
,
1000
0010
0001
0010
1000
0100
0010
0001
,
1000
0001
0100
0010
1000
0001
0100
1000
;

//---------------dance-single - ----------------
#NOTES:
     dance-single:
     :
     Medium:
     6:
     0.378493,0.420571,0.250096,0.148494,0.000000,339.000000,307.000000,32.000000,19.000000,0.000000,0.000000,0.378493,0.420571,0.250096,0.148494,0.000000,339.000000,307.000000,32.000000,19.000000,0.000000,0.000000:
0000
0000
0000
0000
,
0000
0000
0000
0000
,
0000
0000
0000
0000
,
0000
0000
0000
0000
,
0110
0000
1001
0000
0000
0000
0001
1000
,
0000
0000
0100
0000
1000
0000
0001
1000
,
0000
0000
0010
0000
0000
0100
0001
0000
,
1000
0000
1001
1001
,
0010
0000
1000
0000
0001
0000
0100
0001
,
2000
3020
0230
0302
,
0013
0000
0100
0000
0010
0000
0100
1000
,
0002
0203
0320
2030
,
3100
0010
1001
0001
,
1000
0010
0100
0000
0002
0000
1003
0000
,
0010
1000
1001
0001
,
0010
0001
1000
0000
1001
0000
0010
0000
,
1000
1000
0100
0010
,
0001
0200
0001
0301
,
1000
0010
1000
0100
,
0010
0002
1000
1003
,
0001
0100
0010
1000
,
0100
0010
0011
0011
,
0010
0100
1000
0001
,
0100
0010
1000
0001
,
2001
0000
0100
0000
0001
0001
0001
0000
,
3002
0000
0010
0000
1000
1000
1003
0000
,
1001
0001
1000
0001
,
0100
0000
0010
0000
1000
0001
1000
0000
,
1002
0000
0010
0000
1000
1000
1000
0000
,
2003
0000
0010
0000
0001
0001
3001
0000
,
1001
1000
0001
1000
,
0100
0000
0010
0000
0001
1000
0001
0000
,
1002
0000
0010
0000
0100
0100
0103
0000
,
2001
0000
0010
0000
0100
0100
3100
0000
,
1001
1000
0010
0100
,
0101
0000
0001
0000
1000
0100
1000
0000
,
2001
0010
0001
0010
,
0001
0100
0001
0100
,
3001
0000
0001
0000
0010
0100
1000
0000
,
0010
0100
0001
1000
,
0100
0000
0100
0000
0010
0001
1000
0000
,
0100
0010
0001
1000
,
0010
0000
1000
0100
0010
0000
0001
0000
,
0100
0010
1000
0001
,
1000
0000
0010
1000
0001
0000
0010
0000
,
0001
1000
0001
0110
,
1002
0103
0001
0100
,
1000
0100
0010
1000
,
0100
0001
0100
1000
,
0001
0100
0001
1000
,
1001
0000
0001
0010
0001
0000
1000
0000
,
1000
0000
1000
0010
1000
0000
0001
0000
,
0001
0000
0001
0100
0001
0000
1000
0000
,
1000
0000
1000
0100
1000
0000
1100
0000
,
0011
0000
0010
0100
0000
0000
1001
0000
,
1100
0000
0001
0100
0001
0000
0001
0000
,
0010
0100
1000
0000
0010
0100
0001
0000
,
1001
0000
1001
0000
0001
1000
0001
0000
,
1001
0000
0010
1000
0000
0000
0001
0100
,
0001
0000
0010
0001
0000
0000
1000
0100
,
1000
0010
0100
0001
,
0010
0000
0001
0000
1000
0100
0010
0000
,
1001
0000
0010
1000
0100
0000
1100
0000
,
0001
0000
0100
0001
0010
0000
0011
0000
,
0010
0001
1000
0000
0001
0000
0100
0000
,
0010
0000
1000
0000
0001
1000
0001
0000
,
0100
0010
1000
0000
0010
0100
0001
0000
,
1000
0010
0100
0000
0001
0010
0100
0000
,
1001
0000
0010
0000
0000
0001
1000
0000
,
0001
0000
0100
0000
0000
0010
1000
0100
,
1000
0000
1000
0000
0000
0010
0100
0000
,
0001
1000
0001
0100
;

//---------------dance-single - ----------------
#NOTES:
     dance-single:
     :
     Easy:
     4:
     0.240047,0.336457,0.093786,0.257911,0.000000,215.000000,203.000000,12.000000,33.000000,0.000000,0.000000,0.240047,0.336457,0.093786,0.257911,0.000000,215.000000,203.000000,12.000000,33.000000,0.000000,0.000000:
0000
0000
0000
0000
,
0000
0000
0000
0000
,
0000
0000
0000
0000
,
0000
0000
0000
0000
,
0010
1000
0000
0001
,
0000
0000
1000
0100
,
1000
1000
0000
0010
,
0000
0000
0100
0100
,
0000
0001
0001
0000
,
0010
0100
0010
0000
,
0000
0100
0100
0000
,
1000
0001
1000
0000
,
0000
0010
0010
0000
,
0100
0001
1000
0000
,
0000
0100
0100
0000
,
0010
0001
0100
0000
,
0010
0010
0000
2000
,
0001
3001
0000
0200
,
0001
0301
0000
0020
,
0100
0130
0000
2000
,
0010
3010
0000
0200
,
0001
0301
0000
2000
,
0100
3100
0000
0020
,
0001
0031
0100
0101
,
0020
0000
1030
0100
,
0020
0000
0031
0100
,
0001
0001
1000
1000
,
0010
0100
0010
0100
,
0002
0000
0013
0100
,
2000
0000
3100
0010
,
0001
0001
1000
1000
,
0001
0100
0010
1000
,
0002
0000
0103
0010
,
2000
0000
3100
0010
,
0001
0001
1000
1000
,
0010
0100
0010
0100
,
1002
0003
0200
0300
,
0002
0003
0020
0030
,
0100
0100
0000
1000
,
0001
0100
0010
1000
,
0001
0001
0000
0010
,
0010
0000
0100
0000
,
1001
0010
0001
0000
,
1000
0000
0001
0000
,
1000
0010
0100
0000
,
0001
0000
1000
0000
,
0020
0000
0000
0000
,
0000
0000
0130
0001
,
0200
0000
0000
0000
,
0301
0000
0010
0001
,
2000
0000
0000
0000
,
3000
0000
0010
1000
,
0002
0000
0000
0000
,
0103
0000
0010
1000
,
2002
3003
0010
0100
,
2002
3003
0010
0100
,
0001
1000
0001
1000
,
0100
0010
0001
0100
,
0202
0303
0001
1000
,
2200
3300
1000
0001
,
0010
0100
1000
0010
,
0100
0001
0010
0100
,
0220
0330
1000
0001
,
0220
0330
1000
0010
,
0100
0001
0010
0100
,
1000
0001
1000
0001
,
0101
0100
1000
0100
,
0110
0010
1000
0010
,
1001
1000
0100
1000
,
0001
0100
0010
1000
,
0001
0010
0001
1000
,
0100
0010
0001
1000
;

//---------------dance-single - ----------------
#NOTES:
     dance-single:
     :
     Beginner:
     1:
     0.140679,0.167642,0.101601,0.218834,0.000000,126.000000,113.000000,13.000000,28.000000,0.000000,0.000000,0.140679,0.167642,0.101601,0.218834,0.000000,126.000000,113.000000,13.000000,28.000000,0.000000,0.000000:
0000
0000
0000
0000
,
0000
0000
0000
0000
,
0000
0000
0000
0000
,
0000
0000
0000
0000
,
0010
0000
0000
0100
,
0000
0000
0001
0000
,
1000
0000
0000
0100
,
0000
0000
0010
0000
,
0001
0000
0000
0000
,
0100
0000
0010
0000
,
1000
0000
0000
0000
,
0010
0000
0100
0000
,
0001
0000
0000
0000
,
1000
0000
0001
0000
,
1000
0000
0000
0000
,
0001
0000
0010
0000
,
0001
0000
0010
0010
,
0000
0100
0000
0100
,
0000
0000
1000
1000
,
0000
0010
0000
0010
,
0000
0000
0100
0100
,
0000
0001
0000
0001
,
0000
0000
0010
0000
,
0010
0000
0001
0000
,
2002
0000
3003
0000
,
2002
0000
3003
0000
,
0010
0000
0010
0000
,
0100
0000
0100
0000
,
2002
0000
3003
0000
,
2002
0000
3003
0000
,
0010
0000
0100
0000
,
0010
0000
0100
0000
,
2002
0000
3003
0000
,
2002
0000
3003
0000
,
0010
0000
1000
0000
,
0001
0000
0100
0000
,
0002
0003
0002
0003
,
2000
3000
2000
3000
,
0100
0000
0100
0000
,
0010
0000
0001
0000
,
1000
0000
1000
0000
,
0010
0000
0100
0000
,
1001
0000
0001
0000
,
1000
0000
1000
0000
,
0100
0000
0010
0000
,
0001
0000
0001
0000
,
0010
0000
0000
0000
,
0000
0000
1000
0000
,
0001
0000
0000
0000
,
0100
0000
0001
0000
,
1000
0000
0000
0000
,
0010
0000
0100
0000
,
0001
0000
0000
0000
,
1000
0000
0001
0000
,
2002
0000
3003
0000
,
2002
0000
3003
0000
,
0010
0000
0100
0000
,
0001
0000
0010
0000
,
2002
0000
3003
0000
,
2002
0000
3003
0000
,
0010
0000
0001
0000
,
1000
0000
0100
0000
,
2002
0000
3003
0000
,
2002
0000
3003
0000
,
0010
0000
0100
0000
,
0001
0000
1000
0000
,
0001
0000
0001
0000
,
1000
0000
1000
0000
,
0010
0000
1000
0000
,
0100
0000
0010
0000
,
0001
0000
0100
0000
,
0010
0000
1000
0000
;

//---------------dance-double - ----------------
#NOTES:
     dance-double:
     :
     Easy:
     3:
     0.200970,0.279404,0.085970,0.164125,0.000000,180.000000,169.000000,11.000000,21.000000,0.000000,0.000000,0.200970,0.279404,0.085970,0.164125,0.000000,180.000000,169.000000,11.000000,21.000000,0.000000,0.000000:
00000000
00000000
00000000
00000000
,
00000000
00000000
00000000
00000000
,
00000000
00000000
00000000
00000000
,
00000000
00000000
00000000
00000000
,
00100000
00010000
00000000
01000000
,
00000000
00010000
00100000
00001000
,
00010000
00010000
00000000
00000100
,
00000000
00000000
00001000
00000010
,
00001000
00000000
00000001
00000000
,
00000010
00000100
00010000
00001000
,
00000000
00000000
01000000
00000000
,
00100000
10000000
00010000
00100000
,
00000000
00000000
00001000
00000000
,
00010000
00000100
00001000
00000010
,
00000000
00000100
00000000
00000001
,
00000010
00000001
00000010
00000100
,
00001000
00000000
00001000
00000000
,
00000100
00000000
00010000
00000000
,
00001000
00000000
00001000
00000000
,
01000000
00000000
00010000
00000000
,
10000000
00000000
00000000
00000000
,
00100000
00000000
10000000
00000000
,
00010000
00000000
00000000
00000000
,
00100000
00000000
00001000
00000000
,
00022000
00000000
00033000
00000000
,
00200000
00000000
00300000
00000000
,
00010000
01000000
10000000
01000000
,
00010000
00000000
00010000
00000000
,
02200000
00000000
03300000
00000000
,
00020000
00000000
00030000
00000000
,
00001000
00000010
00000001
00000010
,
00001000
00000000
00000010
00000000
,
00000220
00000000
00000330
00000000
,
00002000
00000000
00003000
00000000
,
00000100
00001000
00000001
00000100
,
00000001
00000000
00000001
00000000
,
00000010
00000001
00000100
00000000
,
00000010
00001000
00000100
00000000
,
00010000
00001000
01000000
00100000
,
10000000
00000000
01000000
00000000
,
00100000
00001000
00010000
00000100
,
00000010
00000000
00000001
00000000
,
00000100
00000000
00000100
00000000
,
00000010
00000000
00000010
00000000
,
00010000
00001000
00010000
00000000
,
00000100
00000000
00000100
00000000
,
00001100
00000100
00000100
00000100
,
00000100
00000100
00000010
00000001
,
00000100
00000100
00000100
00000100
,
00000001
00000000
00000010
00000001
,
00001000
00001000
00001000
00001000
,
00001000
00001000
00000010
00010000
,
00001000
00001000
00001000
00001000
,
01000000
00000000
00100000
10000000
,
22000000
33000000
10000000
00010000
,
20020000
30030000
00010000
00100000
,
00001000
00000000
00010000
00000000
,
00000100
00000000
00001000
00000010
,
00000220
00000330
00000001
00001000
,
00002002
00003003
00000001
00000010
,
00000100
00000000
00010000
00000000
,
00001000
00000000
01000000
00010000
,
20020000
30030000
10000000
00100000
,
20200000
30300000
00100000
01000000
,
00010000
00000000
00100000
00000000
,
00001000
00000000
00010000
00000000
,
00000100
00000000
00000100
00000000
,
00000100
00000000
00000100
00000000
,
00001001
00000000
00000000
00000000
,
00000010
00000000
00000000
00000000
,
00000100
00000000
00000000
00000000
,
00000001
00000000
00001000
00000000
;

//---------------dance-double - ----------------
#NOTES:
     dance-double:
     :
     Medium:
     5:
     0.340532,0.392533,0.117232,0.031262,0.000000,305.000000,290.000000,15.000000,4.000000,0.000000,0.000000,0.340532,0.392533,0.117232,0.031262,0.000000,305.000000,290.000000,15.000000,4.000000,0.000000,0.000000:
00000000
00000000
00000000
00000000
,
00000000
00000000
00000000
00000000
,
00000000
00000000
00000000
00000000
,
00000000
00000000
00000000
00000000
,
00100000
00000000
10000000
00000000
00000000
00000000
00010000
01000000
,
00000000
00000000
00010000
00000000
00100000
00000000
00001000
00010000
,
00000000
00000000
00000100
00000000
00000000
00000000
00010000
00001000
,
00000000
00000100
00001000
00000010
,
00000100
00000010
00000100
00000000
00000001
00000000
00001000
00000000
,
00001001
00001001
00000100
00000010
,
00000001
00001000
00000100
00000000
00000010
00000100
00001000
00000000
,
00001100
00001100
00000100
00010000
,
00001000
00100000
00010000
00000000
01000000
00100000
10000000
00000000
,
00110000
00110000
00001000
00010000
,
00000010
00001000
00000100
00000000
00000010
00000001
00001000
00000000
,
00000110
00000110
00000100
00010000
,
00001000
00001000
00100000
00010000
,
01000000
00001000
00010000
00000100
,
00001000
00000000
00000010
00000100
,
00000001
00001000
00000100
00001000
,
00000010
00000000
00000000
00000000
00000100
00000001
00000100
00000000
,
00000000
00000001
00001000
00000001
,
00000010
00000000
00000000
00000000
00000100
00000000
00001000
00000100
,
00000000
00000000
00001100
00000000
00010000
00001000
00010000
00000000
,
00011000
00000000
00100000
00010000
00000000
00000000
00000000
00000000
,
01100000
00000000
01000000
10000000
00000000
00000000
10000000
00000000
,
00100000
01000000
00010000
00100000
,
00001000
00000000
00010000
00000000
00001000
00010000
00001000
00000000
,
00011000
00000000
00000100
00001000
00000000
00000000
00000000
00000000
,
00000010
00000000
00001000
00000001
00000000
00000000
00000100
00000001
,
00000100
00000010
00001000
00000100
,
00001100
00000000
00001100
00000000
00000100
00001000
00000100
00000000
,
00001000
00000000
00000010
00001000
00000000
00000000
00000100
00000000
,
00001000
00000000
00000100
00010000
00000000
00000000
00000100
00000000
,
00000010
00000001
00000100
00000010
,
00010000
00000000
00001000
00000000
00100000
00001000
00100000
00000000
,
00010000
00100000
01000000
10000000
,
00010000
00100000
01000000
10000000
,
00010000
01000000
00100000
00100000
,
10000000
01000000
00100000
00001000
,
00010000
00000100
00001000
00001000
,
00000010
00000100
00000001
00001000
,
00000010
00001000
00000100
00000000
00000010
00000000
00000000
00000000
,
00000001
00000000
00000100
00000000
,
00000010
00001000
00000100
00000000
00010000
00000000
00000000
00000000
,
00000100
00000010
00000001
00001000
,
00000020
00000000
00000000
00000000
00000000
00000000
00001030
00000100
,
00001000
00000010
00000100
00000001
,
00002000
00000000
00000000
00000000
00000000
00000000
00003001
00000100
,
00000001
00000010
00000100
00010000
,
00002000
00000000
00000000
00000000
00000000
00000000
01003000
00010000
,
01000000
00100000
10000000
01000000
,
00200000
00000000
00000000
00000000
00000000
00000000
00310000
10000000
,
00010000
00000000
00000000
00000000
01000000
00100000
01000000
00100000
,
10000000
00000000
10000000
00000000
01000000
00100000
00010000
00000000
,
00100000
00000000
00001000
00000000
00010000
00000100
00001000
00000000
,
00000010
00000100
00000001
00000010
,
00000100
00000000
00010000
00000000
00001000
00010000
00001000
00000000
,
00100000
00000000
00010000
00000000
01000000
00100000
10000000
00000000
,
00100000
00000000
01000000
00000000
00010000
00100000
00001000
00000000
,
00010000
00001000
00010000
00000000
00000100
00000000
00001000
00000000
,
00000010
00001000
00000010
00000000
00000100
00000001
00000100
00000000
,
00000001
00001000
00000001
00000000
00000010
00000001
00000010
00000000
,
00000001
00001000
00000001
00000000
00000100
00000001
00000100
00000000
,
00000010
00000100
00000010
00000000
00001000
00000010
00001000
00000000
,
00000100
00010000
00001000
00100000
,
00010000
01000000
00010000
00000000
10000000
01000000
10000000
00000000
,
00010000
01000000
00010000
00000000
10000000
01000000
10000000
00000000
,
01010000
00100000
00010000
00100000
,
01000000
10000000
00010000
01000000
,
00001000
00010000
00000100
00001000
,
00000010
00000100
00000001
00001000
;

//---------------dance-double - ----------------
#NOTES:
     dance-double:
     :
     Hard:
     9:
     0.548201,0.561738,0.312620,0.242280,0.132863,491.000000,451.000000,40.000000,31.000000,0.000000,0.000000,0.548201,0.561738,0.312620,0.242280,0.132863,491.000000,451.000000,40.000000,31.000000,0.000000,0.000000:
// measure 0
00000000
00000000
00000000
00000000
,  // measure 1
00000000
00000000
00000000
00000000
,  // measure 2
00000000
00000000
00000000
00000000
,  // measure 3
00000000
00000000
00000000
00000000
,  // measure 4
00000110
00000000
00011000
00000000
00000000
00001000
00100000
00010000
,  // measure 5
00000000
00000000
00000000
00000000
01000000
00100000
10000000
00010000
,  // measure 6
00000000
00000000
00000000
00000000
00000000
00000100
00000010
00000001
,  // measure 7
00000000
00000000
00011000
00110000
,  // measure 8
00010000
00100000
01000000
10000000
00010000
00100000
01000000
10000000
,  // measure 9
00020000
00230000
00302000
00023000
,  // measure 10
00030100
00001000
00000010
00000100
00000001
00000010
00000100
00001000
,  // measure 11
00000010
00000010
00000100
00000100
00000002
00000000
00002003
00000000
,  // measure 12
00003100
00000010
00000001
00001000
00000100
00010000
00001000
01000000
,  // measure 13
00010000
10000000
00100000
01000000
00010000
00000000
10010000
00000000
,  // measure 14
10000000
00100000
10000000
00010000
00100000
00001000
00010000
00000100
,  // measure 15
00001000
00000010
00000001
00000010
00001000
00000000
00000100
00000000
,  // measure 16
00000010
00000000
00000110
00000000
00000000
00000100
00000100
00010000
,  // measure 17
00001000
00000000
00011000
00000000
00000000
00100000
00100000
00010000
,  // measure 18
10000000
00000000
10010000
00000000
00000000
00100000
00100000
10000000
,  // measure 19
01000000
00000000
11000000
00000000
00000000
01000000
01000000
00100000
,  // measure 20
00010000
00000000
00110000
00000000
00000000
00100000
00100000
00001000
,  // measure 21
00010000
00000000
00011000
00000000
00000000
00000100
00000100
00001000
,  // measure 22
00000010
00000000
00001010
00000000
00000010
00001000
00000100
00001100
,  // measure 23
00000000
00000001
00000010
00000100
00001000
00000001
00001001
00000000
,  // measure 24
00000100
00001000
00000010
00000001
00000010
00000100
00000001
00000000
,  // measure 25
00001000
00000100
00010000
00001000
00100000
00010000
10000000
00000000
,  // measure 26
01000000
00000000
00100000
00000000
00001000
00000000
01000000
00000000
00010000
00000000
00100000
00000000
00001000
00000000
00000000
00020000
,  // measure 27
00001000
00000000
00030000
00000200
00001000
00000000
00000300
00000020
00000100
00000000
00000030
00000002
00000010
00000000
00000003
00000000
,  // measure 28
00000110
00000000
00000100
00001000
00000010
00010000
00001000
00000000
,  // measure 29
00100000
00010000
10000000
00010000
01000000
00100000
10000000
00000000
,  // measure 30
01000000
00000000
00100000
00000000
00001000
00000000
00010000
00000000
00000100
00000000
00001000
00000000
00000010
00000000
00000000
00000002
,  // measure 31
00000010
00000000
00000003
00002000
00000010
00000000
00003000
00002000
00000100
00000000
00003000
00020000
00001000
00000000
00030000
02000000
,  // measure 32
00010000
03000000
10000000
00100000
00010000
00100000
10000000
00000000
,  // measure 33
00010000
00100000
01000000
10000000
00010000
00100000
00001000
00000000
,  // measure 34
00010000
00000000
00000100
00000000
00001000
00000000
00000010
00000000
00000100
00000000
00000001
00000000
00000010
00000000
00000000
00000002
,  // measure 35
00000010
00000000
00000003
00002000
00000010
00000000
00003000
00000002
00000010
00000000
00000003
00002000
00000100
00000000
00003000
00000000
,  // measure 36
00001100
00000100
00000010
00000100
00000001
00000100
00000010
00000100
,  // measure 37
00001000
00000010
00000100
00000010
00000001
00000010
00000100
00000010
,  // measure 38
00010000
00000000
00001000
00000000
01000000
00010000
00100000
01000000
,  // measure 39
10000000
00100000
10000000
00000000
01010000
00000000
01010000
00000000
,  // measure 40
00010000
00000000
10000000
00000000
00010000
00100000
00001000
00010000
,  // measure 41
00000100
00000010
00000100
00000000
00000110
00000000
00000110
00000000
,  // measure 42
00000010
00000001
00000100
00000000
00002010
00000000
00003100
00000000
,  // measure 43
00020100
00031000
00012000
00103000
,  // measure 44
00110000
01000000
00100000
10000000
00010000
00000000
00100000
00000000
,  // measure 45
01100000
01000000
10000000
00010000
01000000
00000000
10010000
00000000
,  // measure 46
01100000
00000000
10000000
00000000
00010000
00100000
00001000
01000000
,  // measure 47
00010000
00000000
00100000
00000000
00001000
00010000
00000100
00000010
,  // measure 48
00000001
00000000
00000100
00000000
00000010
00001000
00000100
00010000
,  // measure 49
00001000
00000000
01000000
00000000
00100000
10000000
01000000
00100000
,  // measure 50
00110000
00000000
01000000
01010000
01000000
00000000
10010000
00000000
,  // measure 51
00110000
00000000
00001000
00011000
00010000
00000000
00011000
00000000
,  // measure 52
00001100
00000000
00000100
00001100
00000100
00000000
00000110
00000000
,  // measure 53
00000011
00000000
00000001
00000000
00001000
00000100
00001000
00000010
,  // measure 54
00001010
00000000
00000010
00000000
00001000
00000000
00000100
00000000
00010000
00000000
00001000
00010000
00001000
00000000
01000000
00000000
,  // measure 55
00010000
00000000
00100000
00000000
00010000
00000000
10000000
00000000
00100000
00000000
10000000
01000000
10000000
00000000
00100000
00000000
,  // measure 56
01000000
00000000
00010000
00000000
00100000
00000000
00001000
00000000
00010000
00000000
00000100
00000000
00001000
00000000
00000000
00000020
,  // measure 57
00000100
00000000
00000030
00000002
00001000
00000000
00000003
00000200
00010000
00000000
00000300
00002000
01000000
00000000
00003000
00000000
,  // measure 58
01010000
00000000
01000000
00000000
00100000
00000000
10000000
00000000
00010000
00000000
00100000
00010000
10000000
00000000
00010000
00000000
,  // measure 59
01000000
00000000
00010000
00000000
00100000
00000000
00001000
00000000
00010000
00000000
00000100
00010000
00001000
00000000
00010000
00000000
,  // measure 60
00000100
00000000
00001000
00000000
00000010
00000000
00000100
00000000
00000001
00000000
00000010
00000000
00000100
00000000
00000000
00020000
,  // measure 61
00001000
00000000
00030000
00200000
00010000
00000000
00300000
02000000
00010000
00000000
03000000
10000000
01000000
00000000
10000000
01000000
,  // measure 62
10000000
00000000
01000000
00000000
10000000
00000000
00100000
00000000
10000000
00000000
00010000
00100000
00001000
00000000
00010000
00000000
,  // measure 63
00000100
00000000
00001000
00000000
00000010
00000000
00000100
00000000
00000001
00000000
00000010
00000001
00001000
00000000
00000001
00000000
,  // measure 64
00000100
00000000
00000010
00000000
00001000
00000000
00000100
00000000
00010000
00000000
00001000
00000000
00100000
00000000
00000000
00020000
,  // measure 65
01000000
00000000
00030000
00200000
10000000
00000000
00300000
01000000
10000000
01000000
10000000
00000000
00010000
00000000
01000000
00010000
,  // measure 66
01000000
00100000
00010000
00100000
01000000
00100000
10000000
01000000
,  // measure 67
00100000
00000000
01000000
00000000
00010000
00000000
01000000
00000000
00100000
00000000
00001000
00000000
00010000
00001000
00010000
00000000
,  // measure 68
00011000
00010000
00000100
00001000
00000010
00000001
00000010
00001000
,  // measure 69
00000100
00010000
00001000
01000000
10000000
00000000
01000000
00000000
,  // measure 70
00010000
00100000
01000000
00100000
00010000
00100000
01000000
10000000
,  // measure 71
01000000
00100000
00001000
00010000
00001000
00000100
00000010
00001000
;
