#TITLE:Faded;
#SUBTITLE:(Odesza Remix);
#ARTIST:Zhu;
#TITLETRANSLIT:;
#SUBTITLETRANSLIT:;
#ARTISTTRANSLIT:;
#GENRE:The Nightday;
#CREDIT:;
#BANNER:Faded (Odesza Remix)-bn.png;
#BACKGROUND:Faded (Odesza Remix)-bg.png;
#LYRICSPATH:;
#CDTITLE:;
#MUSIC:Faded (Odesza Remix).mp3;
#OFFSET:-0.031000;
#SAMPLESTART:115.212219;
#SAMPLELENGTH:15.359993;
#LASTBEATHINT:276.000000;
#SELECTABLE:YES;
#DISPLAYBPM:125.000000;
#BPMS:0.000000=124.999992
,237.000000=499.999969
,238.000000=124.999992
;
#STOPS:237.000000=0.089996,
237.250000=0.090004,
237.500000=0.090004,
237.750000=0.090004
;
#BGCHANGES:;
#KEYSOUNDS:;
#ATTACKS:;

//---------------dance-single - ----------------
#NOTES:
     dance-single:
     :
     Hard:
     8:
     0.534051,0.491699,0.310927,0.376005,0.050616,422.000000,43.000000,52.000000,0.000000,0.000000,0.000000,0.534051,0.491699,0.310927,0.376005,0.050616,422.000000,43.000000,52.000000,0.000000,0.000000,0.000000:
0000
0000
0000
0000
,
0000
0000
0000
0000
,
0000
0000
0000
0000
,
0000
0000
0000
0000
,
0100
0000
1001
0000
0010
0100
0100
0100
,
0001
0000
1001
0000
0010
0100
1000
0001
,
1000
0000
0110
0000
0001
0100
0100
0100
,
0010
0000
1001
0000
1000
0010
0001
0010
,
1000
0000
1010
0000
1001
0100
0010
1000
,
0100
0010
0100
0000
0110
0010
0001
0000
,
1000
0010
0100
0001
1001
0001
0001
0010
,
0100
1000
0010
0000
1000
0100
0010
0100
,
1000
0010
0100
0000
1001
0100
0100
0010
,
1000
0100
0010
0000
0110
0000
0100
1000
,
0001
0100
0010
1000
1001
0010
0010
0100
,
0001
0010
0100
0010
1001
0001
0100
0010
,
0100
0000
1010
0000
1001
0100
0100
0010
,
1000
0100
0010
0000
0110
0000
0001
1000
,
0010
0100
0001
1000
1001
1000
1000
0100
,
0010
0001
0100
0000
0101
0000
1000
0010
,
0100
0000
0101
0000
1010
1000
1000
0001
,
0100
0010
0100
0000
0101
0000
0001
0010
,
0100
1000
0010
0000
1001
0010
0010
1000
,
0001
0100
0000
0010
0000
1000
0000
0001
,
0100
0000
0000
0000
0100
0000
0001
0000
0010
0000
0000
0001
1000
0000
0000
0000
,
0000
0000
0100
0000
0000
0000
0100
0000
1000
0000
0000
0010
0100
0000
0010
0000
,
0100
0000
0000
0000
0000
0000
0010
0000
1000
0000
0000
0001
0100
0000
0000
0000
,
0000
0000
0010
1000
0010
0000
0010
0000
0100
0001
0100
0000
0100
0000
0100
0001
,
1000
0000
0000
0000
0000
0000
1000
0000
0100
0000
0000
0010
0001
0000
0000
0000
,
0000
0000
0001
0000
0000
0000
1000
0000
0010
0000
0000
0100
0001
0000
0010
0000
,
0100
0000
0000
0000
0000
0000
1000
0000
0010
0000
0000
0100
0001
0000
0000
0000
,
0000
0000
0010
0001
0010
0000
0010
0000
0100
1000
0100
0000
0100
0000
0100
1000
,
0001
0100
1000
0100
0201
0001
0001
0301
,
1000
0100
0001
0100
1200
0000
1000
1300
,
0010
0001
0010
1000
1020
1000
1000
1030
,
0010
0001
0010
1000
0021
0000
0001
0031
,
1000
0100
0010
0100
2001
0001
0001
3100
,
0010
0001
0100
0010
0210
0000
0001
0301
,
1000
0010
0100
0001
1002
0010
0010
0103
,
0010
0001
0100
0010
0120
0000
1000
1030
,
0001
0100
0010
1000
2001
0100
0100
3010
,
0001
0100
0010
1000
2001
0000
0001
3001
,
1000
0100
0010
0001
0201
0010
0010
0301
,
1000
0010
0100
0001
1002
0000
0010
0013
,
0100
1000
0010
0100
0120
1000
1030
0001
,
0100
0010
0100
0001
1002
0000
0010
0013
,
0100
1000
0010
0100
0120
1000
1030
0100
,
0010
0001
0100
0010
2001
0000
0100
3100
,
0000
0010
0000
0000
0000
0000
0001
1000
,
0000
1000
0000
0000
0000
0000
0000
0000
,
0010
0100
0010
0100
0010
0000
1000
0010
,
0000
0100
0000
0002
0000
2000
0000
3003
,
0020
0000
2030
0000
3200
0000
1300
0010
,
0200
0000
0000
0000
0302
0000
0000
0003
0012
0000
1000
0000
1000
0000
0103
0000
,
0010
0000
0100
0000
0010
0000
2000
0000
0200
3000
0010
0000
0010
0000
1300
0000
,
0010
0100
0001
0000
1000
0001
0100
0000
,
1002
0000
0023
0000
0230
0000
1300
0001
,
0200
0000
0000
0000
0320
0000
0000
0030
0120
0000
1000
0000
1000
0000
0130
0000
,
0010
0000
0100
0000
0001
0000
0020
0000
0200
0030
0010
0000
0010
0000
1300
0000
,
0020
0000
0100
0000
0130
0010
0100
0010
0100
0000
1000
0000
0001
0000
0000
0000
,
0200
0000
0302
0000
0023
0000
0031
0100
,
0020
0000
0000
0000
2030
0000
0000
3000
2100
0000
0001
0000
0001
0000
3010
0000
,
0100
0000
0010
0000
0100
0000
0002
0000
0020
0003
0100
0000
0100
0000
0031
0000
,
0100
0010
1000
0000
0001
1000
0010
0000
,
2001
0000
3200
0000
0320
0000
0031
1000
,
0020
0000
0000
0000
0230
0000
0000
0300
0210
0000
0001
0000
0001
0000
0310
0000
,
0100
0000
0010
0000
1000
0000
0200
0000
0020
0300
0100
0000
0100
0000
0031
0000
,
0200
0010
0310
1000
0001
1000
0001
0000
,
0100
0000
0000
0000
;

//---------------dance-single - ----------------
#NOTES:
     dance-single:
     :
     Medium:
     5:
     0.359477,0.393359,0.050616,0.383236,0.000000,288.000000,7.000000,53.000000,0.000000,0.000000,0.000000,0.359477,0.393359,0.050616,0.383236,0.000000,288.000000,7.000000,53.000000,0.000000,0.000000,0.000000:
0000
0000
0000
0000
,
0000
0000
0000
0000
,
0000
0000
0000
0000
,
0000
0000
0000
0000
,
1000
0000
0010
0000
1000
0100
0010
0000
,
0100
0000
1000
0000
0010
0000
1000
0001
,
0100
0000
0010
0000
0100
0001
1000
0000
,
0010
0000
0100
0000
0010
0000
1000
0001
,
0010
0000
0100
0000
0010
0001
0010
0000
,
0100
0000
1000
0000
0010
0000
1000
0100
,
0010
0000
0100
0000
1000
0001
0100
0000
,
0010
0000
0100
0000
0001
0000
0010
0001
,
0010
0000
0100
0000
1000
0001
1000
0000
,
0010
0000
0100
0000
0010
0000
1000
0100
,
1000
0000
0010
0000
0100
0001
1000
0000
,
0010
0000
0100
0000
0001
0000
0010
0001
,
0010
0000
0100
0000
1000
0100
0010
0000
,
0100
0000
1000
0000
0010
0000
0100
0010
,
0100
0000
0001
0000
0010
0001
1000
0000
,
0010
0000
0100
0000
0001
0000
0010
0001
,
0010
0000
0100
0000
1000
0100
0010
0000
,
0001
0000
1000
0000
0010
0000
0100
0010
,
0100
0000
0001
0000
1000
0010
1000
0000
,
0000
0000
0000
0000
,
0100
0000
0000
0100
0010
0000
1001
0000
,
0000
0010
0000
0010
0100
0000
1001
0000
,
0010
0000
0000
0010
0100
0000
1001
0000
,
0000
1000
0010
0010
0001
0010
0010
0000
,
0001
0000
0000
0001
0100
0000
1001
0000
,
0000
1000
0000
1000
0010
0000
1001
0000
,
0100
0000
0000
0100
0010
0000
1001
0000
,
0000
1000
0010
0010
0001
0100
0100
0000
,
1001
0000
0100
0000
0010
1000
0100
0000
,
0010
0000
0100
0000
0010
0000
0001
1000
,
0001
0000
0100
0000
0010
1000
0100
0000
,
0010
0000
0100
0000
1000
0000
0001
1000
,
0001
0000
0100
0000
0010
0100
0001
0000
,
1000
0000
0010
0000
0100
0000
0010
1000
,
0010
0000
0100
0000
0001
1000
0100
0000
,
0010
0000
0100
0000
1000
0000
0010
1000
,
0010
0000
0100
0000
0001
0010
0100
0000
,
0010
0000
0001
0000
1000
0000
0100
1000
,
0010
0000
0100
0000
0010
1000
0001
0000
,
0010
0000
0100
0000
0010
0000
0100
1000
,
0010
0000
1000
0000
0100
1000
0001
0000
,
0100
0000
0010
0000
1000
0000
0001
1000
,
0001
0000
0010
0000
0100
0010
0001
0000
,
0100
0000
0010
0000
1000
0000
0001
1000
,
0020
0000
0000
0000
,
0200
0000
0030
0000
,
0002
0000
0300
0000
,
2000
0000
0000
3003
,
0002
0023
0230
2300
,
3020
0000
0230
0000
0301
0100
0001
0000
,
2000
3020
0230
0302
,
0023
0000
0230
0000
1300
0100
1000
0000
,
0020
2030
3002
0203
,
0320
0000
2030
0000
3001
1000
0001
0000
,
0020
0032
2003
3200
,
0320
0000
0031
0000
0100
0010
0100
0000
,
0020
2030
3002
0023
,
0032
0000
2003
0000
3100
1000
0001
0000
,
0200
0320
2030
3200
,
0320
0000
0230
0000
1300
0100
0020
0000
,
0032
2003
3020
0230
,
0320
0000
2030
0000
3001
0100
0002
0000
,
0023
0032
0203
0320
,
2030
0000
3200
0000
0310
0100
1000
0000
,
0001
0000
0000
0000
;

//---------------dance-single - ----------------
#NOTES:
     dance-single:
     :
     Easy:
     3:
     0.238619,0.344189,0.000000,0.274773,0.000000,193.000000,0.000000,38.000000,0.000000,0.000000,0.000000,0.238619,0.344189,0.000000,0.274773,0.000000,193.000000,0.000000,38.000000,0.000000,0.000000,0.000000:
// measure 0
0000
0000
0000
0000
,  // measure 1
0000
0000
0000
0000
,  // measure 2
0000
0000
0000
0000
,  // measure 3
0000
0000
0000
0000
,  // measure 4
0010
0100
0100
0100
,  // measure 5
0000
0001
0000
0010
,  // measure 6
0000
0100
1000
0001
,  // measure 7
0000
0100
0000
0010
,  // measure 8
0000
1000
0010
0100
,  // measure 9
0000
0010
0000
1000
,  // measure 10
0000
0001
0100
0010
,  // measure 11
0000
0100
0000
0001
,  // measure 12
0000
0010
0100
1000
,  // measure 13
0000
0100
0000
0010
,  // measure 14
0000
0001
1000
0010
,  // measure 15
0000
0100
0000
0100
,  // measure 16
0000
0010
1000
0001
,  // measure 17
0000
0010
0000
0100
,  // measure 18
0000
1000
0001
1000
,  // measure 19
0000
0100
0000
0010
,  // measure 20
0000
0001
0010
0100
,  // measure 21
0000
0010
0000
0001
,  // measure 22
0000
1000
0001
0100
,  // measure 23
0000
0000
0000
0000
,  // measure 24
0020
0030
1000
0100
,  // measure 25
0020
0030
0001
0100
,  // measure 26
0020
0030
1000
0100
,  // measure 27
0001
0100
1000
0000
,  // measure 28
0002
0003
0100
0010
,  // measure 29
2000
3000
0010
0100
,  // measure 30
0002
0003
0010
0100
,  // measure 31
1000
0100
0001
0000
,  // measure 32
0010
0010
0001
1000
,  // measure 33
0100
0100
0010
0000
,  // measure 34
0100
1000
0010
0010
,  // measure 35
0100
0001
1000
0000
,  // measure 36
0010
0010
1000
0100
,  // measure 37
0010
0010
0100
0000
,  // measure 38
0010
0001
1000
1000
,  // measure 39
0010
0100
0001
0000
,  // measure 40
1000
1000
0100
0010
,  // measure 41
0100
0100
1000
0000
,  // measure 42
0001
1000
0010
0010
,  // measure 43
0100
0001
1000
0000
,  // measure 44
0100
0010
0100
0010
,  // measure 45
0001
0100
0001
0000
,  // measure 46
0010
0100
1000
0010
,  // measure 47
1000
0010
0100
0000
,  // measure 48
0020
0000
0000
0000
,  // measure 49
0200
0000
0000
0330
,  // measure 50
0002
0000
0000
0000
,  // measure 51
2000
0000
0000
3003
,  // measure 52
0002
2003
3002
2003
,  // measure 53
3002
2003
3100
0100
,  // measure 54
0002
2003
3002
2003
,  // measure 55
3002
2003
3100
0100
,  // measure 56
2000
3002
2003
3002
,  // measure 57
2003
3002
0103
0100
,  // measure 58
2000
3002
2003
3002
,  // measure 59
2003
3002
0103
0100
,  // measure 60
0010
1000
0100
0020
,  // measure 61
0000
0030
0001
1000
,  // measure 62
0100
0010
0100
2000
,  // measure 63
0000
3010
0100
0001
,  // measure 64
0010
0001
1000
0020
,  // measure 65
0000
0130
0001
1000
,  // measure 66
0010
1000
0100
0020
,  // measure 67
0000
0031
1000
0100
,  // measure 68
0010
0000
0000
0000
;

//---------------dance-single - ----------------
#NOTES:
     dance-single:
     :
     Beginner:
     1:
     0.142551,0.147510,0.000000,0.057847,0.000000,130.000000,0.000000,8.000000,0.000000,0.000000,0.000000,0.142551,0.147510,0.000000,0.057847,0.000000,130.000000,0.000000,8.000000,0.000000,0.000000,0.000000:
// measure 0
0000
0000
0000
0000
,  // measure 1
0000
0000
0000
0000
,  // measure 2
0000
0000
0000
0000
,  // measure 3
0000
0000
0000
0000
,  // measure 4
0010
0000
1000
0000
,  // measure 5
0100
0000
0010
0000
,  // measure 6
0001
0000
1000
0000
,  // measure 7
0100
0000
0010
0000
,  // measure 8
0100
0000
1000
0000
,  // measure 9
0010
0000
0100
0000
,  // measure 10
0010
0000
1000
0000
,  // measure 11
0001
0000
0010
0000
,  // measure 12
0100
0000
1000
0000
,  // measure 13
0001
0000
0100
0000
,  // measure 14
0010
0000
1000
0000
,  // measure 15
0100
0000
0010
0000
,  // measure 16
0001
0000
1000
0000
,  // measure 17
0010
0000
1000
0000
,  // measure 18
0010
0000
0100
0000
,  // measure 19
0001
0000
0010
0000
,  // measure 20
0001
0000
1000
0000
,  // measure 21
0100
0000
0010
0000
,  // measure 22
0100
0000
1000
0000
,  // measure 23
0010
0000
0000
0000
,  // measure 24
1000
0000
0100
0100
,  // measure 25
0100
0000
0010
0010
,  // measure 26
0010
0000
0001
0001
,  // measure 27
0001
0000
1000
0000
,  // measure 28
0100
0000
0010
0010
,  // measure 29
0010
0000
0100
0100
,  // measure 30
0100
0000
1000
1000
,  // measure 31
1000
0000
0001
0000
,  // measure 32
0100
0000
0010
0000
,  // measure 33
1000
0000
0100
0000
,  // measure 34
0010
0000
0001
0000
,  // measure 35
0100
0000
0010
0000
,  // measure 36
1000
0000
1000
0000
,  // measure 37
0100
0000
0010
0000
,  // measure 38
0001
0000
0001
0000
,  // measure 39
0010
0000
0100
0000
,  // measure 40
1000
0000
1000
0000
,  // measure 41
0010
0000
0100
0000
,  // measure 42
0001
0000
0001
0000
,  // measure 43
0010
0000
0100
0000
,  // measure 44
1000
0000
1000
0000
,  // measure 45
0001
0000
1000
0000
,  // measure 46
0100
0000
0001
0000
,  // measure 47
0010
0000
1000
0000
,  // measure 48
0010
0000
0000
0000
,  // measure 49
0100
0000
0000
0000
,  // measure 50
0001
0000
0000
0000
,  // measure 51
1000
0000
0000
0000
,  // measure 52
2000
3000
0000
1000
,  // measure 53
1000
0000
0010
0000
,  // measure 54
0200
0300
0000
0100
,  // measure 55
0100
0000
0001
0000
,  // measure 56
0020
0030
0000
0010
,  // measure 57
0010
0000
0001
0000
,  // measure 58
0200
0300
0000
0100
,  // measure 59
0100
0000
0010
0000
,  // measure 60
2000
3000
0000
1000
,  // measure 61
1000
0000
0010
0000
,  // measure 62
0200
0300
0000
0100
,  // measure 63
0100
0000
0001
0000
,  // measure 64
0020
0030
0000
0010
,  // measure 65
0010
0000
0100
0000
,  // measure 66
2000
3000
0000
0001
,  // measure 67
0001
0000
0100
0000
,  // measure 68
0010
0000
0000
0000
;
