#VERSION:0.83;
#TITLE:Eyes;
#SUBTITLE:;
#ARTIST:Kaskade featuring Mindy Gledhill;
#TITLETRANSLIT:;
#SUBTITLETRANSLIT:;
#ARTISTTRANSLIT:;
#GENRE:Automatic;
#ORIGIN:;
#CREDIT:;
#BANNER:Eyes-bn.png;
#BACKGROUND:Eyes-bg.png;
#PREVIEWVID:;
#JACKET:Eyes-jacket.png;
#CDIMAGE:;
#DISCIMAGE:;
#LYRICSPATH:;
#CDTITLE:;
#MUSIC:Eyes.mp3;
#OFFSET:-0.065000;
#SAMPLESTART:78.834137;
#SAMPLELENGTH:15.000000;
#SELECTABLE:YES;
#DISPLAYBPM:128.000000;
#BPMS:0.000=128.000,
158.000=512.000,
166.000=128.000;
#STOPS:158.000=0.352,
159.000=0.352,
160.000=0.352,
161.000=0.352,
162.000=0.352,
163.000=0.352,
164.000=0.352,
165.000=0.352;
#DELAYS:;
#WARPS:;
#TIMESIGNATURES:0.000=4=4;
#TICKCOUNTS:0.000=2;
#COMBOS:0.000=1;
#SPEEDS:0.000=1.000=0.000=0;
#SCROLLS:0.000=1.000;
#FAKES:;
#LABELS:0.000=Song Start;
#LASTSECONDHINT:139.811630;
#BGCHANGES:;
#KEYSOUNDS:;
#ATTACKS:
;

//---------------dance-single - ----------------
#NOTEDATA:;
#CHARTNAME:;
#STEPSTYPE:dance-single;
#DESCRIPTION:;
#CHARTSTYLE:;
#DIFFICULTY:Challenge;
#METER:8;
#RADARVALUES:0.453704,0.629515,0.007089,0.113426,0.347367,448.000000,447.000000,1.000000,16.000000,0.000000,0.000000,0.000000,0.000000,0.000000,0.453704,0.629515,0.007089,0.113426,0.347367,448.000000,447.000000,1.000000,16.000000,0.000000,0.000000,0.000000,0.000000,0.000000;
#CREDIT:;
#NOTES:
0000
0000
0000
0000
,
0000
0000
0000
0000
,
0000
0000
0000
0000
,
0000
0000
0000
0000
,
0000
0000
0000
0000
,
0000
0000
0000
0000
,
0000
0000
0000
0000
,
0000
0000
0000
0000
,
0010
0000
0000
1000
0010
0000
1000
0000
0001
0000
0000
0100
0001
0000
0000
0000
,
0010
0000
0000
0001
0010
0000
0100
0000
1000
0000
0000
0100
1000
0000
0000
0000
,
0010
0000
0000
0100
0001
0000
1000
0000
0100
0000
0000
0010
0100
0000
0000
0000
,
0010
0000
0000
0001
1000
0000
0010
0000
0100
0000
0000
0001
1000
0000
0000
0000
,
0100
0000
0000
1000
0001
0000
1000
0000
0100
0000
0000
1000
0001
0000
0000
0000
,
0010
0000
0000
0001
1000
0000
0001
0000
0100
0000
0000
0010
1000
0000
0000
0000
,
0100
0000
0000
0010
0001
0000
1000
0000
0010
0000
0000
1000
0100
0000
0000
0000
,
0010
0000
0000
0001
0100
0000
0001
0000
1000
0000
0000
0010
1000
0000
0100
0000
,
0010
0000
0000
0001
1000
0000
0010
0000
0100
0000
0000
0010
1000
0000
0100
0000
,
0010
0000
0000
0001
1000
0000
0010
0000
0100
0000
0000
0001
1000
0000
0100
0000
,
0010
0000
0000
0001
0100
0000
0010
0000
0100
0000
0000
0001
1000
0000
0010
0000
,
0100
0000
0000
0010
1000
0000
0010
0000
1000
0000
0000
0100
0010
0000
0001
0000
,
1000
0000
0000
0100
0001
0000
0100
0000
0010
0000
0000
0001
1000
0000
0000
0000
,
0001
0000
0000
0100
1000
0000
0100
0000
0010
0000
0000
1000
0001
0000
0000
0000
,
1000
0000
0000
0010
0100
0000
0001
0000
0010
0000
0000
0100
1000
0000
0000
0000
,
0001
0000
0000
0010
0100
0000
1000
0000
0001
0000
0100
0000
0001
0000
0100
0000
,
0020
0000
1000
0001
,
0200
0030
1000
0010
,
0001
0010
1000
0001
,
0020
0000
0330
0000
0001
0100
1000
0100
,
0020
0000
1000
0001
,
0200
0030
2000
3000
,
0020
0000
0000
0030
,
0002
0000
0303
0000
1000
0010
0100
0001
,
2000
0000
3200
0001
,
2000
3000
0320
0001
,
0100
1000
0100
0001
,
0200
0000
0330
0000
0010
0001
1000
0100
,
0020
0000
0001
1000
,
0200
0000
0300
0000
0000
0002
0000
0000
,
0000
0000
0000
0000
,
0000
0000
0033
0000
,
0000
0000
0000
0000
,
0000
0000
0000
0000
1000
0100
0001
0100
,
1001
0000
0100
0000
0000
0001
1000
0000
0000
0000
0100
0000
0000
0010
0001
0000
,
0000
0000
0100
0000
0000
0010
1000
0000
0000
0000
0100
0000
0001
0000
1000
0000
,
0100
0000
0010
0000
0000
0001
1000
0000
0000
0000
0010
0000
0000
1000
0100
0000
,
0000
0000
0010
0000
0000
0001
1000
0000
0000
0000
0010
0000
0100
0000
0001
0000
,
1000
0000
0100
0000
0000
0010
0001
0000
0000
0000
0100
0000
0000
0010
1000
0000
,
0000
0000
0100
0000
0000
0001
0010
0000
0000
0000
0100
0000
1000
0000
0001
0000
,
0100
0000
0010
0000
0000
1000
0001
0000
0000
0000
1000
0000
0000
0001
1000
0000
,
0000
0000
0010
0000
0000
0100
0010
0000
1000
0000
0001
0000
0100
0000
0010
0000
,
1000
0000
0001
0010
0000
0000
0001
0000
0100
0000
0010
0100
0000
0000
0010
0000
,
1000
0000
0001
1000
0000
0000
0100
0000
0010
0000
0001
0000
0100
0000
0000
0000
,
0000
0010
0100
0000
0000
0001
1000
0000
0000
0010
0100
0000
0000
0001
1000
0000
,
0000
0100
0010
0000
0000
0001
1000
0000
0000
0010
0100
0000
0000
1000
0001
0000
,
0000
1000
0100
0000
0000
1000
0010
0000
0000
0001
0010
0000
0000
0001
0100
0000
,
0000
1000
0100
0000
0000
1000
0010
0000
0000
0001
0010
0000
0100
0000
1000
0000
,
0000
0000
0010
1000
0010
1000
0010
0000
0000
0000
0100
0001
0100
0001
0100
0000
,
0000
0000
0001
1000
0001
1000
0001
0000
0010
0000
0100
0000
1000
0000
0001
0000
,
0100
0000
0010
0000
1000
0000
0001
1000
0100
0000
0010
0000
0001
0000
1000
0010
,
0100
0000
0010
0000
1000
0000
0001
0100
0010
0000
0100
0000
0001
0000
0001
0000
,
0010
0000
0001
0000
1000
0000
0010
0100
0001
0000
1000
0000
0100
0000
0010
0001
,
1000
0000
0010
0000
0100
0000
0001
1000
0100
0000
1000
0000
0010
0000
0100
0001
,
1000
0000
0100
0000
0010
0000
0001
1000
0010
0000
1000
0000
0100
0000
1000
0001
,
0100
0000
0010
0000
0100
0000
0001
1000
0010
0000
1000
0000
0100
0000
0100
0000
,
0010
0000
0001
0000
0100
0000
0001
0010
0100
0000
0010
0000
0001
0000
1000
0100
,
0010
0000
0100
0000
1000
0000
0010
0100
0001
0000
1000
0000
0100
0000
0010
0000
,
0100
0000
1000
0100
1000
0000
0010
0000
1000
0000
0100
0001
0100
0000
0010
0000
,
1000
0000
0001
0010
0001
0000
0100
0000
0010
0000
1000
0100
1000
0000
0001
0000
,
0010
0000
1000
0010
1000
0000
0010
0100
0010
0000
0100
0000
0001
0000
0100
0001
,
0100
0000
0001
0000
1000
0000
0010
1000
0010
0000
1000
0000
0100
0000
0010
0100
,
0010
0000
0001
0000
1000
0000
0001
1000
0001
0000
1000
0000
0010
0000
1000
0001
,
1000
0000
0001
0000
0010
0000
0001
1000
0001
0000
1000
0000
0100
0000
0100
0000
,
0010
0000
0001
0100
0001
0100
0001
0000
1000
0000
0010
1000
0010
1000
0010
0000
,
0100
0000
0010
0100
0010
0100
0010
0000
1000
0000
0001
0000
0100
0000
0010
0000
,
1000
0000
0000
0000
;

//---------------dance-single - ----------------
#NOTEDATA:;
#CHARTNAME:;
#STEPSTYPE:dance-single;
#DESCRIPTION:;
#CHARTSTYLE:;
#DIFFICULTY:Hard;
#METER:6;
#RADARVALUES:0.310909,0.393447,0.255209,0.177228,0.000000,307.000000,271.000000,36.000000,25.000000,0.000000,0.000000,0.000000,0.000000,0.000000,0.310909,0.393447,0.255209,0.177228,0.000000,307.000000,271.000000,36.000000,25.000000,0.000000,0.000000,0.000000,0.000000,0.000000;
#CREDIT:;
#NOTES:
0000
0000
0000
0000
,
0000
0000
0000
0000
,
0000
0000
0000
0000
,
0000
0000
0000
0000
,
0000
0000
0000
0000
,
0000
0000
0000
0000
,
0000
0000
0000
0000
,
0000
0000
0000
0000
,
2001
0100
0001
3100
,
0010
0001
0100
0010
,
1002
0100
1000
0103
,
0010
1000
0100
0010
,
0210
0010
1000
0310
,
0001
1000
0010
0100
,
0120
1000
0100
1030
,
0002
0000
1000
0000
0013
0000
0100
1000
,
0002
0100
0010
1003
,
0010
0100
0001
1000
,
2001
0010
0100
3001
,
0010
0100
0010
0001
,
1002
0010
1000
0103
,
0010
0100
0001
1000
,
2001
0010
0001
3100
,
0010
0000
0100
0000
0001
1000
0001
1000
,
0020
0000
1000
0001
,
0200
0030
1000
0010
,
0001
0010
1000
0001
,
0020
0000
0330
0000
0001
0100
0001
0100
,
0020
0000
1000
0001
,
0200
0030
2000
3000
,
0020
0000
0000
0030
,
0002
0000
0303
0000
1000
0010
0100
0001
,
2000
0000
3200
0001
,
2000
3000
0320
0001
,
0100
1000
0100
0001
,
0200
0000
0330
0000
0010
0001
1000
0100
,
0020
0000
0001
1000
,
0200
0000
0300
0000
0000
0002
0000
0000
,
0000
0000
0000
0000
,
0000
0000
0033
0000
,
0000
0000
0000
0000
,
0000
0000
0000
0000
1000
0100
1000
0100
,
1001
0000
0100
0001
0000
0100
0000
0010
,
0000
0100
0000
0001
0000
1000
0010
1000
,
0100
0010
0000
0001
0000
1000
0000
0100
,
0000
0010
0000
0001
0000
1000
0000
0010
,
0100
0010
0000
1000
0000
0001
0000
0100
,
0000
0010
0000
0100
0000
0001
1000
0010
,
0100
0001
0000
0010
0000
0100
0000
0010
,
0000
0100
0000
1000
0010
0100
0010
0100
,
0001
1000
0000
0100
0000
0010
0000
0100
,
0000
0010
0000
0100
0000
0010
0001
1000
,
0100
0010
0000
0100
0000
1000
0000
0100
,
0000
0001
0000
0100
0000
1000
0000
0010
,
0100
0010
0000
1000
0000
0010
0000
0001
,
0000
0010
0000
1000
0000
0010
0100
0001
,
1000
0010
0000
0100
0000
0010
0000
1000
,
0000
0001
0000
0100
0010
1000
0001
0100
,
0010
1010
0001
1100
,
0010
0101
1000
0011
,
0001
1001
0100
0110
,
1000
1001
0100
0110
,
0010
1010
0001
1010
,
0100
0011
1000
0011
,
0100
0110
1000
1001
,
0010
0000
0110
0000
0001
0100
1000
0100
,
0001
0100
0000
1010
0000
0100
0000
1001
,
0000
0100
0000
0011
0000
1000
0010
0100
,
0001
1000
0000
0011
0000
0100
0000
1010
,
0000
0100
0000
0011
0000
0100
0000
0110
,
0000
1000
0000
1001
0000
0010
0000
0110
,
0000
0001
0000
1001
0000
0010
1000
0100
,
0010
0100
0000
1100
0000
0010
0000
0011
,
0000
0100
0000
1100
0100
1000
0001
0100
,
0001
0000
0000
0000
;

//---------------dance-single - ----------------
#NOTEDATA:;
#CHARTNAME:;
#STEPSTYPE:dance-single;
#DESCRIPTION:;
#CHARTSTYLE:;
#DIFFICULTY:Medium;
#METER:5;
#RADARVALUES:0.287616,0.393447,0.141783,0.113426,0.000000,284.000000,264.000000,20.000000,16.000000,0.000000,0.000000,0.000000,0.000000,0.000000,0.287616,0.393447,0.141783,0.113426,0.000000,284.000000,264.000000,20.000000,16.000000,0.000000,0.000000,0.000000,0.000000,0.000000;
#CREDIT:;
#NOTES:
0000
0000
0000
0000
,
0000
0000
0000
0000
,
0000
0000
0000
0000
,
0000
0000
0000
0000
,
0000
0000
0000
0000
,
0000
0000
0000
0000
,
0000
0000
0000
0000
,
0000
0000
0000
0000
,
1001
0100
0001
0100
,
0010
0001
0100
0010
,
1001
0100
1000
0100
,
0010
1000
0100
0010
,
1001
0010
1000
0010
,
0001
1000
0010
0100
,
1001
1000
0100
1000
,
0001
1000
0010
0100
,
0001
0100
0010
1000
,
0010
0100
0001
1000
,
0001
0010
0100
1000
,
0010
0100
0010
1000
,
0001
0010
1000
0100
,
0010
0100
1000
0001
,
0100
0010
1000
0100
,
0010
0000
0100
0000
1000
0001
1000
0001
,
0020
0000
0001
0001
,
0200
0030
1000
1000
,
0010
0010
1000
1000
,
2000
0000
3300
0000
0001
0100
0001
0100
,
0020
0000
1000
1000
,
0200
0030
2000
3000
,
0020
0000
0000
0030
,
0002
0000
0303
0000
1000
0001
1000
0001
,
2000
0000
3100
0010
,
0020
0030
0001
0002
,
1003
2000
3010
0020
,
0130
0000
0000
0000
0010
0100
0010
0100
,
0020
0000
1000
1000
,
0200
0000
0300
0000
0000
0200
0000
0000
,
0000
0000
0000
0000
,
0000
0000
0330
0000
,
0000
0000
0000
0000
,
0000
0000
0000
0000
1000
0100
1000
0100
,
1000
0001
0100
0010
,
0100
0000
0001
0000
1000
0000
1000
0100
,
0010
0001
1000
0100
,
0010
0000
0001
0000
1000
0000
0010
0100
,
0010
1000
0001
0100
,
0010
0000
0100
0000
0001
0000
0010
0100
,
0001
0010
0100
0010
,
0100
0000
1000
0000
0010
0100
0010
0100
,
0001
0100
0010
0100
,
0010
0000
0100
0000
0010
1000
0001
0100
,
0010
0100
1000
0100
,
0001
0000
0100
0000
1000
0000
0010
0100
,
0010
1000
0010
0001
,
0010
0000
1000
0000
0010
0100
0001
1000
,
0010
0100
0010
1000
,
0001
0000
0100
0000
0010
1000
0001
0100
,
0010
1000
0001
1001
,
0010
0001
0100
1001
,
0001
1000
0100
0110
,
1000
0001
0010
0110
,
0010
0001
0100
1001
,
0100
0010
1000
1001
,
0100
0010
1000
1001
,
0010
0000
0100
0000
0001
0100
1000
0100
,
0001
0010
0100
1001
,
0100
0000
0101
0000
1000
0010
0100
0001
,
1000
0010
0100
0110
,
0001
1001
0100
1001
,
1000
0001
0010
0110
,
0001
0000
1001
0000
0010
1000
0100
0010
,
0100
1100
0010
0011
,
0100
0000
0001
0000
0100
0000
1000
0100
,
1000
0000
0000
0000
;

//---------------dance-single - ----------------
#NOTEDATA:;
#CHARTNAME:;
#STEPSTYPE:dance-single;
#DESCRIPTION:;
#CHARTSTYLE:;
#DIFFICULTY:Easy;
#METER:3;
#RADARVALUES:0.146846,0.209838,0.014178,0.396991,0.000000,145.000000,143.000000,2.000000,56.000000,0.000000,0.000000,0.000000,0.000000,0.000000,0.146846,0.209838,0.014178,0.396991,0.000000,145.000000,143.000000,2.000000,56.000000,0.000000,0.000000,0.000000,0.000000,0.000000;
#CREDIT:;
#NOTES:
0000
0000
0000
0000
,
0000
0000
0000
0000
,
0000
0000
0000
0000
,
0000
0000
0000
0000
,
0000
0000
0000
0000
,
0000
0000
0000
0000
,
0000
0000
0000
0000
,
0000
0000
0000
0000
,
0020
0000
0030
0000
,
1000
0000
0002
0003
,
0000
0200
0000
0300
,
0010
0000
1000
0100
,
0020
0000
0030
0001
,
0000
1000
0010
0000
,
0100
0001
2000
0000
,
3100
0000
0010
0100
,
0020
0000
0000
0000
,
0030
0000
0002
0000
,
0003
2000
0000
0000
,
3010
0000
0000
0000
,
0200
0000
0000
0300
,
0002
0003
2000
3000
,
0200
0000
0000
0000
,
0300
0000
0010
0010
,
0220
0330
0001
1000
,
0200
0000
0320
0000
,
0032
0000
2003
0000
,
3200
0000
0310
0100
,
0020
0000
0032
0000
,
2003
0000
3100
0010
,
0200
0000
0000
0000
,
1300
0000
0010
0010
,
0220
0330
0001
1000
,
0200
0000
1300
0100
,
0001
0010
1000
0100
,
0002
0000
0100
0103
,
0020
0000
1030
0001
,
0200
0000
0000
0020
,
0000
0000
0000
0000
,
0000
0000
0330
0000
,
0000
0000
0000
0000
,
0000
0000
1000
0001
,
0200
0000
0010
0000
,
0001
0000
0310
1000
,
0020
0000
0100
0000
,
1000
0000
0230
0000
,
0302
0000
0010
0000
,
1000
0000
0013
0001
,
2000
0000
0100
0000
,
0001
0000
3100
1000
,
0002
0000
0100
0000
,
1000
0000
0103
0010
,
2000
0000
0010
0000
,
0001
0000
3020
0000
,
0230
0000
0001
0000
,
1000
0000
0001
0010
,
0302
0000
0010
0000
,
1000
0000
0103
0010
,
2000
0000
3100
0000
,
0020
0000
0031
1000
,
0002
0000
0103
0000
,
0020
0000
1030
0000
,
0200
0000
0310
0000
,
0002
0000
1003
0010
,
0200
0000
0310
0000
,
2000
0000
3001
1000
,
0200
0000
0310
0000
,
0002
0000
0013
0100
,
2000
0000
3010
0000
,
0200
0000
0301
0000
,
2000
0000
3010
0000
,
0002
0000
0013
0100
,
2000
0000
3100
0000
,
0002
0000
1003
0001
,
0100
0000
0000
0000
;

//---------------dance-single - ----------------
#NOTEDATA:;
#CHARTNAME:;
#STEPSTYPE:dance-single;
#DESCRIPTION:;
#CHARTSTYLE:;
#DIFFICULTY:Beginner;
#METER:1;
#RADARVALUES:0.117477,0.157379,0.007089,0.085070,0.000000,116.000000,115.000000,1.000000,12.000000,0.000000,0.000000,0.000000,0.000000,0.000000,0.117477,0.157379,0.007089,0.085070,0.000000,116.000000,115.000000,1.000000,12.000000,0.000000,0.000000,0.000000,0.000000,0.000000;
#CREDIT:;
#NOTES:
// measure 0
0000
0000
0000
0000
,  // measure 1
0000
0000
0000
0000
,  // measure 2
0000
0000
0000
0000
,  // measure 3
0000
0000
0000
0000
,  // measure 4
0000
0000
0000
0000
,  // measure 5
0000
0000
0000
0000
,  // measure 6
0000
0000
0000
0000
,  // measure 7
0000
0000
0000
0000
,  // measure 8
0020
0000
0000
0030
,  // measure 9
0000
0000
1000
0000
,  // measure 10
0200
0000
0000
0300
,  // measure 11
0000
0000
0000
0010
,  // measure 12
0020
0000
0000
0030
,  // measure 13
0000
0001
0001
0000
,  // measure 14
0100
0100
0200
0000
,  // measure 15
0300
0000
0000
0010
,  // measure 16
0020
0000
0000
0030
,  // measure 17
0000
0000
1000
0000
,  // measure 18
0200
0000
0000
0300
,  // measure 19
0000
0000
0000
0000
,  // measure 20
0010
0000
0000
0000
,  // measure 21
0001
0000
1000
0000
,  // measure 22
0200
0000
0000
0000
,  // measure 23
0300
0000
0010
0010
,  // measure 24
0010
0000
0001
0000
,  // measure 25
0100
0000
0001
0000
,  // measure 26
1000
0000
0010
0000
,  // measure 27
1000
0000
0100
0100
,  // measure 28
0100
0000
0010
0000
,  // measure 29
0001
0000
1000
0000
,  // measure 30
0200
0000
0000
0000
,  // measure 31
0300
0000
0010
0000
,  // measure 32
0001
0000
1000
0000
,  // measure 33
0100
0000
0010
0000
,  // measure 34
0100
0000
1000
0000
,  // measure 35
0001
0000
0100
0100
,  // measure 36
0200
0000
0300
0000
,  // measure 37
0020
0000
0030
0000
,  // measure 38
2000
0000
3000
0000
,  // measure 39
0002
0000
0003
0000
,  // measure 40
0000
0000
0000
0000
,  // measure 41
0000
0000
0000
0000
,  // measure 42
1001
0000
0010
0000
,  // measure 43
0001
0000
0010
0000
,  // measure 44
1000
0000
0010
0000
,  // measure 45
0001
0000
0010
0000
,  // measure 46
0100
0000
1000
0000
,  // measure 47
0100
0000
0010
0010
,  // measure 48
0010
0000
0001
0000
,  // measure 49
0100
0000
0001
0001
,  // measure 50
0001
0000
1000
0000
,  // measure 51
0001
0000
1000
0000
,  // measure 52
0100
0000
0010
0000
,  // measure 53
0100
0000
0010
0000
,  // measure 54
0001
0000
1000
0000
,  // measure 55
0100
0000
0010
0000
,  // measure 56
0001
0000
1000
0000
,  // measure 57
0010
0000
0100
0000
,  // measure 58
0001
0000
1000
0000
,  // measure 59
0001
0000
0100
0000
,  // measure 60
1000
0000
0001
0000
,  // measure 61
1000
0000
0100
0000
,  // measure 62
0010
0000
0100
0000
,  // measure 63
0010
0000
0001
0000
,  // measure 64
0100
0000
0010
0000
,  // measure 65
1000
0000
0010
0000
,  // measure 66
0100
0000
0001
0000
,  // measure 67
1000
0000
0001
0000
,  // measure 68
0010
0000
0100
0000
,  // measure 69
0010
0000
0100
0000
,  // measure 70
1000
0000
0100
0000
,  // measure 71
0001
0000
0010
0000
,  // measure 72
1000
0000
0001
0000
,  // measure 73
0100
0000
0010
0000
,  // measure 74
0100
0000
0000
0000
;
