#TITLE:Everytime We Touch;
#SUBTITLE:;
#ARTIST:Cascada;
#TITLETRANSLIT:;
#SUBTITLETRANSLIT:;
#ARTISTTRANSLIT:;
#GENRE:Everytime We Touch;
#CREDIT:;
#BANNER:Everytime We Touch-bn.png;
#BACKGROUND:Black.png;
#LYRICSPATH:;
#CDTITLE:;
#MUSIC:Everytime We Touch.mp3;
#OFFSET:0.507000;
#SAMPLESTART:28.851137;
#SAMPLELENGTH:13.521124;
#LASTBEATHINT:251.000000;
#SELECTABLE:YES;
#DISPLAYBPM:71.000000:142.000000;
#BPMS:0.000000=71.000000
,36.000000=142.000000
,164.000000=135.000000
,164.500000=130.000000
,165.000000=120.000000
,165.500000=110.000000
,166.000000=102.750000
,166.500000=71.000000
,183.000000=142.000000
;
#STOPS:
;
#BGCHANGES:0.583=Everytime We Touch-video.avi=1.000=1=0=0=StretchNoLoop==CrossFade==,
99999=-nosongbg-=1.000=0=0=0 // don't automatically add -songbackground-
;
#KEYSOUNDS:;
#ATTACKS:;

//---------------dance-single - ----------------
#NOTES:
     dance-single:
     :
     Hard:
     7:
     0.456268,0.476381,0.146579,0.285443,0.142722,414.000000,395.000000,19.000000,37.000000,0.000000,0.000000,0.456268,0.476381,0.146579,0.285443,0.142722,414.000000,395.000000,19.000000,37.000000,0.000000,0.000000:
0000
0000
0000
0000
0000
0000
0000
0100
,
0002
0000
0000
0010
0000
0000
1003
0000
0020
0000
0000
0001
0000
0000
0130
0000
,
2000
0000
0000
0100
0000
0000
0010
0000
0002
0000
0000
0000
3003
0000
0010
0000
,
2000
0000
0000
0001
0000
0000
0010
0000
3200
0000
0000
0001
0000
0000
0320
0000
,
0000
0002
0000
0000
0033
0000
0000
1000
,
0020
0000
0000
1000
0000
0000
0130
0000
0002
0000
0000
0100
0000
0000
1003
0000
,
0020
0000
0000
0001
0000
0000
1000
0000
0200
0000
0000
0000
0330
0000
0001
0000
,
0200
0000
0000
1000
0000
0000
0310
0000
0002
0000
0000
0010
0000
0000
2000
0000
,
0003
0000
0002
0000
0000
0000
0000
0000
3003
0000
0000
0001
0100
0010
1000
0001
,
1001
0000
0001
1000
0100
0010
0100
1000
,
0001
0000
0010
0000
0001
1000
0010
0100
,
0001
0000
1000
0020
0000
1030
0001
1000
,
0100
0010
0001
0000
1000
0001
0100
0001
,
1000
0010
1010
0000
0001
0010
0011
0000
,
1000
0001
0100
0010
0100
0001
1001
0000
,
0001
0010
0100
1000
0000
0001
0000
1000
,
0010
0000
0100
0001
1000
0100
0010
0001
,
0100
0000
0000
0010
1000
0000
0001
0000
0010
0000
0100
0000
0010
0000
0002
0000
,
0000
0013
0100
1000
0001
0100
0010
1000
,
0001
0000
0000
1000
0010
0000
0100
0000
0000
0000
0100
0000
0010
0000
1000
0000
,
0001
0000
1001
0000
0010
1000
0001
0010
,
0100
1000
1100
0000
0001
0100
0101
0000
,
0001
1000
0100
0010
0100
0010
1001
0000
,
0001
1000
0010
0100
0000
0001
0000
1000
,
0001
0000
0000
0010
0010
0001
0001
1000
,
2000
0000
0001
0000
3200
0000
0010
0320
,
0000
0001
0000
0031
1000
0001
1000
0001
,
0200
0000
0301
0020
0000
0031
1000
0200
,
0000
0000
0000
0000
0300
0000
1000
0001
1000
0000
0001
0000
0100
0000
0010
0000
,
0100
0101
0010
1010
,
1000
0000
0001
0000
1000
0000
0100
0000
0010
0000
0000
0000
0011
0000
0000
0001
,
1000
0000
0000
1000
0010
0000
0000
0010
0100
0000
0000
0100
0001
0000
1000
0000
,
0200
0000
0000
0000
0300
0000
0010
0001
0010
0000
0100
0000
0100
0000
1000
0000
,
1000
0000
0101
0000
0100
0000
1010
0010
,
0100
0010
1000
0001
0010
0100
0010
0001
,
0100
0000
0001
1000
0100
1000
0001
0100
,
0002
0000
0000
0000
1003
0000
0001
0100
0001
0000
1000
0000
0100
0000
0010
0000
,
0100
0011
0100
1001
,
0001
0000
0100
0000
1000
0000
0100
0000
0010
0000
0000
0000
1010
0000
0000
1000
,
0010
0000
0000
0100
0001
0000
0000
1000
0100
0000
0000
0010
0001
0000
1000
0000
,
0001
0000
0001
0000
0001
0000
0000
0000
1000
0001
1000
0001
1000
0001
1000
0001
,
2000
0000
0000
0000
0000
0000
0000
0000
3000
0000
0001
0000
0200
0000
0000
1000
,
0000
0000
0310
0000
2000
0000
0000
0001
0000
0000
3010
0000
0200
0000
0000
0001
,
0000
0000
0310
0000
0002
0000
0000
0000
1000
0000
0100
0000
0203
0000
0000
1000
,
0000
0000
0010
0000
0320
0000
0000
0001
0000
0000
1000
0000
0000
0000
0200
0000
,
0000
0000
0000
0330
0000
0001
1001
0001
,
1000
0001
0100
1000
0100
0001
1000
0001
,
1000
0001
0100
1000
0100
0001
0010
0001
,
0100
0001
0010
0100
1000
0100
0010
0001
,
0100
0010
0100
0001
0100
0001
1000
0010
,
0100
0001
1000
0010
0001
0010
1000
0010
,
0100
0001
1000
0010
0001
0010
1000
0100
,
0010
0100
1000
0100
0010
0100
2000
0000
,
0000
3001
0001
0010
0100
1000
1100
0000
,
1000
0001
0100
0000
0010
1000
0001
0010
,
0000
0010
0001
1000
0001
0100
0010
0000
,
1000
0100
0000
0010
0100
1000
0001
0000
,
1000
0000
0010
0100
0010
0000
1000
0000
0001
0000
1000
0000
0100
0000
0010
0000
,
0002
0000
1003
0010
0200
0000
0310
1000
,
0001
0000
1000
0000
0010
0000
0000
0000
0100
0000
0000
0001
1000
0000
0000
0000
,
0001
0010
0100
1000
0100
0010
0001
1000
,
0001
1000
0001
1000
0001
1000
1001
0000
;

//---------------dance-single - ----------------
#NOTES:
     dance-single:
     :
     Medium:
     6:
     0.328425,0.333467,0.123435,0.108006,0.057860,298.000000,282.000000,16.000000,14.000000,0.000000,0.000000,0.328425,0.333467,0.123435,0.108006,0.057860,298.000000,282.000000,16.000000,14.000000,0.000000,0.000000:
0000
0000
0000
0000
0000
0000
0000
1000
,
0001
0000
0000
0100
0000
0000
0010
0000
1000
0000
0000
0001
0000
0000
0010
0000
,
0100
0000
0000
0010
0000
0000
0001
0000
0100
0000
0000
0000
0001
0000
0001
0000
,
1000
0000
0000
0001
0000
0000
1000
0000
0100
0000
0000
1000
0000
0000
0010
0000
,
0000
0200
0000
0000
0300
0000
0000
0001
,
1000
0000
0000
0001
0000
0000
0010
0000
0100
0000
0000
0010
0000
0000
0001
0000
,
0100
0000
0000
0010
0000
0000
1000
0000
0100
0000
0000
0000
0010
0000
0001
0000
,
0100
0000
0000
0001
0000
0000
1000
0000
0100
0000
0000
1000
0000
0000
0010
0000
,
0000
0020
0000
0000
0030
0000
0100
0100
,
0201
0000
0010
0000
0301
0000
1000
0001
,
0000
1000
0000
0000
1010
0000
0110
0000
,
1010
0000
1000
0001
0000
1000
0100
2000
,
0000
0000
3000
0000
0001
1000
0100
0000
,
1000
0110
0001
0110
,
0010
0001
0100
0001
0010
0000
0100
0000
,
1000
0000
0001
1000
0000
0010
0000
0200
,
0000
0000
0300
0000
0001
1000
0100
1000
,
0002
0000
1000
0000
0103
0000
0001
1000
,
0000
0100
0000
0000
0110
0000
1100
0000
,
0110
0000
0010
0001
0000
1000
0010
0200
,
0000
0000
0300
0000
0001
0010
0100
0000
,
0010
1001
0100
1001
,
0100
0010
1000
0001
0010
0000
0100
0000
,
1000
0000
0010
0100
0000
0001
0000
2000
,
0000
0000
3000
0001
0010
0001
0010
0001
,
0010
0000
0010
0000
0100
0000
0100
1000
,
0000
1000
0000
1000
0001
0000
0001
0000
,
0100
0000
0100
0010
0000
0010
1000
0010
,
0000
0000
1000
1000
,
0001
0001
1000
1000
,
0001
0100
0001
0100
0001
0000
0100
0000
,
0010
1000
0100
0010
,
0200
0000
1300
1000
,
1001
0000
0100
0000
0010
0000
0010
1000
,
0000
1000
0000
1000
0001
0000
0001
0000
,
0010
0000
0010
0100
0000
0100
1000
0100
,
0000
0000
1000
1000
,
0001
1001
1000
1001
,
0001
0100
0001
0100
0010
0000
1000
0000
,
0001
0010
0100
1000
,
0100
0100
0100
0000
0010
0000
0100
0000
,
2002
0000
0000
0000
0000
0000
3003
0000
0000
0000
1000
0000
0100
0000
0000
1000
,
0000
0000
0001
0000
0100
0000
0000
0010
0000
0000
1000
0000
0100
0000
0000
0010
,
0000
0000
0001
0000
0100
0000
0000
0000
0010
0000
1000
0000
0001
0000
0000
0010
,
0000
0000
0100
0000
1000
0000
0000
0001
0000
0000
0010
0000
0000
0000
0200
0000
,
0000
0000
0300
0000
0000
1000
0001
0000
,
0100
0000
0001
1000
0100
0000
1000
0010
,
0001
0000
0001
0010
1000
0000
0010
0000
,
0100
0000
0001
0100
0001
0000
1000
0010
,
0100
0000
0010
1000
0100
0000
1000
0000
,
0001
0000
0010
0100
0010
0000
0001
0100
,
1000
0000
1000
0100
0001
0000
0001
0100
,
2000
0000
0000
3000
,
0000
0000
0010
0100
0010
0100
0010
0000
,
1000
0000
0001
0000
0001
0010
0000
0010
,
0000
0010
0100
0000
0100
0000
1000
0000
,
0010
1000
0000
0001
1000
0001
0000
0000
,
0000
0000
0100
0010
0100
0010
0100
0000
,
0001
0000
1000
0000
0001
0000
0010
0100
,
1000
0100
0010
0000
0001
0000
1000
0000
,
0001
0100
0000
0010
0000
0200
0000
0000
,
0000
0000
0300
1001
;

//---------------dance-single - ----------------
#NOTES:
     dance-single:
     :
     Easy:
     4:
     0.255687,0.238191,0.061717,0.169723,0.000000,232.000000,224.000000,8.000000,22.000000,0.000000,0.000000,0.255687,0.238191,0.061717,0.169723,0.000000,232.000000,224.000000,8.000000,22.000000,0.000000,0.000000:
0000
0000
0000
0000
,
2000
3001
0020
0130
,
0002
0013
0200
1300
,
0002
1003
0020
0100
,
0200
0000
0330
0000
,
0002
0010
0013
0100
,
2000
0100
3100
0010
,
0002
1000
0010
1000
,
2003
0001
0010
3001
,
1001
0010
0001
0001
,
1000
1000
0001
0100
,
0001
1000
0100
1000
,
0002
0000
1003
0001
,
1000
0010
1000
0010
,
0001
0010
1000
1000
,
0001
1000
0001
1000
,
0200
0000
0010
0310
,
0110
0001
0100
0100
,
0010
1000
0001
1000
,
0100
0010
0100
1000
,
0001
0010
0100
1000
,
0001
1000
0001
1000
,
0010
1000
0001
0010
,
0001
1000
0001
1000
,
0002
0000
1000
1003
,
1001
1000
1000
1000
,
0001
0001
1000
1000
,
0001
0001
0010
0010
,
0100
0100
1000
1000
,
0001
1000
0001
1000
,
0001
0100
0010
1000
,
0100
0100
0010
0010
,
0002
0000
1000
1003
,
1001
0001
0010
0010
,
0100
0100
0010
0010
,
0001
0100
0010
0100
,
0001
0001
1000
1000
,
0001
1000
0100
1000
,
0001
0001
1000
1000
,
0001
0010
0100
1000
,
0200
0000
0000
0300
,
2002
0000
3003
0010
,
0010
0001
1000
0001
,
0001
0200
0300
0010
,
1000
0001
1000
0200
,
0000
0300
0000
1001
,
1000
0100
0100
0010
,
0100
0010
0100
0010
,
0001
0100
0001
0010
,
0100
0010
0100
1000
,
0001
0100
0010
0100
,
0001
1000
0001
0010
,
0100
0010
0100
0020
,
0000
0100
0130
1001
,
1000
0001
0001
0100
,
0100
0010
0100
0010
,
0010
1000
1000
0100
,
0100
0010
0100
1000
,
0001
1000
0001
0100
,
1000
0100
0001
0010
,
0100
1000
0001
2000
,
0000
0000
3000
1001
;

//---------------dance-single - ----------------
#NOTES:
     dance-single:
     :
     Beginner:
     1:
     0.163110,0.190553,0.038573,0.000000,0.000000,148.000000,143.000000,5.000000,0.000000,0.000000,0.000000,0.163110,0.190553,0.038573,0.000000,0.000000,148.000000,143.000000,5.000000,0.000000,0.000000,0.000000:
// measure 0
0000
0000
0000
0000
,  // measure 1
1000
0000
0010
0000
,  // measure 2
0001
0000
0100
0000
,  // measure 3
0010
0000
1000
0000
,  // measure 4
0001
0000
0000
0000
,  // measure 5
0010
0010
0010
0000
,  // measure 6
0100
0100
0100
0000
,  // measure 7
1000
1000
1000
0000
,  // measure 8
0001
0000
0000
0000
,  // measure 9
1001
0000
0001
0000
,  // measure 10
0010
0000
0001
0000
,  // measure 11
1000
0000
0100
0000
,  // measure 12
0010
0000
0001
0000
,  // measure 13
0100
0100
0100
0000
,  // measure 14
0010
0010
0010
0000
,  // measure 15
1000
0000
0001
0000
,  // measure 16
1000
0000
0010
0000
,  // measure 17
0100
0000
0001
0000
,  // measure 18
0010
0000
0100
0100
,  // measure 19
0100
0000
1000
0000
,  // measure 20
0001
0000
0100
0100
,  // measure 21
0100
0000
0010
0000
,  // measure 22
1000
1000
1000
0000
,  // measure 23
0001
0000
0010
0000
,  // measure 24
0100
0000
0000
0000
,  // measure 25
1000
1000
1000
1000
,  // measure 26
1000
0000
0000
0000
,  // measure 27
0001
0001
0001
0001
,  // measure 28
0001
0000
0000
0000
,  // measure 29
0100
0100
0100
0100
,  // measure 30
0100
0100
0100
0000
,  // measure 31
0010
0010
0010
0010
,  // measure 32
0010
0000
0000
0000
,  // measure 33
1001
0000
0010
0000
,  // measure 34
0001
0000
0010
0010
,  // measure 35
0010
0010
0010
0000
,  // measure 36
0100
0000
1000
1000
,  // measure 37
1000
1000
1000
0000
,  // measure 38
0001
0001
0001
0000
,  // measure 39
1000
0000
0001
0000
,  // measure 40
0100
0000
0000
0000
,  // measure 41
1001
0000
0000
0001
,  // measure 42
0000
0001
0000
1000
,  // measure 43
0000
0100
0000
1000
,  // measure 44
0000
0010
0000
0100
,  // measure 45
0000
0000
0000
0001
,  // measure 46
0001
0001
0000
1000
,  // measure 47
1000
1000
0000
0001
,  // measure 48
0001
0001
0000
0100
,  // measure 49
0100
0100
0000
0010
,  // measure 50
0010
0010
0000
0100
,  // measure 51
0100
0100
0000
1000
,  // measure 52
0000
0001
0000
1000
,  // measure 53
0000
0000
0000
1001
,  // measure 54
0000
0010
0000
0001
,  // measure 55
0000
0010
0010
0010
,  // measure 56
0000
0100
0000
1000
,  // measure 57
0000
0100
0100
0100
,  // measure 58
0000
0010
0000
0001
,  // measure 59
0001
0001
0000
1000
,  // measure 60
0000
0001
0000
1000
,  // measure 61
0000
0000
0000
1001
;
