#TITLE:Everything Matters;
#SUBTITLE:;
#ARTIST:Aurora;
#TITLETRANSLIT:;
#SUBTITLETRANSLIT:;
#ARTISTTRANSLIT:;
#GENRE:The Gods We Can Touch;
#CREDIT:[Ness];
#BANNER:Everything Matters.png;
#BACKGROUND:Everything Matters-bg.png;
#LYRICSPATH:Everything Matters.lrc;
#CDTITLE:;
#MUSIC:Everything Matters.mp3;
#OFFSET:-0.229000;
#SAMPLESTART:44.706589;
#SAMPLELENGTH:19.953091;
#LASTBEATHINT:281.000000;
#SELECTABLE:YES;
#BPMS:0.000000=160.500000
,207.500000=150.000000
,208.000000=140.100006
,208.500000=130.000000
,209.000000=120.400002
,210.333328=107.000000
;
#STOPS:114.000000=1.495000
;
#BGCHANGES:;
#KEYSOUNDS:;
#ATTACKS:;

//---------------dance-single - ----------------
#NOTES:
     dance-single:
     :
     Hard:
     7:
     0.394028,0.512265,0.130565,0.261131,0.175447,338.000000,322.000000,16.000000,32.000000,0.000000,0.000000,0.394028,0.512265,0.130565,0.261131,0.175447,338.000000,322.000000,16.000000,32.000000,0.000000,0.000000:
0000
0000
0000
0000
,
0000
0000
0000
0000
,
0000
0000
0000
0000
,
0000
0000
0000
0000
,
0000
0000
0000
0000
,
0000
0000
0000
0000
,
0010
0000
0000
0001
0000
1000
0200
0000
,
0300
0000
1000
0001
2000
0000
3000
0000
,
0010
0100
0001
0010
,
0200
0000
0300
0000
1000
0001
0200
0000
,
0300
0000
0010
1000
0100
0000
0100
0001
,
0000
0001
1000
0000
1000
0020
0000
0030
,
0012
1000
0010
0103
,
0001
0100
2010
0001
,
0010
0000
3100
0000
1000
0100
0001
0100
,
1000
1001
0010
0001
,
1001
0000
0000
0001
0100
0000
1000
0100
,
0000
0001
0010
0100
1000
0000
0110
0000
,
0022
0000
0033
0000
0000
1000
0200
0000
,
0300
0000
1000
0001
0020
0000
0030
0000
,
0001
0100
0001
0000
0101
0000
1000
0000
,
2010
0001
0010
3001
,
0000
0000
0000
1000
0100
0000
0010
0000
,
0100
0000
2000
0002
0000
0000
3003
0100
,
0010
0000
0010
1000
0000
1000
0001
0000
,
0001
0010
0100
1000
0001
0000
0001
0100
,
0010
1000
0100
0000
0100
0010
0000
0010
,
0001
0000
0001
1000
0010
0100
0001
0000
,
0001
0010
0100
1000
0100
0000
1000
0001
,
0010
0000
0001
0100
1000
0100
0001
0000
,
1000
0100
0001
0100
1000
0000
0010
1000
,
0100
1000
0010
0000
0110
0000
0001
0100
,
0010
0000
0100
0001
0010
0001
0100
0000
,
1000
0010
0100
0010
1000
0000
0100
1000
,
0001
1000
0100
0000
0100
0001
0000
0001
,
0100
0000
0100
0010
0001
0010
0100
0000
,
0100
1000
0010
1000
0100
0000
0100
0010
,
0001
0100
0001
0000
0001
0010
1000
0010
,
0001
0000
0001
0100
1000
0100
0001
0000
,
0001
1000
0000
1000
0010
0000
0010
0001
,
0010
1000
0010
0000
0100
0001
0000
1000
,
0100
0000
0000
0010
0001
0100
0001
0000
,
0000
1000
0010
0100
0010
0000
0000
1000
,
0100
0001
0100
0000
0010
0001
0000
1000
,
0010
0000
0000
1000
0001
0100
0001
0000
,
0000
0001
0010
0100
1000
0000
0000
0010
,
1000
0100
1000
0000
1000
0001
0000
0001
,
0100
0000
0000
1100
0000
0000
0101
0000
,
0000
1000
0010
0100
0001
0000
0000
0001
,
0010
0100
1000
0000
0001
0010
0000
1000
,
0100
0000
0000
0010
0001
0100
0001
0000
,
0000
0001
0010
0100
2000
0000
0000
0000
,
0000
0000
0000
3000
0000
0000
0000
0010
1000
0200
0000
0000
,
0300
1000
0100
0020
0000
0000
0030
0001
0100
0001
0000
0010
,
0000
1000
0010
0002
0000
0000
0003
1000
0001
0200
0000
0000
,
0300
0010
1000
0100
0000
0000
1100
0000
0000
0021
0000
0000
,
0031
0100
0001
1000
0000
0000
0201
0000
0000
0310
0000
0000
,
1000
0010
0001
0100
0000
0000
0001
1000
0001
0100
0000
1001
,
0000
0010
0100
1000
0000
0000
0100
1000
0001
0200
0000
0000
,
1300
0100
0010
2000
0000
0000
3001
0000
0001
0020
0000
0000
,
0000
0130
0001
0200
0000
0000
0000
0000
0000
2300
0000
0000
,
3000
0001
1000
0100
0000
0000
0000
0000
0000
0000
0000
0001
,
0100
0010
0001
0100
0000
0000
0000
0000
0000
0020
0000
0000
,
0030
1000
0010
0100
0000
0000
0001
0000
0000
1000
0000
0000
,
0000
0100
1000
0010
0000
0000
0100
0000
0000
0002
0000
0000
,
0003
1000
0001
0100
0000
0000
0000
0000
0000
0000
0000
1000
,
0100
0010
1000
0100
0000
0000
0000
0000
0000
0002
0000
0000
,
0000
2003
0000
3010
,
0000
0001
0000
2002
,
0000
0000
0000
3003
;

//---------------dance-single - ----------------
#NOTES:
     dance-single:
     :
     Medium:
     5:
     0.227324,0.256132,0.081603,0.130565,0.000000,195.000000,185.000000,10.000000,16.000000,0.000000,0.000000,0.227324,0.256132,0.081603,0.130565,0.000000,195.000000,185.000000,10.000000,16.000000,0.000000,0.000000:
0000
0000
0000
0000
,
0000
0000
0000
0000
,
0000
0000
0000
0000
,
0000
0000
0000
0000
,
0000
0000
0000
0000
,
0000
0000
0000
0000
,
0100
0000
0000
0001
0000
0000
1000
0000
,
0000
0001
0000
0000
0010
0000
0000
0001
,
0000
0000
1000
0000
0000
0100
0000
0000
,
0010
0000
0000
0100
0000
0000
1000
0000
,
0000
0010
0000
0000
0100
0000
0000
0010
,
0000
0000
1000
0000
0000
0001
0000
0000
,
0010
0001
0010
0001
,
0000
0000
1000
0100
,
1000
0000
0100
0000
0000
0010
0000
0000
,
0001
0000
0000
0100
0000
0000
1000
0000
,
0000
0100
0000
0000
0001
0000
0000
0001
,
0000
0000
1000
0000
0000
1000
0000
0000
,
0010
0000
0000
1000
0000
0000
0100
0000
,
0000
0100
0000
0000
0010
0000
0000
0100
,
0000
0000
0010
0000
0000
0001
0000
0000
,
0100
0001
0100
0001
,
0000
1000
0000
0000
0100
0000
1000
0000
,
0100
2000
0000
0000
,
3001
0000
0000
0010
0000
0000
0110
0000
,
0000
0010
0000
0000
0001
0000
0000
1000
,
0000
0000
1001
0000
0000
0001
0000
0000
,
0100
0000
0000
0010
0000
0000
1010
0000
,
0000
1000
0000
0000
0100
0000
1000
0000
,
0010
1000
0100
1000
,
0001
0100
0001
0010
,
0100
2000
0000
3001
,
0100
0010
1000
0100
,
0000
0010
0000
0000
0002
0000
0000
0000
,
1003
0000
0001
0000
0000
0100
0000
0000
,
1000
0100
0010
0001
,
0100
0001
1000
0010
,
0100
0002
0000
0013
,
0001
0010
0100
1000
,
0000
0001
0000
0000
0100
0000
0010
0000
,
1000
0000
0100
0000
0000
0010
0000
0000
,
0001
0000
0000
0100
0000
0000
1001
0000
,
0000
0100
0000
0000
1000
0000
0000
0010
,
0000
0000
1001
0000
0000
0010
0000
0000
,
0100
0000
0000
0001
0000
0000
1001
0000
,
0000
0010
0000
0000
0001
0000
0000
0100
,
0000
0000
0110
0000
0000
1000
0000
0000
,
0100
0000
0000
0001
0000
0000
1100
0000
,
0000
0100
0000
0000
1000
0000
0000
0010
,
0000
0000
0011
0000
0000
0010
0000
0000
,
1000
0000
0000
0001
0000
0000
1001
0000
,
0000
0000
0200
0000
,
0000
0300
0000
1000
,
0001
0200
0300
0010
,
1000
0100
0001
0010
,
0100
1000
1000
0001
,
0100
0010
1000
0100
,
0010
0100
1000
0001
,
0010
0200
0300
1000
,
0001
0100
0100
0010
,
0001
0200
0300
0001
,
1000
0200
0300
0001
,
0010
2000
3000
0001
,
1000
0010
0010
0001
,
0100
0010
1000
0200
,
0300
0020
0000
0030
,
0100
1000
0001
0200
,
0000
0000
0300
0020
,
0030
2000
3000
0200
,
0000
0000
0000
0300
;

//---------------dance-single - ----------------
#NOTES:
     dance-single:
     :
     Easy:
     3:
     0.148052,0.224409,0.032641,0.000000,0.000000,127.000000,123.000000,4.000000,0.000000,0.000000,0.000000,0.148052,0.224409,0.032641,0.000000,0.000000,127.000000,123.000000,4.000000,0.000000,0.000000,0.000000:
// measure 0
0000
0000
0000
0000
,  // measure 1
0000
0000
0000
0000
,  // measure 2
0000
0000
0000
0000
,  // measure 3
0000
0000
0000
0000
,  // measure 4
0000
0000
0000
0000
,  // measure 5
0000
0000
0000
0000
,  // measure 6
0010
0000
0000
1000
,  // measure 7
0000
0000
0100
0000
,  // measure 8
0000
0010
0000
0000
,  // measure 9
0001
0000
0000
1000
,  // measure 10
0000
0000
0010
0000
,  // measure 11
0000
0100
0000
0000
,  // measure 12
0001
0010
0001
0100
,  // measure 13
0000
0000
0001
1000
,  // measure 14
0100
1000
0000
0010
,  // measure 15
0100
0000
0010
1000
,  // measure 16
0000
0000
0100
0000
,  // measure 17
0000
0010
0000
0000
,  // measure 18
0001
0000
1000
0010
,  // measure 19
0000
1000
0100
0000
,  // measure 20
0010
0001
0000
0100
,  // measure 21
0001
1000
0001
1000
,  // measure 22
0000
0000
0001
0010
,  // measure 23
0100
1000
0000
0000
,  // measure 24
0010
0000
0000
1000
,  // measure 25
0000
0000
0100
0000
,  // measure 26
0000
0010
0000
0000
,  // measure 27
0001
0000
0000
1000
,  // measure 28
0000
0000
0100
0000
,  // measure 29
1001
0000
0010
1000
,  // measure 30
0000
0100
0010
0100
,  // measure 31
0010
0100
0000
0000
,  // measure 32
0010
0000
0001
0100
,  // measure 33
0000
0001
0010
0000
,  // measure 34
0100
1000
0000
0100
,  // measure 35
0010
0000
0001
0100
,  // measure 36
0000
0010
1000
0100
,  // measure 37
1000
0100
0000
0010
,  // measure 38
0001
0000
1000
0010
,  // measure 39
0000
0100
0001
0000
,  // measure 40
1000
0100
0000
0000
,  // measure 41
0010
0000
0000
1001
,  // measure 42
0000
0000
0100
0000
,  // measure 43
0000
0001
0000
0000
,  // measure 44
0010
0000
0000
1001
,  // measure 45
0000
0000
0100
0000
,  // measure 46
0000
1000
0000
0000
,  // measure 47
0010
0000
0000
1001
,  // measure 48
0000
0000
0010
0000
,  // measure 49
0000
0001
0000
0000
,  // measure 50
0100
0000
0000
1000
,  // measure 51
0000
0000
0010
0000
,  // measure 52
0000
0000
0000
0100
,  // measure 53
0000
0100
0000
0001
,  // measure 54
0010
1000
0000
0010
,  // measure 55
0000
0010
0000
1000
,  // measure 56
0100
0001
0000
1000
,  // measure 57
0000
0001
0000
1000
,  // measure 58
0100
1000
0000
0001
,  // measure 59
0000
1000
0000
0001
,  // measure 60
0100
0001
0000
0010
,  // measure 61
0000
0000
0000
0100
,  // measure 62
0000
0100
0000
1000
,  // measure 63
0000
0000
0000
0001
,  // measure 64
0000
0100
0000
0010
,  // measure 65
0000
0000
0000
0000
,  // measure 66
0000
0000
0000
1000
,  // measure 67
0000
0000
0000
0001
,  // measure 68
0000
0001
0000
0100
;

//---------------dance-single - ----------------
#NOTES:
     dance-single:
     :
     Beginner:
     1:
     0.089764,0.140256,0.000000,0.000000,0.000000,77.000000,77.000000,0.000000,0.000000,0.000000,0.000000,0.089764,0.140256,0.000000,0.000000,0.000000,77.000000,77.000000,0.000000,0.000000,0.000000,0.000000:
// measure 0
0000
0000
0000
0000
,  // measure 1
0000
0000
0000
0000
,  // measure 2
0000
0000
0000
0000
,  // measure 3
0000
0000
0000
0000
,  // measure 4
0000
0000
0000
0000
,  // measure 5
0000
0000
0000
0000
,  // measure 6
0100
0000
0000
0100
,  // measure 7
0000
0000
0100
0000
,  // measure 8
0000
0100
0000
0000
,  // measure 9
0001
0000
0000
0001
,  // measure 10
0000
0000
1000
0000
,  // measure 11
0000
1000
0000
0000
,  // measure 12
0010
0000
0000
0100
,  // measure 13
0000
0000
0010
0000
,  // measure 14
0000
0100
0000
0000
,  // measure 15
0001
0000
0000
0001
,  // measure 16
0000
0000
1000
0000
,  // measure 17
0000
0001
0000
0000
,  // measure 18
1000
0000
0000
0100
,  // measure 19
0000
0000
0010
0000
,  // measure 20
0000
0100
0000
0000
,  // measure 21
1000
0000
0000
0001
,  // measure 22
0000
0000
0100
0000
,  // measure 23
0000
0010
0000
0000
,  // measure 24
1000
0000
0000
0000
,  // measure 25
0000
0000
0001
0000
,  // measure 26
0000
0010
0000
0000
,  // measure 27
0010
0000
0000
0000
,  // measure 28
0000
0000
0100
0000
,  // measure 29
1000
0000
0000
1000
,  // measure 30
0000
0000
0001
0000
,  // measure 31
0000
0001
0000
0000
,  // measure 32
0010
0000
0000
0100
,  // measure 33
0000
0000
0010
0000
,  // measure 34
0000
0100
0000
0000
,  // measure 35
0001
0000
0000
0001
,  // measure 36
0000
0000
1000
0000
,  // measure 37
0000
1000
0000
0000
,  // measure 38
0010
0000
0000
0100
,  // measure 39
0000
0000
0010
0000
,  // measure 40
0000
0100
0000
0000
,  // measure 41
0001
0000
0000
0000
,  // measure 42
0000
0000
0010
0000
,  // measure 43
0000
0010
0000
0000
,  // measure 44
0100
0000
0000
0000
,  // measure 45
0000
0000
1000
0000
,  // measure 46
0000
1000
0000
0000
,  // measure 47
0010
0000
0000
0000
,  // measure 48
0000
0000
0100
0000
,  // measure 49
0000
0100
0000
0000
,  // measure 50
0001
0000
0000
0000
,  // measure 51
0000
0000
1000
0000
,  // measure 52
0000
0000
0000
0100
,  // measure 53
0000
0000
0000
0010
,  // measure 54
0000
0000
0000
0001
,  // measure 55
0000
0000
0000
1000
,  // measure 56
0000
0000
0000
0010
,  // measure 57
0000
0100
0000
0001
,  // measure 58
0000
1000
0000
0100
,  // measure 59
0000
0010
0000
0100
,  // measure 60
0000
0010
0000
0100
,  // measure 61
0000
0000
0000
0000
,  // measure 62
0000
0000
0000
1000
,  // measure 63
0000
0000
0000
0001
,  // measure 64
0000
0100
0000
0001
,  // measure 65
0000
0000
0000
0000
,  // measure 66
0000
0000
0000
0010
,  // measure 67
0000
0000
0000
0100
,  // measure 68
0000
0100
0000
0100
;
