#VERSION:0.83;
#TITLE:Empty Streets;
#SUBTITLE:(Aurora Remix);
#ARTIST:Late Night Alumni;
#TITLETRANSLIT:;
#SUBTITLETRANSLIT:;
#ARTISTTRANSLIT:;
#GENRE:Empty Streets;
#ORIGIN:;
#CREDIT:;
#BANNER:Empty Streets-bn.png;
#BACKGROUND:Empty Streets-bg.png;
#PREVIEWVID:;
#JACKET:Empty Streets-jacket.png;
#CDIMAGE:;
#DISCIMAGE:Empty Streets-bn.jpg;
#LYRICSPATH:;
#CDTITLE:;
#MUSIC:Empty Streets (Aurora Remix).mp3;
#OFFSET:-5.558000;
#SAMPLESTART:58.380001;
#SAMPLELENGTH:12.000000;
#SELECTABLE:YES;
#BPMS:0.000=129.950;
#STOPS:;
#DELAYS:;
#WARPS:;
#TIMESIGNATURES:0.000=4=4;
#TICKCOUNTS:0.000=4;
#COMBOS:0.000=1;
#SPEEDS:0.000=1.000=0.000=0;
#SCROLLS:0.000=1.000;
#FAKES:;
#LABELS:0.000=Song Start;
#BGCHANGES:;
#KEYSOUNDS:;
#ATTACKS:
;

//---------------dance-single - [Ness]----------------
#NOTEDATA:;
#CHARTNAME:[Ness];
#STEPSTYPE:dance-single;
#DESCRIPTION:[Ness];
#CHARTSTYLE:;
#DIFFICULTY:Hard;
#METER:6;
#RADARVALUES:0.328537,0.379415,0.286351,0.205815,0.000000,257.000000,225.000000,32.000000,23.000000,0.000000,0.000000,0.000000,0.000000,0.000000,0.328537,0.379415,0.286351,0.205815,0.000000,257.000000,225.000000,32.000000,23.000000,0.000000,0.000000,0.000000,0.000000,0.000000;
#CREDIT:[Ness];
#NOTES:
0000
0000
0000
0000
,
1000
1010
1000
0001
,
0100
0101
0100
0010
,
1000
1001
1000
0001
,
0010
0011
0010
0100
,
1001
0000
0000
0000
0001
1000
0100
0000
,
2000
0010
0001
3010
,
0100
0000
1000
0001
,
0100
0000
0100
0010
1000
0000
0100
0000
,
1001
0000
0000
0000
1000
0001
0010
0000
,
0002
0010
1000
0013
,
0100
0000
0001
1000
,
0100
0000
0100
0010
0001
0000
0100
0000
,
1001
0000
0000
0000
1000
0010
0100
0000
,
0020
0100
0001
0130
,
0010
0000
0001
1000
,
0100
0000
0100
0010
0001
0000
1000
0000
,
1001
0000
0000
0000
0001
1000
0100
0000
,
0020
0001
0100
0031
,
1000
0000
0100
0001
,
1000
0000
0001
0010
0100
0000
1000
0000
,
1001
1000
0010
1000
,
0100
0000
0100
0000
0010
0001
0100
0000
,
0001
0100
0010
1000
,
0100
0000
1000
0000
0010
1000
0001
0000
,
0100
0100
0010
1000
,
0100
0000
0010
0000
0100
1000
0001
0000
,
0100
0001
0010
0010
,
0100
0000
1000
0000
0001
1000
0010
0100
,
2001
0000
0001
0000
3010
0000
2000
0010
,
0010
3100
0101
1100
,
1002
0000
1000
0000
0013
0000
0002
0010
,
0010
0103
0101
1100
,
2001
0000
0001
0000
3100
0000
1000
0001
,
0100
0001
0010
0100
,
0220
0330
2200
3300
,
1000
0001
0010
0100
,
1002
0000
1000
0000
0013
0000
0002
0010
,
1000
0103
0110
1010
,
2001
0000
0001
0000
3100
0000
2000
0010
,
0001
3100
0110
0011
,
1001
0000
0001
0000
1000
0000
0010
0100
,
0001
1000
0010
1000
,
0220
0330
0202
0303
,
0001
1000
0010
0100
,
1001
0000
1000
0000
0100
1000
0100
0000
,
1000
0000
0001
0000
0100
0001
0100
0000
,
0001
0000
1000
0000
0010
1000
0010
0000
,
1000
0000
0001
0000
0010
0001
0010
0000
,
0001
0000
1000
0000
0010
0000
1000
0010
,
0100
0000
0001
0000
1000
0001
1000
0000
,
0001
0010
0001
0010
0100
1000
0100
1000
,
2002
3003
0110
0101
,
1001
0000
0000
0000
;

//---------------dance-single - [Ness]----------------
#NOTEDATA:;
#CHARTNAME:[Ness];
#STEPSTYPE:dance-single;
#DESCRIPTION:[Ness];
#CHARTSTYLE:;
#DIFFICULTY:Medium;
#METER:5;
#RADARVALUES:0.254392,0.260848,0.098433,0.053691,0.000000,199.000000,188.000000,11.000000,6.000000,0.000000,0.000000,0.000000,0.000000,0.000000,0.254392,0.260848,0.098433,0.053691,0.000000,199.000000,188.000000,11.000000,6.000000,0.000000,0.000000,0.000000,0.000000,0.000000;
#CREDIT:[Ness];
#NOTES:
0000
0000
0000
0000
,
1001
1000
0001
0001
,
0010
0100
1000
1000
,
0100
1000
0010
0010
,
1000
0000
0001
0000
0010
0001
0010
0000
,
0100
0000
1000
0010
,
0100
0000
0100
0000
0001
0000
1000
0002
,
0000
0000
0003
1001
,
0000
0000
0010
0100
,
1000
0010
0100
0001
,
0010
0100
1000
0000
,
0001
0000
0100
0000
0010
1000
0010
0000
,
1000
0000
0001
0010
,
0100
0000
1000
0010
,
1000
0000
0001
0000
0100
0000
0010
2000
,
0000
0000
3000
1001
,
0000
0000
0001
0010
,
0100
1000
0010
0100
,
0001
0010
0100
1000
,
0010
1000
0001
1000
,
0100
0000
0000
0000
0010
0100
0010
0000
,
0001
0000
0000
0000
0100
0010
0100
0000
,
0001
0000
1000
0001
,
1000
0000
0000
0000
0010
1000
0010
0000
,
0100
0000
0010
1000
,
0200
0300
0200
0300
,
1000
0001
1000
0001
,
0010
0100
1000
0001
,
0100
0000
0010
0000
1000
0001
1000
0000
,
1001
0000
0010
0000
1000
0000
0010
0200
,
0000
0300
0000
0000
1000
0000
0100
0000
,
0001
0000
0010
0000
0100
0000
0010
0001
,
0000
0010
0000
0000
0000
0000
0001
0000
,
0100
0010
0100
0010
,
1000
0100
0010
0001
,
1100
0101
0000
0000
,
1000
0010
0100
0001
,
1001
0000
0010
0000
0001
0000
0010
0200
,
0000
0300
0000
0000
1000
0000
0010
0000
,
0100
0000
0001
0000
0010
0000
0100
1000
,
0000
0100
0000
0000
0000
0000
1000
0000
,
0001
1000
0001
1000
,
0010
0100
0010
0100
,
0101
1100
0000
0000
,
0100
1000
0001
1000
,
1001
0010
0001
1000
,
0001
0010
1000
0001
,
1000
0010
0001
1000
,
0001
0010
1000
0001
,
1000
0100
0001
1000
,
0001
0100
1000
0001
,
1000
0010
0001
1000
,
0100
0001
1000
0001
,
1001
0000
0000
0000
;

//---------------dance-single - [Ness]----------------
#NOTEDATA:;
#CHARTNAME:[Ness];
#STEPSTYPE:dance-single;
#DESCRIPTION:[Ness];
#CHARTSTYLE:;
#DIFFICULTY:Easy;
#METER:2;
#RADARVALUES:0.172578,0.213421,0.116330,0.125279,0.000000,135.000000,122.000000,13.000000,14.000000,0.000000,0.000000,0.000000,0.000000,0.000000,0.172578,0.213421,0.116330,0.125279,0.000000,135.000000,122.000000,13.000000,14.000000,0.000000,0.000000,0.000000,0.000000,0.000000;
#CREDIT:[Ness];
#NOTES:
0000
0000
0000
0000
,
1000
0010
1000
0000
,
0100
0000
0100
0000
,
0001
0010
0001
0000
,
0100
0000
0100
0000
,
1001
0000
0010
0000
,
1000
0000
0001
0000
,
0010
0000
0000
0000
,
0100
0000
1000
0000
,
0010
0000
0100
0000
,
0001
0000
1000
0000
,
0100
0100
0010
0010
,
0100
0000
0010
0000
,
1001
0000
0001
0000
,
1000
0000
0010
0000
,
0100
0000
0001
0000
,
0010
0000
0100
0000
,
1000
0000
0001
0000
,
0100
0000
0010
0000
,
1000
1000
0001
0001
,
1000
0000
0010
0000
,
1001
0000
1000
0001
,
1000
0000
0100
0000
,
0010
0000
0001
1000
,
0001
0000
0100
0000
,
0010
0000
1000
0001
,
1000
0000
0100
0000
,
0010
0000
0001
1000
,
0001
0000
0100
0000
,
2002
0000
0000
3003
,
1000
0001
1000
0001
,
2002
0000
0000
3003
,
1000
0001
1000
0001
,
2002
0000
0000
3003
,
0010
0000
0100
0000
,
0110
0000
0000
0000
,
0001
0010
0100
1000
,
2002
0000
0000
3003
,
0001
1000
0001
1000
,
2002
0000
0000
3003
,
1000
0001
1000
0001
,
2002
0000
0000
3003
,
0010
0000
0100
0000
,
0110
0000
0000
0000
,
0001
1000
0001
0010
,
0100
0100
1000
0000
,
0000
0010
1000
0000
,
0001
0001
0010
0000
,
0000
0001
1000
0000
,
2002
0000
0000
3003
,
0001
0000
1000
0000
,
0010
0010
0100
0100
,
0010
0000
1000
0001
,
1001
0000
0000
0000
;

//---------------dance-double - [Ness]----------------
#NOTEDATA:;
#CHARTNAME:[Ness];
#STEPSTYPE:dance-double;
#DESCRIPTION:[Ness];
#CHARTSTYLE:;
#DIFFICULTY:Hard;
#METER:8;
#RADARVALUES:0.392454,0.403128,0.259506,0.313196,0.040268,307.000000,278.000000,29.000000,35.000000,0.000000,0.000000,0.000000,0.000000,0.000000,0.392454,0.403128,0.259506,0.313196,0.040268,307.000000,278.000000,29.000000,35.000000,0.000000,0.000000,0.000000,0.000000,0.000000;
#CREDIT:[Ness];
#NOTES:
00000000
00000000
00000000
00000000
,
00000100
00000000
00010000
00000000
00001000
00000000
00000000
01000000
00000000
00000000
00010000
00000000
00000000
00000000
10000000
00000000
,
00100000
00000000
10000000
00000000
01000000
00000000
00000000
00100000
00000000
00000000
01000000
00000000
00000000
00000000
10000000
00000000
,
00010000
00000000
00100000
00000000
00001000
00000000
00000000
00010000
00000000
00000000
00000010
00000000
00000000
00000000
00000100
00000000
,
00000001
00000000
00000010
00000000
00000100
00000000
00000000
00010000
00000000
00000000
00001000
00000000
00000000
00000000
01000000
00000000
,
00010000
00000000
10000000
00100000
01000000
00010000
01000000
00000000
,
00020000
00230000
00302000
00003020
,
00000230
00000000
00001300
00000000
00000001
00001000
00001100
00000000
,
00000010
00010000
00100000
01000000
,
00010000
10000000
01000000
00000000
10000000
00100000
01000000
00000000
,
00010000
00100000
00001000
00000000
01000000
00001000
00010000
00000000
,
00000100
00000110
00000010
00000110
,
00000100
00000000
00001001
00000000
00000001
00001000
00000010
00000000
,
00001000
00000000
00000001
00000010
00000100
00001000
00000100
00000000
,
00002000
00003020
00020030
00230000
,
02300000
00000000
03010000
00000000
10000000
00010000
01010000
00000000
,
00100000
00001000
00000010
00000100
,
00001000
00000001
00000100
00000000
00000001
00000010
00000100
00000000
,
00001000
00000010
00010000
00000000
00000100
00010000
00001000
00000000
,
01000000
01100000
00100000
01100000
,
01000000
00000000
10010000
00000000
10000000
00010000
01000000
00000000
,
00020000
00100000
00000000
01030000
00000000
00010000
00100000
00010000
,
00002000
00000100
00000000
00003100
00000000
00001000
00000010
00000100
,
00000002
00001000
00000000
00000103
00000000
00000001
00000010
00000100
,
00002000
00010000
00000000
00013000
00000000
00001000
00010000
00100000
,
02000000
10000000
00000000
13000000
00000000
00100000
10000000
00010000
,
00200000
00001000
00000000
00301000
00000000
00010000
00001000
00000100
,
00000020
00001000
00000000
00001030
00000000
00000001
00001000
00000010
,
00000200
00001000
00000000
00001300
00000000
00000100
00000001
00001000
,
00001001
00000000
00001100
00000000
00010100
00000000
00000100
00010000
,
00002000
00010000
00100000
00013000
,
00011000
00000000
00110000
00000000
00101000
00000000
00100000
00010000
,
02000000
10000000
00100000
13000000
,
01100000
00000000
01010000
00000000
01001000
00000000
01000000
00001000
,
00020000
00000100
00001000
00030100
,
00002000
00000000
00003020
00000000
,
00000130
00000000
00000001
00001000
00000010
00000100
00000001
00000000
,
00001001
00000000
00000110
00000000
00001100
00000000
00000100
00010000
,
00002000
01000000
00010000
01003000
,
01001000
00000000
01010000
00000000
01100000
00000000
01000000
00100000
,
20000000
01000000
00010000
31000000
,
11000000
00000000
01100000
00000000
01001000
00000000
01000000
00001000
,
00020000
00001000
00100000
00031000
,
00020000
00000000
00030200
00000000
,
00001300
00000000
00000010
00001000
00000001
00000100
00000010
00000000
,
00001001
00000000
00002000
00000000
00000010
00000000
00000000
00003010
00000000
00000000
00001000
00000000
00000010
00000000
00010000
00000000
,
00001000
00000000
00002000
00000000
00010000
00000000
00000000
00013000
00000000
00000000
00001000
00000000
01000000
00000000
00010000
00000000
,
10010000
00000000
00020000
00000000
00100000
00000000
00000000
00130000
00000000
00000000
00010000
00000000
01000000
00000000
00001000
00000000
,
00010000
00000000
00020000
00000000
00000010
00000000
00000000
00030010
00000000
00000000
00001000
00000000
00000010
00000000
00000100
00000000
,
00000001
00000000
00000002
00000000
00000010
00000000
00000000
00000013
00000000
00000000
00000001
00000000
00000010
00000000
00000100
00000000
,
00002000
00003020
00000130
00000110
,
00000100
00000001
00000100
00000001
00001000
00000100
00001000
00000100
,
00010000
01000000
00010000
01000000
10000000
00010000
00001000
00100000
,
01000000
00000000
00000000
00000000
;

//---------------dance-double - [Ness]----------------
#NOTEDATA:;
#CHARTNAME:[Ness];
#STEPSTYPE:dance-double;
#DESCRIPTION:[Ness];
#CHARTSTYLE:;
#DIFFICULTY:Medium;
#METER:5;
#RADARVALUES:0.260784,0.308275,0.161072,0.080536,0.000000,204.000000,186.000000,18.000000,9.000000,0.000000,0.000000,0.000000,0.000000,0.000000,0.260784,0.308275,0.161072,0.080536,0.000000,204.000000,186.000000,18.000000,9.000000,0.000000,0.000000,0.000000,0.000000,0.000000;
#CREDIT:[Ness];
#NOTES:
00000000
00000000
00000000
00000000
,
00011000
00100000
00010000
01000000
,
00011000
00000010
00001000
00000100
,
00011000
01000000
00010000
00100000
,
00011000
00000000
00000100
00000000
00010000
00001000
00010000
00000000
,
00011000
00000000
00010000
00100000
,
01000000
00000000
10000000
00000000
00010000
00000000
10000000
00200000
,
00000000
00000000
00000000
00000000
00000000
00300000
10010000
00000000
,
00000000
00000000
00001000
00010000
,
00000100
00001000
00000010
00000100
,
00000001
00000010
00000100
00000000
,
00010000
00000000
00001000
00000000
01000000
00010000
01000000
00000000
,
00100000
00000000
10000000
00010000
,
10010000
00000000
10000000
00100000
,
00010000
00000000
10000000
00000000
01000000
00000000
00010000
02000000
,
00000000
00000000
03000000
10010000
,
00000000
00000000
00010000
00100000
,
00001000
00010000
00000010
00000100
,
00000001
00000010
00000100
00010000
,
00001000
01000000
00010000
00100000
,
01000000
00000000
00000000
00000000
10000000
00010000
01000000
00000000
,
10010000
00000000
00000000
00000000
00010000
00100000
00010000
00000000
,
01000000
00000000
00010000
00100000
,
00001000
00000000
00000000
00000000
00010000
00000100
00001000
00000000
,
00000010
00000000
00000100
00000001
,
00000020
00000030
00000020
00000030
,
00000100
00010000
00001000
01000000
,
00100000
10000000
01000000
00100000
,
00010000
00000000
10000000
00000000
00010000
10000000
00100000
00000000
,
01100000
00000000
10000000
00000000
01000000
00000000
00100000
00002000
,
00000000
00003000
00000000
00000000
00010000
00000000
00000100
00000000
,
00001000
00000000
00000010
00000000
00000100
00000000
00000001
00000010
,
00000000
00000010
00000000
00000000
00000000
00000000
00000100
00000000
,
00010000
00001000
01000000
00010000
,
00100000
01000000
00100000
00010000
,
01010000
10010000
00000000
00000000
,
00010000
00100000
00001000
00010000
,
00000100
00000000
00001000
00000000
00000010
00000000
00001000
00000002
,
00000000
00000003
00000000
00000000
00000010
00000000
00000100
00000000
,
00010000
00000000
00001000
00000000
01000000
00000000
00010000
10000000
,
00000000
10000000
00000000
00000000
00000000
00000000
00010000
00000000
,
00100000
01000000
10000000
00100000
,
01000000
00001000
00010000
00000100
,
00001100
00001001
00000000
00000000
,
00000010
00000000
00000100
00000000
00001000
00000010
00000100
00000000
,
00000001
00000010
00000100
00001000
,
00010000
00100000
01000000
10000000
,
10000000
00100000
01000000
00010000
,
00001000
00000010
00000100
00000001
,
00000010
00000000
00000100
00000000
00000010
00000000
00000100
00020000
,
00000000
00000000
00000000
00000000
00000000
00030000
00001000
00000000
,
01000000
00010000
00100000
01000000
,
02200000
03300000
00110000
00011000
,
01010000
00000000
00000000
00000000
;

//---------------dance-single - [Ness]----------------
#NOTEDATA:;
#CHARTNAME:[Ness];
#STEPSTYPE:dance-single;
#DESCRIPTION:[Ness];
#CHARTSTYLE:;
#DIFFICULTY:Beginner;
#METER:1;
#RADARVALUES:0.067753,0.094854,0.008948,0.000000,0.000000,53.000000,52.000000,1.000000,0.000000,0.000000,0.000000,0.000000,0.000000,0.000000,0.067753,0.094854,0.008948,0.000000,0.000000,53.000000,52.000000,1.000000,0.000000,0.000000,0.000000,0.000000,0.000000,0.000000;
#CREDIT:[Ness];
#NOTES:
0000
0000
0000
0000
,
0000
1000
0000
0000
,
0000
0001
0000
0000
,
0000
0100
0000
0000
,
0000
0010
0000
0000
,
1000
0000
0000
0000
,
0010
0000
0000
0000
,
0100
0000
0000
0000
,
0000
0000
0000
0000
,
0001
0000
0000
0000
,
0010
0000
0000
0000
,
0100
0000
0000
0000
,
0010
0000
0000
0000
,
0001
0000
0000
0000
,
1000
0000
0000
0000
,
0010
0000
0000
0000
,
0000
0000
0000
0000
,
0100
0000
0000
0000
,
0010
0000
0000
0000
,
1000
0000
0000
0000
,
0000
0000
0000
0000
,
0001
0000
0000
0000
,
1000
0000
0000
0000
,
0010
0000
0000
0000
,
0100
0000
0000
0000
,
0001
0000
0000
0000
,
0010
0000
0000
0000
,
0100
0000
0000
0000
,
1000
0000
0000
0000
,
0001
0001
0000
0000
,
0000
0000
0000
0000
,
0100
0100
0000
0000
,
0000
0000
0000
0000
,
0010
0000
0000
0000
,
1000
0000
0000
0000
,
0100
0000
0100
0000
,
0100
0000
0000
0000
,
0010
0010
0000
0000
,
0000
0000
0000
0000
,
0100
0100
0000
0000
,
0000
0000
0000
0000
,
1000
1000
0000
0000
,
0000
0000
0000
0000
,
0010
0000
0000
0000
,
0100
0000
0100
0000
,
0100
0000
0000
0000
,
0001
0000
0000
0000
,
1000
0000
0000
0000
,
0100
0000
0000
0000
,
0010
0000
0000
0000
,
0001
0000
0000
0000
,
0100
0000
0000
0000
,
0001
0000
0000
0000
,
1001
0000
0000
0000
;

//---------------dance-double - [Ness]----------------
#NOTEDATA:;
#CHARTNAME:[Ness];
#STEPSTYPE:dance-double;
#DESCRIPTION:[Ness];
#CHARTSTYLE:;
#DIFFICULTY:Easy;
#METER:2;
#RADARVALUES:0.139340,0.165994,0.017897,0.017897,0.000000,109.000000,107.000000,2.000000,2.000000,0.000000,0.000000,0.000000,0.000000,0.000000,0.139340,0.165994,0.017897,0.017897,0.000000,109.000000,107.000000,2.000000,2.000000,0.000000,0.000000,0.000000,0.000000,0.000000;
#CREDIT:[Ness];
#NOTES:
00000000
00000000
00000000
00000000
,
00100000
00000000
10000000
00000000
,
01000000
00000000
00100000
00000000
,
00001000
00000000
00010000
00000000
,
00000010
00000000
00000100
00000000
,
00001001
00000000
00000001
00000000
,
00000010
00000000
00000100
00001000
,
00000200
00000000
00000000
00000000
,
00000300
00000000
00010000
00000000
,
00001000
00000000
01000000
00000000
,
00010000
00000000
00100000
00000000
,
01000000
00000000
00000000
01000000
,
00000000
00000000
00000000
00000000
,
10000000
00000000
00100000
00000000
,
01000000
00000000
00010000
00000000
,
00200000
00000000
00000000
00000000
,
00300000
00000000
00001000
00000000
,
00010000
00000000
00000010
00000000
,
00001000
00000000
00000001
00000000
,
00000100
00000000
00000100
00000000
,
00000010
00000000
00000000
00000000
,
00010000
00000000
00001000
00000000
,
00010000
00000000
00000100
00000000
,
00001000
00000000
00000010
00000000
,
00000100
00000000
00000001
00000000
,
00000010
00000000
00000100
00000000
,
00010000
00000000
00001000
00000000
,
01000000
00000000
10000000
00000000
,
01000000
00000000
00010000
00000000
,
00100000
00010000
00100000
00000000
,
00001000
00000000
00010000
00000000
,
00000100
00001000
00000100
00000000
,
00001000
00000000
00000010
00000000
,
00000100
00000001
00000100
00000000
,
00000001
00000000
00001000
00000000
,
00000100
00000000
00010000
00000000
,
00001000
00000000
01000000
00000000
,
00010000
00100000
00010000
00000000
,
00100000
00000000
01000000
00000000
,
10000000
01000000
10000000
00000000
,
00100000
00000000
01000000
00000000
,
00001000
00010000
00001000
00000000
,
00010000
00000000
00000100
00000000
,
00001000
00000000
00000010
00000000
,
00000100
00000000
00000001
00000000
,
00000010
00000000
00000100
00000000
,
00010000
00000000
00001000
00000000
,
00010000
00000000
00000100
00000000
,
00010000
00000000
00001000
00000000
,
01000000
00010000
01000000
00000000
,
00100000
00000000
10000000
00000000
,
00010000
00000000
00100000
00000000
,
00001000
00000000
00010000
00001000
,
00011000
00000000
00000000
00000000
;

//---------------dance-single - ----------------
#NOTEDATA:;
#CHARTNAME:;
#STEPSTYPE:dance-single;
#DESCRIPTION:;
#CHARTSTYLE:;
#DIFFICULTY:Challenge;
#METER:9;
#RADARVALUES:0.600826,0.806257,0.259506,0.116330,0.644290,470.000000,441.000000,29.000000,13.000000,103.000000,0.000000,0.000000,0.000000,0.000000,0.600826,0.806257,0.259506,0.116330,0.644290,470.000000,441.000000,29.000000,13.000000,103.000000,0.000000,0.000000,0.000000,0.000000;
#CREDIT:;
#NOTES:
0000
0000
0000
0000
,
1000
0010
000M
0000
0110
0000
0000
0000
0010
0100
M000
0000
0101
0000
0000
0000
,
0001
1000
00M0
0000
1100
0000
0000
0000
0100
0010
M000
0000
0011
0000
0000
0000
,
0010
0001
1000
0M00
0010
1000
0001
00M0
,
0100
0001
1000
0100
0010
0100
1000
0001
,
0202
0003
100M
M301
,
1M0M
0010
1000
0000
0001
0100
0010
0000
,
0100
0000
0000
0100
0001
0000
1000
0000
0100
0000
0000
0100
1000
0000
0001
0000
,
0100
0000
0000
0100
0001
0000
1000
0000
0100
0000
0000
0100
1000
0000
0001
0000
,
0010
0000
0000
0001
0100
0000
0001
0000
1000
0000
0000
0100
1000
0000
0001
0000
,
0100
0000
0000
0010
1000
0000
0010
0000
0100
0000
0000
0001
0010
0000
0001
0000
,
1000
0000
0000
0010
0100
0000
0010
0000
1000
0000
0000
0001
0100
0000
0010
0000
,
0100
0000
0000
0001
1000
0000
0001
0000
0010
0000
0000
0100
1000
0000
0100
0000
,
2200
3000
M001
130M
,
MM01
0010
0001
0010
0100
1000
0001
1000
,
0100
0010
0100
0001
0100
0010
0100
1000
,
0001
0010
0100
0010
1000
0010
0001
1000
,
0100
0000
0000
0010
0001
0000
0100
0000
0010
0000
0000
0100
0001
0000
1000
0000
,
0100
0000
0000
1000
0001
0000
1000
0000
0010
0000
0000
0100
0001
0000
1000
0000
,
0001
0000
0000
0010
0100
0000
1000
0000
1000
0000
0000
0010
0100
0000
0001
0000
,
0001
0000
0000
1000
0100
0000
1000
0000
0001
0000
0000
0100
0001
0000
1000
0000
,
12MM
0001
1300
11MM
,
1000
0001
1000
0000
0010
0000
1000
0100
0000
0100
0010
0000
M11M
0000
0000
0000
,
0010
0001
1000
0001
0100
0010
1M1M
0000
,
0001
0100
0001
0000
1000
0000
0001
0100
0000
0100
0010
0000
M11M
0000
0000
0000
,
1000
0010
1000
0001
0100
0010
M11M
0000
,
1000
0001
1000
0000
0010
0000
1000
0100
0000
1000
0100
0000
1MM1
0000
0000
0000
,
0001
0100
1000
0100
0010
0100
1MM1
0000
,
0001
1000
0001
0000
0010
0000
0100
1000
0000
1000
0010
0000
0100
0010
0100
0000
,
0201
0000
100M
0000
0301
0000
1M00
0001
,
0100
0001
0100
0000
0010
0000
0100
0001
0000
0100
0001
0000
1000
0000
0010
0000
,
0010
1000
0010
0000
1000
0000
0100
1000
0000
0100
1000
0000
0001
0000
1000
0000
,
0100
0010
0100
0000
1000
0000
0001
0100
0000
0010
1000
0000
0001
0000
1000
0000
,
0100
1000
0100
0000
0010
0000
0001
1000
0000
1000
0010
0000
1010
0000
0010
0000
,
1000
0001
1000
0000
0100
0000
0010
0001
0000
1000
0010
0000
0110
0000
0100
0000
,
0001
0100
0000
0100
0001
0000
1000
0000
1000
0100
0000
0100
1000
0000
0001
0000
,
0010
0001
0000
0001
1000
0000
0010
0000
0010
1000
0000
1000
0001
0000
0010
0000
,
0021
0000
100M
0000
0031
0000
10M0
0001
,
0010
0001
1000
0000
0100
0000
1000
0001
0000
0100
0001
0000
1000
0000
0100
0000
,
0100
0010
0100
0000
1000
0000
0010
0100
0000
0010
0100
0000
0001
0000
1000
0000
,
0010
0100
0010
0000
1000
0000
0001
0010
0000
0100
1000
0000
0001
0000
1000
0000
,
0010
1000
0001
0000
0010
0000
0001
1000
0000
0100
1000
0000
0110
0000
1000
0000
,
0001
0100
0001
0000
1000
0000
0010
0100
0000
0001
1000
0000
1001
0000
1000
0000
,
0001
0000
0000
0010
0000
0000
0M01
0000
0000
0010
M000
0000
0001
0000
0M00
0010
0000
0000
0001
0000
0000
0010
0000
0000
0100
0000
0000
1000
0000
0000
010M
0000
0000
1000
00M0
0000
0100
0000
000M
1000
0000
0000
0100
0000
0000
1000
0000
0000
,
0010
0000
0000
0100
000M
0000
M010
0000
0000
0100
0000
0000
0001
0000
0000
1000
00M0
0000
0M01
0000
0000
1000
0000
0000
0010
0000
0000
0100
0000
0000
0001
0000
0000
1000
0000
0000
0010
0000
0000
0100
0000
0000
0001
0000
0000
1000
0000
0000
,
2MM2
0MM0
0MM0
0MM0
0MM0
0MM0
3MM3
0000
M00M
M11M
M00M
0000
,
0001
0000
0000
0100
00M0
0000
0001
0000
M000
0000
0000
0000
01M1
0000
0000
0000
0000
0000
1000
0000
0000
0010
0000
0000
0M00
0000
0000
1000
000M
0000
0010
0000
0M00
0000
0000
0000
101M
0000
0000
0000
0000
0000
0000
0000
0000
0000
0000
0000
,
0100
0000
0000
0010
000M
0000
0100
0000
M000
0000
0000
0000
011M
0000
0000
0000
0000
0000
1000
0000
0000
0001
0000
0000
00M0
0000
0000
1000
0M00
0000
0001
0000
00M0
0000
0000
0000
1M01
0000
0000
0000
0000
0000
0000
0000
0000
0000
0000
0000
,
0001
0000
0000
0010
0M00
0000
0001
0000
M000
0000
0000
0000
0M11
0000
0000
0000
0000
0000
1000
0000
0000
0100
0000
0000
000M
0000
0000
0100
00M0
0000
1000
0000
000M
0000
0000
0000
11M0
0000
0000
0000
0000
0000
0000
0000
0000
0000
0000
0000
,
2000
0000
0000
0010
0000
0000
3001
0000
000M
0000
0000
0000
0002
0000
0000
0010
0000
0000
1003
0000
M000
0000
0000
0000
,
2000
0100
3001
M00M
0002
0100
1003
M00M
,
0001
0000
0000
0100
00M0
0000
0001
0000
0000
0100
0000
0000
M010
0000
0000
0100
0000
0000
001M
0000
0000
0100
0000
0000
0010
0000
0000
1000
0M00
0000
0010
0000
0000
1000
0000
0000
0001
0000
0000
10M0
0000
0000
0M01
0000
0000
1000
0000
0000
,
01M0
1000
0001
M010
0100
10M0
0001
M010
0100
100M
0010
0100
M001
0010
0100
1000
,
1001
0000
0000
0000
;

//---------------dance-double - ----------------
#NOTEDATA:;
#CHARTNAME:;
#STEPSTYPE:dance-double;
#DESCRIPTION:;
#CHARTSTYLE:;
#DIFFICULTY:Challenge;
#METER:9;
#RADARVALUES:0.608496,0.806257,0.304248,0.089485,0.715877,476.000000,442.000000,34.000000,10.000000,165.000000,0.000000,0.000000,0.000000,0.000000,0.608496,0.806257,0.304248,0.089485,0.715877,476.000000,442.000000,34.000000,10.000000,165.000000,0.000000,0.000000,0.000000,0.000000;
#CREDIT:;
#NOTES:
// measure 0
00000000
00000000
00000000
00000000
,  // measure 1
00000001
00000010
0M00M000
00000000
00001010
00000000
00000000
00000000
00000010
00001000
00M00M00
00000000
00011000
00000000
00000000
00000000
,  // measure 2
00010000
10000000
000M00M0
00000000
10010000
00000000
00000000
00000000
01000000
00001000
00000M0M
00000000
01001000
00000000
00000000
00000000
,  // measure 3
00010000
00000010
00001000
0000010M
00000010
00000001
00000100
0000M010
,  // measure 4
00010000
00001000
01000000
001M0000
10000000
00010000
01000000
M0100000
,  // measure 5
02020000
03030000
011M0000
0M011000
,  // measure 6
00001000
00000000
00000100
00000000
00001000
000M0000
00000M00
00000000
00010000
00000000
01000000
00000000
00010000
00000000
0M000000
0000M000
,  // measure 7
00100000
00000000
00000000
00100000
00001000
00000000
00010000
00000000
00001000
00000000
00000000
00001000
01000000
00000000
00100000
00000000
,  // measure 8
01000000
00000000
00000000
01000000
00010000
00000000
00100000
00000000
01000000
00000000
00000000
01000000
10000000
00000000
00010000
00000000
,  // measure 9
00100000
00000000
00000000
00010000
01000000
00000000
00001000
00000000
00010000
00000000
00000000
00000100
00000010
00000000
00000001
00000000
,  // measure 10
00000100
00000000
00000000
00000010
00001000
00000000
00000001
00000000
00000010
00000000
00000000
00000100
00010000
00000000
00001000
00000000
,  // measure 11
01000000
00000000
00000000
00100000
01000000
00000000
00100000
00000000
10000000
00000000
00000000
00010000
01000000
00000000
00001000
00000000
,  // measure 12
00010000
00000000
00000000
00000010
00000100
00000000
00000001
00000000
00000010
00000000
00000000
00000100
00001000
00000000
00000001
00000000
,  // measure 13
00000202
00000303
0001M01M
000011MM
,  // measure 14
00010000
00100000
00001000
00010000
00000010
00001000
00000100
00010000
,  // measure 15
00001000
00100000
00001000
00010000
00000010
00010000
00000100
00001000
,  // measure 16
00010000
00100000
10000000
00100000
01000000
00100000
00010000
00100000
,  // measure 17
10000000
00000000
00000000
00100000
00010000
00000000
00001000
00000000
00000100
00000000
00000000
00000010
00000001
00000000
00001000
00000000
,  // measure 18
00000010
00000000
00000000
00000010
00010000
00000000
00001000
00000000
00010000
00000000
00000000
00000100
00000010
00000000
00000100
00000000
,  // measure 19
00010000
00000000
00000000
00001000
01000000
00000000
00100000
00000000
10000000
00000000
00000000
00100000
01000000
00000000
00010000
00000000
,  // measure 20
00010000
00000000
00000000
10000000
01000000
00000000
10000000
00000000
00010000
00000000
00000000
01000000
00010000
00000000
10000000
00000000
,  // measure 21
11000000
00110000
00001100
00000011
,  // measure 22
00001000
00000001
00001000
00000000
00000010
00000000
00001000
00000100
00000000
00000100
00000010
00000000
0000M11M
00000000
00000000
00000000
,  // measure 23
00010000
00001000
00010000
00000000
00000010
00000000
00010000
00001000
00000000
00010000
00001000
00000000
00M11M00
00000000
00000000
00000000
,  // measure 24
00001000
01000000
00001000
00000000
00010000
00000000
00001000
01000000
00000000
01000000
00100000
00000000
1M1M0000
00000000
00000000
00000000
,  // measure 25
10000000
01000000
10000000
00000000
00010000
00000000
00100000
01000000
00000000
00100000
00001000
00000000
0M1M1000
00000000
00000000
00000000
,  // measure 26
01000000
00010000
01000000
00000000
00001000
00000000
00010000
00000100
00000000
00001000
00000001
00000000
00001MM1
00000000
00000000
00000000
,  // measure 27
00000101
00001010
00010100
00101000
,  // measure 28
01010000
10100000
01100000
10010000
,  // measure 29
02010000
00000000
100M0000
00000000
03010000
00000000
1M000000
00010000
,  // measure 30
00100000
00001000
00100000
00000000
00001000
00000000
00010000
00000010
00000000
00010000
00000010
00000000
00001000
00000000
00000100
00000000
,  // measure 31
00000010
00000100
00000010
00000000
00000001
00000000
00001000
00000100
00000000
00010000
00001000
00000000
01000000
00000000
00010000
00000000
,  // measure 32
01000000
00100000
01000000
00000000
00010000
00000000
10000000
01000000
00000000
00100000
00010000
00000000
01000000
00000000
00100000
00000000
,  // measure 33
01000000
00010000
01000000
00000000
00001000
00000000
00010000
00000100
00000000
00000010
00000100
00000000
00010000
00000000
00001000
00000000
,  // measure 34
01000000
00100000
01000000
00000000
00010000
00000000
00100000
01000000
00000000
00100000
00010000
00000000
00110000
00000000
00001000
00000000
,  // measure 35
00010000
00000100
00000000
00000100
00010000
00000000
00001000
00000000
00001000
01000000
00000000
01000000
00001000
00000000
00010000
00000000
,  // measure 36
00010000
00000100
00000000
00000100
00000010
00000000
00000001
00000000
00000001
00000100
00000000
00000100
00000010
00000000
00001000
00000000
,  // measure 37
00001020
00000000
0000M001
00000000
00001030
00000000
000001M0
00010000
,  // measure 38
00001000
00010000
00001000
00000000
00010000
00000000
00000010
00000100
00000000
00000010
00001000
00000000
00000100
00000000
00010000
00000000
,  // measure 39
00001000
01000000
00001000
00000000
00100000
00000000
01000000
10000000
00000000
01000000
00100000
00000000
00010000
00000000
00001000
00000000
,  // measure 40
00000100
00000010
00000100
00000000
00000010
00000000
00000001
00000100
00000000
00000010
00001000
00000000
00000001
00000000
00001000
00000000
,  // measure 41
00000100
00010000
00000100
00000000
00010000
00000000
00001000
01000000
00000000
01000000
00100000
00000000
01100000
00000000
10000000
00000000
,  // measure 42
00010000
01000000
00010000
00000000
10000000
00000000
00100000
01000000
00000000
00010000
00100000
00000000
00110000
00000000
00001000
00000000
,  // measure 43
00M100M0
00001000
0M010M00
00001000
00M100M0
00000100
0M01000M
00000100
00M010M0
00000100
000M100M
00000100
00M00010
00000100
0000M01M
00000100
,  // measure 44
0M010000
00001000
00M10M0M
00001000
M10000M0
00001000
01M00M00
00001000
M10000M0
00100000
010M0M00
00100000
1000M000
00010000
10000M00
00010000
,  // measure 45
2MM2M000
0MM00000
0MM00000
0MM00000
0MM00000
0MM00000
3MM30000
00000000
M00M0000
M11M0000
M00M0000
00000000
,  // measure 46
01000000
00000000
00000000
00100000
000M0000
00000000
01000000
00000000
M0000M00
00000000
00000000
00000000
0001M000
00000000
00000000
00000000
0M000000
00000000
00100000
00000000
M00000M0
00001000
00000000
00000000
00000M00
00000000
00000000
00010000
0M000000
00000000
00000010
00000000
00M0000M
00000000
00000000
00000000
00000100
00000000
00000000
00000000
0000M000
00000000
00000001
00000000
000M0000
00000000
00000000
00000000
,  // measure 47
00000010
00000000
00000000
00000100
00000000
00000000
00000010
00000000
000MM000
00000000
00000000
00000000
0000010M
00000000
00000000
00000000
00M00000
00000000
00010000
00000000
0M0000M0
00001000
00000000
00000000
00000000
00000000
00000000
01000000
M0000M00
00000000
00010000
00000000
000000M0
00000000
00000000
00000000
1000M000
00000000
00000000
00000000
0M000M00
00000000
00100000
00000000
000M0000
00000000
00000000
00000000
,  // measure 48
M1000000
00000000
00000000
00001000
00M00M00
00000000
00010000
00000000
00000000
00000000
00000000
00000000
0M000100
00000000
00000000
00000000
00M00000
00000000
00010000
00000000
M0000000
00001000
00000000
00000000
00000000
00000000
00000000
01000000
00000000
00000000
00100000
00000000
0000M000
00000000
00000000
00000000
10000M00
00000000
00000000
00000000
000000M0
00000000
00010000
00000000
0M000000
00000000
00000000
00000000
,  // measure 49
M0200000
00000000
00000000
00001000
0M000000
00000000
00310M00
00000000
0000M000
00000000
00000000
00000000
00000M20
00000000
00000000
00010000
00000000
00000000
00001030
00000000
00M00000
00000000
0000M000
00000000
,  // measure 50
00000100
00000000
00M00000
00010000
00000000
00000000
00001000
00000000
00000M00
01000000
000M0000
00000000
00001M00
00000000
00000000
00010000
00M00000
00000000
0000M100
00000000
00M00000
00010000
00000000
00000000
,  // measure 51
0M0010M0
00000000
00000000
00010000
00000000
00000000
00001M00
00000000
00M00000
01000000
00000000
00000000
000100M0
00000000
00000000
10000000
00M00000
00000000
0001M000
00000000
00000000
01000000
00000000
00000000
M0010M00
00000000
00000000
00100000
00000000
00000000
0M00100M
00000000
00000000
00010000
00000000
00000000
00M00010
00000000
00000000
00001000
00000000
00000000
000M0100
00000000
00000000
00001000
00000000
00000000
,  // measure 52
00M000M1
00000000
00000000
00000100
00000000
00000000
000M0001
00000000
00000000
000010M0
00000000
00000000
00M00100
00000000
00000000
00001000
000M0000
00000000
M000001M
00000000
00000000
00000100
00000000
00000000
00M00010
00000000
00000000
00010000
0M000000
00000000
00001M00
00000000
00000000
M0100000
00000000
00000000
0001000M
00000000
00000000
01000000
00000000
00000000
M0001M00
00000000
00000000
00010000
00000000
00000000
,  // measure 53
0M001000
00000000
00000000
00000000
;
