#VERSION:0.83;
#TITLE:Emergency;
#SUBTITLE:;
#ARTIST:Icona Pop;
#TITLETRANSLIT:;
#SUBTITLETRANSLIT:;
#ARTISTTRANSLIT:;
#GENRE:Emergency;
#ORIGIN:;
#CREDIT:;
#BANNER:Emergency-bn.png;
#BACKGROUND:Emergency-bg.png;
#PREVIEWVID:Emergency-preview.avi;
#JACKET:Emergency-jacket.png;
#CDIMAGE:;
#DISCIMAGE:;
#LYRICSPATH:;
#CDTITLE:;
#MUSIC:Emergency.mp3;
#OFFSET:-0.027530;
#SAMPLESTART:52.606239;
#SAMPLELENGTH:15.952385;
#SELECTABLE:YES;
#BPMS:0.000=126.000;
#STOPS:108.000=1.429;
#DELAYS:;
#WARPS:;
#TIMESIGNATURES:0.000=4=4;
#TICKCOUNTS:0.000=4;
#COMBOS:0.000=1;
#SPEEDS:0.000=1.000=0.000=0;
#SCROLLS:0.000=1.000;
#FAKES:;
#LABELS:0.000=Song Start;
#LASTSECONDHINT:115.305290;
#BGCHANGES:-0.250=Emergency-video.avi=1.000=1=0=0=StretchNoLoop==CrossFade==,
99999=-nosongbg-=1.000=0=0=0 // don't automatically add -songbackground-
;
#KEYSOUNDS:;
#ATTACKS:
;

//---------------dance-single - ----------------
#NOTEDATA:;
#CHARTNAME:;
#STEPSTYPE:dance-single;
#DESCRIPTION:;
#CHARTSTYLE:;
#DIFFICULTY:Hard;
#METER:7;
#RADARVALUES:0.437978,0.611016,0.266970,0.034448,0.034448,356.000000,325.000000,31.000000,4.000000,0.000000,0.000000,0.000000,0.000000,0.000000,0.437978,0.611016,0.266970,0.034448,0.034448,356.000000,325.000000,31.000000,4.000000,0.000000,0.000000,0.000000,0.000000,0.000000;
#CREDIT:;
#NOTES:
// measure 0
0000
0000
0000
0000
,  // measure 1
0000
0000
0000
0000
,  // measure 2
0000
0000
0000
0000
,  // measure 3
0000
0000
0000
0000
0000
0000
0000
0000
0000
0000
1000
0001
1000
0000
0100
0000
,  // measure 4
1001
0000
0000
0000
0100
0000
0000
0000
0010
0000
0001
1000
0001
0000
0100
0000
,  // measure 5
1001
0000
0100
0000
0010
1000
0001
0100
,  // measure 6
0010
0000
1000
0001
0000
0000
1000
0000
0010
0000
1000
0001
0000
1000
0001
0000
,  // measure 7
0100
0000
0000
0000
0010
0000
0000
0000
1000
0000
0001
0000
0100
0001
1000
0000
,  // measure 8
0010
0000
1000
0000
0001
0000
1100
0101
,  // measure 9
1100
0000
0010
0000
0100
0000
0101
1100
,  // measure 10
0101
0000
1100
0101
1100
0000
1010
0011
,  // measure 11
0101
1100
1010
0011
,  // measure 12
0101
0000
1000
0001
0100
0000
0100
0000
,  // measure 13
0101
0000
1000
0001
0100
0000
0100
0000
,  // measure 14
0101
0000
1000
0001
0100
0000
1000
0001
,  // measure 15
0010
0000
1000
0001
0100
0000
0100
0000
,  // measure 16
0101
0000
1000
0001
0100
0000
0100
0000
,  // measure 17
0101
0000
1000
0001
0100
0000
0100
0000
,  // measure 18
0101
0000
1000
0001
0100
0000
1000
0001
,  // measure 19
0010
0000
1000
0001
0100
0000
0100
0000
,  // measure 20
2001
0010
0001
3010
,  // measure 21
0100
0000
0001
0000
0010
0100
0010
0000
,  // measure 22
0002
1000
0100
1003
,  // measure 23
0010
0000
0100
0000
0001
1000
0100
0000
,  // measure 24
0020
0001
0100
0031
,  // measure 25
1000
0000
0001
0000
0100
0010
1000
0000
,  // measure 26
0001
0010
1000
0100
,  // measure 27
0001
0000
0102
0000
1003
0001
0100
0000
,  // measure 28
1000
0001
0100
0000
1000
0001
0100
0001
,  // measure 29
1000
0001
0100
0000
1000
0001
0100
0000
,  // measure 30
1000
0001
0100
0000
1000
0001
0100
0001
,  // measure 31
1000
0100
1000
0000
0001
1000
0100
0000
,  // measure 32
0001
1000
0100
0000
0001
1000
0100
1000
,  // measure 33
0001
1000
0100
0000
0001
1000
0100
0000
,  // measure 34
0001
1000
0100
0000
0001
1000
0100
1000
,  // measure 35
0001
1000
0100
0000
0010
0000
0001
1000
,  // measure 36
0010
0100
0001
0000
0001
0000
1000
0010
,  // measure 37
0100
0000
0001
0000
0010
0000
0000
0100
0000
0000
1000
0000
0010
0000
0000
0100
,  // measure 38
0000
0001
0010
0000
0100
0000
1000
0001
,  // measure 39
0100
0001
1000
0000
0010
0000
0100
0010
,  // measure 40
1000
0100
0010
0000
0001
0000
1000
0001
,  // measure 41
0100
0010
1000
0001
0100
0010
1000
0001
,  // measure 42
0100
0010
1000
0001
0100
0010
1000
0001
,  // measure 43
0100
0010
1000
0000
1000
0001
1000
0000
,  // measure 44
1100
0000
0010
0000
1000
0001
1000
0000
,  // measure 45
1100
0000
0010
0000
1000
0001
1000
0000
,  // measure 46
0100
1000
0001
0000
1000
0001
0100
0000
,  // measure 47
1001
0000
0100
0000
0001
1000
0100
0000
,  // measure 48
1001
0000
0100
0000
0001
1000
0100
0000
,  // measure 49
1001
0000
0100
0000
0001
1000
0100
0000
,  // measure 50
0001
1000
0010
0000
0001
1000
0100
0000
,  // measure 51
1001
0000
0010
0000
1000
0001
0010
0000
,  // measure 52
1000
0001
0010
0000
1000
0001
0100
0001
,  // measure 53
1000
0001
0010
0000
1000
0001
0010
0000
,  // measure 54
1000
0001
0010
0000
1000
0001
0100
0001
,  // measure 55
1000
0001
0010
0000
0100
1000
0010
0000
,  // measure 56
0100
0001
0010
0000
0100
1000
0010
0100
,  // measure 57
0001
0010
0100
0000
1000
0010
0100
0000
,  // measure 58
0001
0010
0100
0000
1000
0010
0100
0001
,  // measure 59
0010
0100
0000
0000
0000
0000
0000
0000
;

//---------------dance-single - ----------------
#NOTEDATA:;
#CHARTNAME:;
#STEPSTYPE:dance-single;
#DESCRIPTION:;
#CHARTSTYLE:;
#DIFFICULTY:Medium;
#METER:5;
#RADARVALUES:0.342017,0.457293,0.361701,0.025836,0.000000,278.000000,236.000000,42.000000,3.000000,0.000000,0.000000,0.000000,0.000000,0.000000,0.342017,0.457293,0.361701,0.025836,0.000000,278.000000,236.000000,42.000000,3.000000,0.000000,0.000000,0.000000,0.000000,0.000000;
#CREDIT:;
#NOTES:
// measure 0
0000
0000
0000
0000
,  // measure 1
0000
0000
0000
0000
,  // measure 2
0000
0000
0000
0000
,  // measure 3
0000
0000
0000
0000
,  // measure 4
1001
0000
1000
0000
1000
0001
0100
0001
,  // measure 5
1000
0000
1000
0000
1000
0001
0100
0001
,  // measure 6
1000
0000
0001
1000
0001
0000
1000
0001
,  // measure 7
1000
0000
0001
0000
1000
0001
1000
0001
,  // measure 8
1000
0001
1000
1100
,  // measure 9
0101
1100
0101
1100
,  // measure 10
0101
0011
0101
1100
,  // measure 11
1010
1100
0101
0011
,  // measure 12
0101
0000
0100
0001
0100
0000
0100
0000
,  // measure 13
1001
0000
0100
0001
0100
0000
0100
0000
,  // measure 14
1001
0000
0100
0001
0100
0000
0100
0000
,  // measure 15
0010
0010
1000
1000
,  // measure 16
0100
0000
0001
1000
0100
0000
0100
0000
,  // measure 17
0100
0000
0001
1000
0100
0000
0100
0000
,  // measure 18
0100
0000
0001
1000
0100
0000
0001
1000
,  // measure 19
0100
0000
0001
1000
0100
0000
0100
0000
,  // measure 20
1001
0010
1000
1000
,  // measure 21
0020
0000
0130
0000
,  // measure 22
0001
0010
0100
1000
,  // measure 23
0020
0000
0130
0000
,  // measure 24
0001
1000
0100
1000
,  // measure 25
0002
0000
0000
0000
,  // measure 26
0103
0000
0010
0000
,  // measure 27
1000
1000
0101
1000
,  // measure 28
0101
1000
0101
1000
,  // measure 29
0001
1000
0101
1000
,  // measure 30
0101
1000
0101
1000
,  // measure 31
0001
1000
0101
1000
,  // measure 32
0101
1000
0101
1000
,  // measure 33
0001
1000
0101
1000
,  // measure 34
0101
1000
0101
1000
,  // measure 35
0001
1000
0001
0000
0010
0000
1000
0000
,  // measure 36
0010
0001
0000
0000
,  // measure 37
1000
0001
1000
0000
0100
0000
0001
0000
,  // measure 38
0100
1000
0000
0001
,  // measure 39
1000
0100
0100
0010
,  // measure 40
0010
0001
0000
1000
,  // measure 41
0001
0100
0010
1000
,  // measure 42
0001
0100
0010
1000
,  // measure 43
0001
0000
0100
0000
1000
0001
0100
0000
,  // measure 44
0100
0000
0100
0000
1000
0001
0100
0000
,  // measure 45
0100
0000
0100
0000
1000
0001
0100
0000
,  // measure 46
1000
0001
0010
0000
1000
0001
0100
0000
,  // measure 47
0100
0000
0100
0000
1000
0001
0100
0000
,  // measure 48
0100
0000
0100
0000
1000
0001
0100
0000
,  // measure 49
0100
0000
0100
0000
1000
0001
0100
0000
,  // measure 50
1000
0001
0010
0000
1000
0001
0100
0000
,  // measure 51
0100
0001
1100
0001
,  // measure 52
1100
0001
1100
0001
,  // measure 53
1000
0001
1100
0001
,  // measure 54
1100
0001
1100
0001
,  // measure 55
1000
0001
1100
0001
,  // measure 56
1100
0001
1100
0001
,  // measure 57
1000
0001
1100
0001
,  // measure 58
1100
0001
1100
0001
,  // measure 59
1000
0000
0000
0000
;

//---------------dance-single - ----------------
#NOTEDATA:;
#CHARTNAME:;
#STEPSTYPE:dance-single;
#DESCRIPTION:;
#CHARTSTYLE:;
#DIFFICULTY:Easy;
#METER:4;
#RADARVALUES:0.248516,0.330267,0.034448,0.025836,0.000000,202.000000,198.000000,4.000000,3.000000,0.000000,0.000000,0.000000,0.000000,0.000000,0.248516,0.330267,0.034448,0.025836,0.000000,202.000000,198.000000,4.000000,3.000000,0.000000,0.000000,0.000000,0.000000,0.000000;
#CREDIT:;
#NOTES:
// measure 0
0000
0000
0000
0000
,  // measure 1
0000
0000
0000
0000
,  // measure 2
0000
0000
0000
0000
,  // measure 3
0000
0000
0000
0000
,  // measure 4
0010
0010
0010
1000
,  // measure 5
0100
0100
0100
0001
,  // measure 6
1000
1000
0001
0001
,  // measure 7
0100
0100
0100
0010
,  // measure 8
1000
1000
1000
0101
,  // measure 9
1100
0101
1100
0001
,  // measure 10
0010
1000
0100
0001
,  // measure 11
0010
1000
0100
0001
,  // measure 12
0010
0010
0100
0000
,  // measure 13
1000
0001
0100
0000
,  // measure 14
0001
0001
0100
0100
,  // measure 15
0001
1000
0100
0000
,  // measure 16
0010
0100
1000
0000
,  // measure 17
0010
0010
0100
0000
,  // measure 18
0001
0001
0010
0010
,  // measure 19
0001
0100
0010
0000
,  // measure 20
1000
0100
0001
0000
,  // measure 21
0020
0000
0130
0000
,  // measure 22
0001
0100
1000
0000
,  // measure 23
0020
0000
0130
0000
,  // measure 24
1000
0100
0001
0000
,  // measure 25
0020
0000
0130
0000
,  // measure 26
0001
0000
1000
0000
,  // measure 27
0100
0010
0010
0001
,  // measure 28
0001
1000
1000
0100
,  // measure 29
0100
0010
0010
0001
,  // measure 30
0001
1000
1000
0100
,  // measure 31
0100
0001
0100
1000
,  // measure 32
0100
0001
0100
1000
,  // measure 33
0100
0001
0100
1000
,  // measure 34
0100
0001
0100
1000
,  // measure 35
0100
0001
0001
0001
,  // measure 36
0010
1000
1000
1000
,  // measure 37
0100
0001
0010
1000
,  // measure 38
0100
0001
0001
0001
,  // measure 39
0010
1000
1000
1000
,  // measure 40
0100
0001
0001
0001
,  // measure 41
0010
1000
0100
0001
,  // measure 42
0010
1000
0100
0001
,  // measure 43
0010
1000
1000
1000
,  // measure 44
0000
0001
1000
0100
,  // measure 45
0000
0010
0100
0010
,  // measure 46
0001
1000
0001
0100
,  // measure 47
0000
0010
0010
0100
,  // measure 48
0000
0001
1000
0100
,  // measure 49
0000
0010
0001
0100
,  // measure 50
0010
1000
0001
1000
,  // measure 51
0000
0001
0100
0001
,  // measure 52
1000
0001
0100
0001
,  // measure 53
1000
0100
1000
0001
,  // measure 54
1000
0100
1000
0001
,  // measure 55
1000
0010
1000
0001
,  // measure 56
0010
0001
0100
0001
,  // measure 57
1000
0100
1000
0010
,  // measure 58
1000
0001
1000
0100
,  // measure 59
0001
0000
0000
0000
;

//---------------dance-single - ----------------
#NOTEDATA:;
#CHARTNAME:;
#STEPSTYPE:dance-single;
#DESCRIPTION:;
#CHARTSTYLE:;
#DIFFICULTY:Beginner;
#METER:2;
#RADARVALUES:0.178390,0.203242,0.000000,0.025836,0.000000,145.000000,145.000000,0.000000,3.000000,0.000000,0.000000,0.000000,0.000000,0.000000,0.178390,0.203242,0.000000,0.025836,0.000000,145.000000,145.000000,0.000000,3.000000,0.000000,0.000000,0.000000,0.000000,0.000000;
#CREDIT:;
#NOTES:
// measure 0
0000
0000
0000
0000
,  // measure 1
0000
0000
0000
0000
,  // measure 2
0000
0000
0000
0000
,  // measure 3
0000
0000
0000
0000
,  // measure 4
1000
0000
0001
0000
,  // measure 5
0100
0000
0010
0000
,  // measure 6
1000
0000
0001
0000
,  // measure 7
0010
0000
0100
0000
,  // measure 8
1000
0000
0001
0000
,  // measure 9
0100
0000
0010
0000
,  // measure 10
1000
0000
0001
0000
,  // measure 11
0100
0000
0010
0000
,  // measure 12
1000
1000
1000
0000
,  // measure 13
0001
0001
0001
0000
,  // measure 14
0100
0100
0100
0000
,  // measure 15
0010
0000
1000
0000
,  // measure 16
0100
0100
0100
0000
,  // measure 17
0010
0010
0010
0000
,  // measure 18
0001
0001
0001
0000
,  // measure 19
1000
0000
0100
0000
,  // measure 20
0010
0000
0001
0000
,  // measure 21
0200
0000
0300
0000
,  // measure 22
0100
0000
0010
0000
,  // measure 23
2000
0000
3000
0000
,  // measure 24
0100
0000
0010
0000
,  // measure 25
0002
0000
0003
0000
,  // measure 26
0100
0000
0010
0000
,  // measure 27
0100
0100
0100
0100
,  // measure 28
0100
0100
0100
0100
,  // measure 29
0000
1000
1000
1000
,  // measure 30
1000
1000
1000
1000
,  // measure 31
0000
0001
0001
0001
,  // measure 32
0001
0001
0001
0001
,  // measure 33
0000
0010
0010
0010
,  // measure 34
0010
0010
0010
0010
,  // measure 35
0000
0001
0000
1000
,  // measure 36
0000
0010
0000
0100
,  // measure 37
0000
0001
0000
0010
,  // measure 38
0000
0100
0000
1000
,  // measure 39
0000
0010
0000
0100
,  // measure 40
0000
0001
0000
0010
,  // measure 41
0000
1000
0000
0010
,  // measure 42
0000
0001
0000
0010
,  // measure 43
0000
1000
1000
1000
,  // measure 44
0000
0001
0001
0001
,  // measure 45
0000
0100
0100
0100
,  // measure 46
0000
0010
0000
1000
,  // measure 47
0000
0100
0100
0100
,  // measure 48
0000
1000
1000
1000
,  // measure 49
0000
0001
0001
0001
,  // measure 50
0000
0100
0000
0010
,  // measure 51
0000
1000
1000
1000
,  // measure 52
1000
1000
1000
1000
,  // measure 53
0000
0010
0010
0010
,  // measure 54
0010
0010
0010
0010
,  // measure 55
0000
0100
0100
0100
,  // measure 56
0100
0100
0100
0100
,  // measure 57
0000
0001
0001
0001
,  // measure 58
0001
0001
0001
0001
,  // measure 59
0001
0000
0000
0000
;
