#TITLE:Emerald Rush;
#SUBTITLE:;
#ARTIST:Jon Hopkins;
#TITLETRANSLIT:;
#SUBTITLETRANSLIT:;
#ARTISTTRANSLIT:;
#GENRE:Singularity;
#CREDIT:;
#BANNER:Emerald Rush-bn.png;
#BACKGROUND:Emerald Rush-bg.png;
#LYRICSPATH:;
#CDTITLE:;
#MUSIC:Emerald Rush.mp3;
#OFFSET:-0.037000;
#SAMPLESTART:58.888836;
#SAMPLELENGTH:34.205612;
#LASTBEATHINT:209.992310;
#SELECTABLE:YES;
#BPMS:0.000000=107.000000
;
#STOPS:
;
#BGCHANGES:-0.250=Emerald Rush-video.avi=1.000=0=0=1=====,
99999=-nosongbg-=1.000=0=0=0 // don't automatically add -songbackground-
;
#KEYSOUNDS:;
#ATTACKS:;

//---------------dance-single - ----------------
#NOTES:
     dance-single:
     :
     Challenge:
     9:
     0.463561,0.505263,0.440763,0.402766,0.471161,427.000000,369.000000,58.000000,53.000000,0.000000,0.000000,0.463561,0.505263,0.440763,0.402766,0.471161,427.000000,369.000000,58.000000,53.000000,0.000000,0.000000:
0000
0000
0000
0000
,
0000
0000
0000
0000
,
0000
0000
0000
0000
,
0000
0000
0000
0000
,
0000
0000
0000
0000
,
0001
0000
0000
0000
0000
0000
0202
0000
0000
0303
0000
0001
0100
0000
0000
0010
0000
0000
2020
0000
0000
3030
0000
1000
,
0010
0000
0000
0100
0000
0000
2002
0000
0000
3003
0000
0100
0010
0000
0000
1000
0000
0000
1010
0000
0000
0001
0000
0100
,
0000
0000
0000
0010
0000
0000
0202
0000
0000
0303
0000
0100
0010
0000
0000
1000
0000
0000
1100
0000
0000
0000
0000
0001
,
1000
0000
0000
0001
0000
0000
0202
0000
0000
0303
0000
0100
0010
0000
0000
1000
0000
0000
1001
0000
0000
0010
0000
1000
,
0000
0000
0000
0100
0000
0000
2200
0000
0000
3300
0000
0001
0100
0000
0000
0010
0000
0000
2020
0000
0000
3030
0000
0001
,
1000
0000
0000
0100
0000
0000
0220
0000
0000
0330
0000
0001
0100
0000
0000
0010
0000
0000
2002
0000
0000
3003
0000
1000
,
0100
0000
0000
0010
0000
0000
0022
0000
0000
0033
0000
0001
1000
0000
0001
0000
0000
0000
0100
0000
0000
0100
0000
0000
,
0010
0000
1000
0000
0000
0000
2002
0000
0000
3003
0000
0000
0010
0000
1000
0000
0000
0000
1001
0000
0000
0001
0000
0000
,
0100
0000
0001
0000
0000
0000
2002
0000
0000
3003
0000
0100
0010
0000
1000
0000
0000
0000
0220
0000
0000
0330
0000
0001
,
0100
0000
0010
0000
0000
0000
0202
0000
0000
0303
0000
0010
1000
0000
0010
0000
0000
0000
0110
0000
0000
0100
0000
0000
,
0001
0000
1000
0000
0000
0000
2002
0000
0000
3003
0000
0000
0001
0000
0010
0000
0000
0000
0022
0000
0000
0033
0000
1000
,
0100
0000
0000
0010
0000
0000
2200
0000
0000
3300
0000
0010
0100
0000
0000
0010
0000
0000
1100
0000
0000
0010
0000
0100
,
0000
0000
0000
0010
0000
0000
0202
0000
0000
0303
0000
0010
0100
0000
0000
0010
0000
0000
0202
0000
0000
0303
0000
0010
,
0100
0000
0000
0010
0000
0000
0202
0000
0000
0303
0000
0010
0100
0000
0000
0010
0000
0000
0101
0000
0000
0010
0000
0100
,
0000
0000
0000
0001
0000
0000
0202
0000
0000
0303
0000
0000
1000
0000
0010
0000
0000
0000
1010
0000
0000
0010
0000
0000
,
1000
0000
0001
0000
0000
0000
1001
0000
0000
0000
0000
1000
0100
0000
0000
1000
0000
0000
1100
0000
0000
0100
0000
0000
,
1000
0001
0000
1001
0000
0000
0001
0100
0010
1000
0010
0100
,
0001
0010
0100
1000
0100
0010
0001
1000
0001
0100
1000
0100
,
0001
0010
0001
0010
0100
1000
0100
0010
0001
1000
0001
0100
,
0010
1000
0001
0100
0010
1000
0001
0100
0010
1000
0001
0100
,
0010
0000
0000
0000
1000
0000
0000
0000
0001
0000
0000
0000
0100
0000
0000
0000
0010
0000
0000
0000
1000
0000
0000
0000
0001
0000
0000
0000
0100
0000
0000
0000
0010
0000
0000
0000
1000
0000
0000
0001
0000
0000
0100
0000
0000
0010
0000
0000
,
1000
0000
0000
0001
0000
0000
0100
0000
0000
0010
0000
0000
2000
0000
0000
0000
0000
0000
0000
0000
0000
0000
3001
0000
0100
0000
0000
0000
0000
0000
0001
0000
0000
0000
0000
0000
2002
0000
0000
0000
0000
0000
3003
0000
0000
0000
0010
0000
,
0100
0000
0000
0010
0000
0000
1000
0000
0000
0000
0000
0001
1000
0000
0000
0100
0000
0000
0010
0000
0000
0000
0000
0001
,
0100
0000
0000
0010
0000
0000
1000
0000
0000
0000
0000
0010
0100
0000
0001
0000
0000
0000
1001
0000
0000
1001
0000
0000
,
0001
0000
1000
0000
0000
0000
1001
0000
0000
0000
0000
0000
0010
0000
0100
0000
0000
0000
0010
0000
0000
1000
0000
0000
,
0001
0100
0000
0110
0000
0000
1000
0010
0000
1001
0000
0000
,
0001
0000
0100
0000
0000
0000
1000
0000
0100
0000
0000
0000
0001
0000
0010
0000
0000
0000
0110
0000
0000
0000
0000
1000
,
0001
0000
0100
0000
0000
0000
0101
0000
0000
0000
0000
0000
0001
0000
0010
0000
0000
0000
0110
0000
0000
0000
0000
1000
,
0100
0000
0000
0010
0000
0000
0100
0000
0000
0000
0000
1000
0001
0000
0000
0100
0000
0000
0001
0000
0000
0001
0000
0010
,
0000
0000
0000
0100
0000
0000
1000
0000
0000
0001
0000
0100
0000
0000
0000
0010
0000
0000
0202
0000
0000
0303
0000
0010
,
1000
0000
0000
0010
0000
0000
0100
0000
0000
0001
0000
0000
1000
0000
0000
0100
0000
0000
1001
0000
0000
0001
0000
1000
,
0000
0000
0000
0100
0000
0000
0100
0000
0000
0010
0000
0000
0001
0000
0000
1000
0000
0000
2020
0000
0000
3030
0000
0001
,
0100
0000
0000
0010
0000
0000
0100
0000
0000
0001
0000
0001
0000
0000
0000
1010
0000
0000
0220
0000
0000
0330
0000
0001
,
1000
0000
0000
0100
0000
0000
0010
0000
0000
0001
0000
0000
1000
0000
0000
0100
0000
0000
2200
0000
0000
3300
0000
0010
,
0100
0000
0000
0001
0000
0000
1000
0000
0000
0001
0000
0000
0100
0000
0001
0000
0000
0000
1001
0000
0000
0010
0000
0000
,
1000
0001
0000
1001
0000
0000
0001
0010
0000
0011
0000
0000
,
1000
0100
0000
0110
0000
0000
0001
0100
1000
0001
0010
1000
,
0001
0100
1000
0100
0001
1000
0010
0001
1000
0100
0001
0100
,
0010
0000
1000
0010
0000
0000
0100
0000
0000
0001
0000
0000
0010
0000
0000
0100
0000
0000
1000
0000
0000
0001
0000
0000
,
0100
0010
0100
1000
0100
0010
0100
0001
,
1000
0000
0000
0001
0000
0000
0101
0000
0000
0000
0000
1000
0010
0000
0000
1000
0000
0000
1100
0000
0000
0000
0000
0001
,
0010
0000
0000
0001
0000
0000
0101
0000
0000
0000
0000
1000
0100
0000
0000
1000
0000
0000
1100
0000
0000
1000
0000
0001
,
0000
0000
0000
1000
0000
0000
1100
0000
0000
0000
0000
0001
1000
0000
0000
0001
0000
0000
0110
0000
0000
0000
0000
0001
,
1000
0000
0000
0001
0000
0000
0101
0000
0000
0000
0000
1000
0010
0000
0000
1000
0000
0000
0100
0000
0000
0000
0000
0000
,
0010
0100
0000
0000
;

//---------------dance-single - ----------------
#NOTES:
     dance-single:
     :
     Hard:
     8:
     0.402766,0.411696,0.235580,0.288776,0.357170,371.000000,340.000000,31.000000,38.000000,0.000000,0.000000,0.402766,0.411696,0.235580,0.288776,0.357170,371.000000,340.000000,31.000000,38.000000,0.000000,0.000000:
0000
0000
0000
0000
,
0000
0000
0000
0000
,
0000
0000
0000
0000
,
0000
0000
0000
0000
,
0000
0000
0000
0000
,
0001
0000
0000
0000
0000
0000
2000
0000
0000
3000
0000
0001
0100
0000
0000
0010
0000
0000
0200
0000
0000
0300
0000
0001
,
0010
0000
0000
0100
0000
0000
2000
0000
0000
3000
0000
0100
0010
0000
0000
0001
0000
0000
1000
0000
0000
0001
0000
0100
,
0000
0000
0000
0010
0000
0000
2000
0000
0000
3000
0000
0100
0010
0000
0000
0001
0000
0000
1001
0000
0000
0000
0000
0001
,
1000
0000
0000
0001
0000
0000
0020
0000
0000
0030
0000
0100
0010
0000
0000
0001
0000
0000
1000
0000
0000
0010
0000
1000
,
0000
0000
0000
0100
0000
0000
0020
0000
0000
0030
0000
0001
0100
0000
0000
0010
0000
0000
2000
0000
0000
3000
0000
0001
,
1000
0000
0000
0100
0000
0000
0020
0000
0000
0030
0000
0001
0100
0000
0000
0010
0000
0000
2000
0000
0000
3000
0000
0001
,
0100
0000
0000
0010
0000
0000
2000
0000
0000
3000
0000
0001
1000
0000
0001
0000
0000
0000
0100
0000
0000
0100
0000
0000
,
0010
0000
1000
0000
0000
0000
2002
0000
0000
3003
0000
0000
0010
0000
1000
0000
0000
0000
2002
0000
0000
3003
0000
0000
,
0100
0000
0001
0000
0000
0000
2000
0000
0000
3000
0000
0000
0010
0000
0001
0000
0000
0000
2000
0000
0000
3000
0000
0000
,
0100
0000
0010
0000
0000
0000
0202
0000
0000
0303
0000
0000
1000
0000
0010
0000
0000
0000
0110
0000
0000
0100
0000
0000
,
0001
0000
1000
0000
0000
0000
2002
0000
0000
3003
0000
0000
0001
0000
0010
0000
0000
0000
0022
0000
0000
0033
0000
1000
,
0100
0000
0000
0010
0000
0000
0200
0000
0000
0300
0000
0010
0001
0000
0000
0010
0000
0000
0200
0000
0000
0310
0000
0001
,
0000
0000
0000
1000
0000
0000
0020
0000
0000
0030
0000
1000
0100
0000
0000
0010
0000
0000
0200
0000
0000
0300
0000
0010
,
0001
0000
0000
0010
0000
0000
0200
0000
0000
0300
0000
0010
0001
0000
0000
0010
0000
0000
0100
0000
0000
1000
0000
0100
,
0000
0000
0000
0010
0000
0000
0202
0000
0000
0303
0000
0000
1000
0000
0010
0000
0000
0000
1010
0000
0000
0010
0000
0000
,
1000
0000
0001
0000
0000
0000
1001
0000
0000
0000
0000
1000
0100
0000
0000
1000
0000
0000
1100
0000
0000
0100
0000
0000
,
1000
0001
0000
1001
0000
0000
0001
0100
0010
1000
0000
0000
,
1000
0010
0100
0001
0000
0000
0001
0010
0100
1000
0000
0000
,
1000
0100
0010
0001
0000
0000
0001
0100
1000
0100
0000
0000
,
0100
0001
0010
0001
0000
0000
0001
0010
1000
0010
0000
0000
,
0010
0000
0000
0000
0100
0000
0000
0000
1000
0000
0000
0000
0001
0000
0000
0000
0100
0000
0000
0000
0010
0000
0000
0000
1000
0000
0000
0000
0000
0000
0000
0000
0000
0000
0000
0000
1000
0000
0000
0100
0000
0000
1000
0000
0000
0000
0000
0000
,
0001
0000
0000
0100
0000
0000
0001
0000
0000
0000
0000
0000
2000
0000
0000
0000
0000
0000
0000
0000
0000
0000
3001
0000
0100
0000
0000
0000
0000
0000
0001
0000
0000
0000
0000
0000
2002
0000
0000
0000
0000
0000
3003
0000
0000
0000
0010
0000
,
0100
0000
0000
0010
0000
0000
1000
0000
0000
0001
0000
0000
1000
0000
0000
0100
0000
0000
0020
0000
0000
0030
0000
0001
,
0100
0000
0000
0010
0000
0000
1000
0000
0000
0010
0000
0000
0100
0000
0001
0000
0000
0000
1000
0000
0000
0001
0000
0000
,
1000
0000
0100
0000
0000
0000
1001
0000
0000
0000
0000
0000
0010
0000
0100
0000
0000
0000
0010
0000
0000
1000
0000
0000
,
0001
0100
0000
0110
0000
0000
1000
0010
0000
1001
0000
0000
,
0001
0000
0100
0000
0000
0000
1000
0000
0100
0000
0000
0000
0001
0000
0010
0000
0000
0000
0110
0000
0000
0000
0000
1000
,
0001
0000
0100
0000
0000
0000
0101
0000
0000
0000
0000
0000
0001
0000
0010
0000
0000
0000
0110
0000
0000
0000
0000
1000
,
0100
0000
0000
0010
0000
0000
0100
0000
0000
0000
0000
1000
0001
0000
0000
0100
0000
0000
0001
0000
0000
0001
0000
0010
,
0000
0000
0000
0100
0000
0000
1000
0000
0000
0001
0000
0100
0000
0000
0000
0010
0000
0000
0200
0000
0000
0300
0000
0001
,
0010
0000
0000
0100
0000
0000
1000
0000
0000
0010
0000
0000
1000
0000
0000
0100
0000
0000
0010
0000
0000
0001
0000
1000
,
0000
0100
0100
0010
0001
1000
2020
3030
,
0100
0000
0000
0010
0000
0000
0100
0000
0000
0001
0000
1000
0000
0000
0000
0010
0000
0000
0200
0000
0000
0300
0000
0001
,
1000
0000
0000
0100
0000
0000
0010
0000
0000
0001
0000
0000
1000
0000
0000
0100
0000
0000
2000
0000
0000
3000
0000
0010
,
0100
0000
0000
0001
0000
0000
1000
0000
0000
0001
0000
0000
0100
0000
0001
0000
0000
0000
1001
0000
0000
0010
0000
0000
,
1000
0001
0000
1001
0000
0000
0001
0010
0000
0011
0000
0000
,
1000
0100
0000
0110
0000
0000
0001
0100
0001
1000
0000
0000
,
0010
1000
0010
0100
0000
0000
0001
0010
0100
1000
0000
0000
,
0010
0000
1000
0010
0000
0000
0100
0000
0000
0001
0000
0000
0010
0000
0000
0100
0000
0000
1000
0000
0000
0001
0000
0000
,
0100
0010
0100
1000
0100
0010
0100
0001
,
1000
0000
0000
0001
0000
0000
0101
0000
0000
0000
0000
1000
0010
0000
0000
1000
0000
0000
1100
0000
0000
0000
0000
0001
,
0010
0000
0000
0001
0000
0000
0101
0000
0000
0000
0000
1000
0100
0000
0000
1000
0000
0000
1100
0000
0000
1000
0000
0001
,
0000
0000
0000
1000
0000
0000
1100
0000
0000
0000
0000
0001
1000
0000
0000
0001
0000
0000
0110
0000
0000
0000
0000
0001
,
1000
0000
0000
0001
0000
0000
0101
0000
0000
0000
0000
1000
0010
0000
0000
1000
0000
0000
0100
0000
0000
0000
0000
0000
,
0010
0100
0000
0000
;

//---------------dance-single - ----------------
#NOTES:
     dance-single:
     :
     Medium:
     7:
     0.270320,0.280702,0.053196,0.592751,0.000000,249.000000,242.000000,7.000000,78.000000,0.000000,0.000000,0.270320,0.280702,0.053196,0.592751,0.000000,249.000000,242.000000,7.000000,78.000000,0.000000,0.000000:
0000
0000
0000
0000
,
0000
0000
0000
0000
,
0000
0000
0000
0000
,
0000
0000
0000
0000
,
0000
0000
0000
0000
,
0001
0000
0020
0000
0130
1000
0200
0000
,
1300
0001
2000
0000
3010
1000
0020
0000
,
0130
0001
0200
0000
0310
1000
0020
0000
,
0130
0001
0200
0000
0310
1000
0020
0000
,
1030
0100
2000
0000
3001
0010
0002
0000
,
1003
0100
2000
0000
3001
0010
0002
0000
,
0103
0010
2000
0000
3010
0100
0002
0000
,
1003
1000
0200
0000
0310
0100
2000
0000
,
3001
0001
0200
0000
0310
0100
0002
0000
,
1003
1000
0200
0000
0301
0001
0200
0000
,
1300
1000
0002
0000
0103
0100
0020
0000
,
1030
0100
0002
0000
0103
1000
0200
0000
,
0310
0000
0011
0000
0100
0010
0200
0000
,
0301
0000
0101
0000
0010
0100
0020
0000
,
1030
0000
1010
0000
0100
1000
0200
0000
,
0010
0000
0310
0000
0100
0001
0200
0000
,
1000
0000
1300
0000
0020
0030
0002
0003
,
0200
0300
2000
3000
0020
0030
0200
0300
,
0002
0003
0020
0030
0200
0300
2000
3000
,
0020
0030
0200
0300
0002
0003
0020
0030
,
0200
0300
2000
3000
0002
0003
0020
0030
,
0200
0300
1001
0000
1000
0100
2000
0000
,
3010
0100
0001
0100
0020
0000
1030
0000
,
0001
0100
0010
0100
0002
0000
1003
0000
,
0100
1000
0001
1000
0200
0000
0310
0000
,
0001
0100
0002
0000
1003
0010
2000
0000
,
3100
0010
0200
0000
1300
0001
0200
0000
,
0310
1000
0002
0000
0013
0001
0020
0000
,
0031
0100
1000
0000
1000
0010
0100
0001
,
0100
0010
2000
0000
3001
0010
0100
1000
,
0100
0010
0002
0000
1003
0001
0200
0000
,
0310
1000
0020
0000
0130
0001
0020
0000
,
0130
1000
0100
0000
0010
0000
1001
0000
,
0010
0001
0200
0000
0310
1000
0002
0000
,
0013
0100
0020
0000
0031
1000
0200
0000
,
1300
1000
0002
0000
1003
0010
2000
0000
,
3001
0001
0200
0000
0310
0100
0001
0000
,
0010
0100
2000
3000
0020
0030
0002
0003
,
0200
0300
2000
3000
0020
0030
0002
0003
,
0200
0300
0020
0030
1000
0100
0001
0000
,
0001
0100
1000
0000
0010
0000
0110
0000
,
1000
0100
1000
0000
0010
0000
0110
0000
,
0001
0100
0001
0000
0010
0000
0001
0000
,
0100
1000
0100
0001
,
0010
0100
0000
0000
;

//---------------dance-single - ----------------
#NOTES:
     dance-single:
     :
     Easy:
     4:
     0.196498,0.224561,0.083593,0.448363,0.000000,181.000000,170.000000,11.000000,59.000000,0.000000,0.000000,0.196498,0.224561,0.083593,0.448363,0.000000,181.000000,170.000000,11.000000,59.000000,0.000000,0.000000:
// measure 0
0000
0000
0000
0000
,  // measure 1
0000
0000
0000
0000
,  // measure 2
0000
0000
0000
0000
,  // measure 3
0000
0000
0000
0000
,  // measure 4
0000
0000
0000
0000
,  // measure 5
0010
0002
0103
0020
,  // measure 6
1030
0200
1300
0002
,  // measure 7
0013
0200
0310
0002
,  // measure 8
1003
0020
1030
0200
,  // measure 9
0310
0002
1003
0020
,  // measure 10
1030
0200
0310
0002
,  // measure 11
1003
0200
1300
0010
,  // measure 12
0100
0101
0001
0010
,  // measure 13
0100
1100
0100
0010
,  // measure 14
0100
1001
0100
0001
,  // measure 15
0010
0100
0010
1001
,  // measure 16
0010
1001
0010
1001
,  // measure 17
0001
0100
1000
0100
,  // measure 18
0001
0010
0100
1000
,  // measure 19
0010
0100
0002
1003
,  // measure 20
1100
0000
2000
3001
,  // measure 21
0101
0000
0020
1030
,  // measure 22
2000
3001
0002
0103
,  // measure 23
0200
0310
1000
1000
,  // measure 24
0001
0001
0100
0100
,  // measure 25
0010
0020
2030
3002
,  // measure 26
0103
2002
3003
0020
,  // measure 27
1030
1000
0100
0020
,  // measure 28
0130
1000
1000
0002
,  // measure 29
0003
0100
0010
1000
,  // measure 30
0001
0020
0130
0200
,  // measure 31
1300
2000
3001
0100
,  // measure 32
0020
1030
0002
0013
,  // measure 33
0020
0130
1000
0020
,  // measure 34
2030
3001
0001
0100
,  // measure 35
0002
1003
1000
0020
,  // measure 36
2030
3001
0001
0020
,  // measure 37
0230
1300
2000
3001
,  // measure 38
0002
0103
2000
3010
,  // measure 39
0002
0103
2000
3010
,  // measure 40
0020
0130
0200
0010
,  // measure 41
0310
0010
0020
0100
,  // measure 42
0100
0130
0002
2003
,  // measure 43
3100
0002
0103
1000
,  // measure 44
1000
0100
0200
0320
,  // measure 45
0031
0001
0100
1001
,  // measure 46
0200
0301
0100
1001
,  // measure 47
0200
0301
0200
0300
,  // measure 48
0020
0030
0200
0300
,  // measure 49
0020
0030
0000
0000
;

//---------------dance-single - ----------------
#NOTES:
     dance-single:
     :
     Beginner:
     2:
     0.118333,0.129664,0.000000,0.243180,0.000000,109.000000,109.000000,0.000000,32.000000,0.000000,0.000000,0.118333,0.129664,0.000000,0.243180,0.000000,109.000000,109.000000,0.000000,32.000000,0.000000,0.000000:
// measure 0
0000
0000
0000
0000
,  // measure 1
0000
0000
0000
0000
,  // measure 2
0000
0000
0000
0000
,  // measure 3
0000
0000
0000
0000
,  // measure 4
0000
0000
0000
0000
,  // measure 5
0000
0002
0003
0002
,  // measure 6
0003
0002
0003
0002
,  // measure 7
0003
2000
3000
2000
,  // measure 8
3000
2000
3000
2000
,  // measure 9
3000
0020
0030
0020
,  // measure 10
0030
0020
0030
0020
,  // measure 11
0030
0200
0300
0001
,  // measure 12
0001
0001
0000
1000
,  // measure 13
1000
1000
0000
0010
,  // measure 14
0000
0100
0100
0100
,  // measure 15
0000
0000
0001
0000
,  // measure 16
0010
0000
1000
1000
,  // measure 17
0000
0100
0000
0010
,  // measure 18
0000
0001
0001
0001
,  // measure 19
0000
0100
0000
0010
,  // measure 20
0010
0010
0000
1000
,  // measure 21
1000
1000
0000
0100
,  // measure 22
0100
0100
0000
0010
,  // measure 23
0010
0010
0000
0001
,  // measure 24
0000
1000
0000
0001
,  // measure 25
0000
0100
0000
0010
,  // measure 26
0000
0100
0100
0200
,  // measure 27
0300
0010
0010
0020
,  // measure 28
0030
0100
0100
0200
,  // measure 29
0300
0001
0001
0002
,  // measure 30
0003
1000
1000
2000
,  // measure 31
3000
0100
0100
0100
,  // measure 32
0200
0300
0020
0030
,  // measure 33
0020
0030
0001
0001
,  // measure 34
0001
0002
0003
1000
,  // measure 35
1000
2000
3000
0020
,  // measure 36
0030
0200
0300
0002
,  // measure 37
0003
0020
0030
0200
,  // measure 38
0300
1000
1000
2000
,  // measure 39
3000
0100
0000
0010
,  // measure 40
0020
0030
0001
0001
,  // measure 41
0002
0003
1000
1000
,  // measure 42
2000
3000
0010
0000
,  // measure 43
0100
0000
0001
0000
,  // measure 44
0010
0000
0100
0000
,  // measure 45
1000
1000
0000
1000
,  // measure 46
0000
0010
0000
0100
,  // measure 47
0000
0001
0000
1000
,  // measure 48
0000
0010
0000
0100
;
