#VERSION:0.83;
#TITLE:Eikonoklasm;
#SUBTITLE:(Omega Boss Theme);
#ARTIST:Masayoshi Soken;
#TITLETRANSLIT:;
#SUBTITLETRANSLIT:;
#ARTISTTRANSLIT:;
#GENRE:Final Fantasy XVI;
#ORIGIN:;
#CREDIT:[Ness];
#BANNER:Eikonoklasm (Omega Boss Theme).png;
#BACKGROUND:Eikonoklasm (Omega Boss Theme)-bg.png;
#PREVIEWVID:;
#JACKET:Eikonoklasm (Omega Boss Theme)-jacket.png;
#CDIMAGE:;
#DISCIMAGE:;
#LYRICSPATH:;
#CDTITLE:;
#MUSIC:Eikonoklasm (Omega Boss Theme).mp3;
#OFFSET:-0.035000;
#SAMPLESTART:66.969872;
#SAMPLELENGTH:10.105263;
#SELECTABLE:YES;
#DISPLAYBPM:190.000000;
#BPMS:0.000=190.000,
92.000=95.000,
96.000=190.000,
200.750=380.000,
203.000=760.000,
207.000=190.000,
381.000=760.000,
383.000=190.000;
#STOPS:200.750=0.118,
201.500=0.394,
202.000=0.079,
202.500=0.079,
203.000=0.118,
203.500=0.118,
204.000=0.118,
204.500=0.118,
205.000=0.118,
205.500=0.118,
206.000=0.118,
206.500=0.118,
381.000=0.118,
381.500=0.118,
382.000=0.118,
382.500=0.118;
#DELAYS:;
#WARPS:;
#TIMESIGNATURES:0.000=4=4;
#TICKCOUNTS:0.000=2;
#COMBOS:0.000=1;
#SPEEDS:0.000=1.000=0.000=0;
#SCROLLS:0.000=1.000;
#FAKES:;
#LABELS:0.000=Song Start;
#LASTSECONDHINT:165.536179;
#BGCHANGES:;
#KEYSOUNDS:;
#ATTACKS:
;

//---------------dance-single - ----------------
#NOTEDATA:;
#CHARTNAME:;
#STEPSTYPE:dance-single;
#DESCRIPTION:;
#CHARTSTYLE:;
#DIFFICULTY:Hard;
#METER:9;
#RADARVALUES:0.712898,0.761831,0.318906,0.271661,0.118113,845.000000,791.000000,54.000000,46.000000,0.000000,0.000000,0.000000,0.000000,0.000000,0.712898,0.761831,0.318906,0.271661,0.118113,845.000000,791.000000,54.000000,46.000000,0.000000,0.000000,0.000000,0.000000,0.000000;
#CREDIT:;
#DISPLAYBPM:190.000000;
#NOTES:
// measure 0
0000
0000
0000
0000
,  // measure 1
0000
0000
0000
0000
,  // measure 2
0000
0000
0000
0000
,  // measure 3
0000
0000
0000
0000
,  // measure 4
0000
0000
0000
0000
,  // measure 5
0000
0000
0000
0000
,  // measure 6
0000
0000
0000
0000
,  // measure 7
0100
0000
0100
0000
0101
0000
0000
1000
0000
0100
1000
0000
0010
0000
0100
0000
,  // measure 8
0001
0000
1000
0000
1100
0000
0000
0010
0000
0100
0001
0000
1000
0000
0001
0000
,  // measure 9
0010
0000
0010
0000
0110
0000
0000
1000
0000
0010
1000
0000
0001
0000
1000
0000
,  // measure 10
0100
0000
0010
0000
0011
0000
0000
0001
0100
0000
0000
0100
0010
0000
1000
0000
,  // measure 11
0100
0000
0100
0000
1001
0000
0000
0100
0000
0001
1000
0000
0010
0000
0100
0000
,  // measure 12
0001
0000
0010
0000
0110
0000
0000
1000
0000
0010
0100
0000
0001
0000
1000
0000
,  // measure 13
0100
0000
0100
0000
1010
0000
0000
0100
0000
0010
0001
0000
1000
0000
0001
0000
,  // measure 14
0100
0000
0010
0000
1001
0000
0000
0001
0010
0000
0000
0010
1000
0000
0000
0000
,  // measure 15
0100
0000
0100
0000
0101
0000
0000
1000
0000
0100
0010
0000
0001
0000
1000
0000
,  // measure 16
0010
0000
1000
0000
1100
0000
0000
0001
0000
0100
0010
0000
0100
0000
0001
0000
,  // measure 17
0010
0000
0010
0000
1100
0000
0000
1000
0000
0001
0100
0000
0001
0000
1000
0000
,  // measure 18
0010
0000
0100
0000
1001
0000
0000
0001
1000
0000
0000
0100
0001
0000
0000
0000
,  // measure 19
1000
0000
1000
0000
0110
0000
0000
0001
0000
0010
0001
0000
1000
0000
0001
0000
,  // measure 20
0100
0000
0001
0000
0110
0000
0000
0001
0000
0010
0001
0000
1000
0000
0100
0000
,  // measure 21
0010
0000
0010
0000
1001
0000
0000
0100
0000
0010
1000
0000
0100
0000
0010
0000
,  // measure 22
0001
0000
1000
0000
1001
0000
0000
1000
0010
0000
0000
0001
0010
0000
0100
0000
,  // measure 23
2002
0000
0000
0000
,  // measure 24
3003
0000
0000
0000
,  // measure 25
0000
0000
0000
0000
,  // measure 26
0102
0000
1003
0000
0100
1000
0010
0000
,  // measure 27
0010
0001
0100
0000
0100
1000
0010
0000
,  // measure 28
1000
0100
1000
0100
0001
0100
0001
0100
,  // measure 29
1000
0001
0100
0001
1000
0100
1000
0000
,  // measure 30
2010
0000
3100
0000
0001
0010
1000
0000
,  // measure 31
0001
0100
0010
0000
0001
1000
0100
0000
,  // measure 32
0001
0010
1000
0010
0001
0100
0001
0010
,  // measure 33
1000
0010
0001
0100
0010
1000
0100
0000
,  // measure 34
0210
0000
0301
0000
1000
0100
0010
0000
,  // measure 35
1000
0010
0100
1000
0100
0010
1000
0000
,  // measure 36
0001
0100
0001
1000
0010
0001
0010
1000
,  // measure 37
0001
1000
0100
0010
0001
1000
0001
0000
,  // measure 38
0012
0000
1003
0000
0010
1000
0100
0000
,  // measure 39
0100
0001
1000
0000
0001
0010
0100
0000
,  // measure 40
0001
0100
1000
0100
0010
1000
0010
0001
,  // measure 41
1000
0001
0100
0010
1000
0100
1000
0000
,  // measure 42
0101
0000
0000
0000
1000
0000
0001
0100
0001
0000
1000
0000
0100
0000
0010
0000
,  // measure 43
0001
0000
0100
0000
0000
0000
0001
1000
0001
0000
0010
0000
1000
0000
0010
0000
,  // measure 44
0001
0000
0100
0001
1000
0100
1000
0001
,  // measure 45
0100
0000
0010
1000
0100
0000
0101
0000
,  // measure 46
1001
0000
0000
0000
0010
0000
1000
0100
1000
0000
0001
0000
0100
0000
0010
0000
,  // measure 47
1000
0000
0100
0000
0000
0000
1000
0001
1000
0000
0010
0000
0001
0000
0010
0000
,  // measure 48
1000
0000
0001
0100
0010
1000
0100
0010
,  // measure 49
0001
0000
1000
0001
0100
1000
0100
0001
,  // measure 50
0010
0000
0000
0000
0000
0000
0010
0010
,  // measure 51
0001
0001
1000
1000
0001
0001
0101
0000
,  // measure 52
1001
0000
0002
2000
0000
3003
0010
1000
,  // measure 53
0001
0000
0010
1000
0001
0000
0010
1000
,  // measure 54
0001
0010
0100
1000
0001
0100
0001
0010
,  // measure 55
1000
0010
0001
0100
0010
0000
1100
0000
,  // measure 56
0011
0000
2000
0002
0000
3003
0001
0100
,  // measure 57
0010
0000
0001
0100
0010
0000
0001
0100
,  // measure 58
0010
0001
0010
0100
0001
1000
0100
0010
,  // measure 59
0001
1000
0010
0100
0001
0000
1000
0100
,  // measure 60
1000
0001
0001
0100
0001
0000
0010
0001
,  // measure 61
0010
0100
0100
1000
0100
0000
1000
0001
,  // measure 62
0100
0010
1000
0001
1000
0001
0010
0001
,  // measure 63
1000
0001
0100
0001
1000
0000
0001
0100
,  // measure 64
0001
1000
1000
0100
1000
0000
0010
1000
,  // measure 65
0010
0100
0100
0001
0100
0000
0001
1000
,  // measure 66
0100
0010
0001
1000
0010
1000
0100
0001
,  // measure 67
0100
0001
1000
0100
1000
0000
0001
0100
,  // measure 68
0001
0100
0010
1000
0001
0100
0010
0100
,  // measure 69
0001
0100
0010
1000
0010
0100
0001
1000
,  // measure 70
0001
1000
0100
1000
0001
0010
0100
1000
,  // measure 71
0100
0010
0100
0001
0100
0010
0001
1000
,  // measure 72
0001
1000
0010
1000
0100
1000
0001
0100
,  // measure 73
1000
0100
0001
0100
1000
0100
0001
1000
,  // measure 74
0001
1000
0010
1000
0100
0010
0001
1000
,  // measure 75
0010
0100
0002
0000
1000
0000
0103
0000
,  // measure 76
0000
0000
0000
0000
,  // measure 77
0000
0000
0000
0010
,  // measure 78
1000
0001
0010
1000
,  // measure 79
0100
0000
0001
1000
0100
1000
0002
0000
,  // measure 80
1000
0013
0011
2000
,  // measure 81
0001
3100
1100
2000
,  // measure 82
3010
0001
0020
0000
0130
0001
0200
0000
,  // measure 83
0301
1000
0002
0000
0013
0000
1100
0000
,  // measure 84
1001
0000
0010
0001
0010
1000
0100
0000
,  // measure 85
0100
0001
0100
1000
0010
0000
0001
0010
,  // measure 86
0001
0100
0010
0001
0010
0000
1000
0100
,  // measure 87
1000
0001
0100
0010
0001
0000
2000
0000
,  // measure 88
0010
3100
0011
0200
,  // measure 89
0001
0310
1010
0002
,  // measure 90
0103
1000
0200
0000
0310
1000
0020
0000
,  // measure 91
0031
0100
2000
0000
3001
0000
1010
0000
,  // measure 92
0101
0000
0100
1000
0100
0001
1000
0000
,  // measure 93
0010
1000
0010
0001
0100
0000
1000
0001
,  // measure 94
0010
0100
0001
0100
0010
0001
0100
0001
,  // measure 95
1000
0001
0100
0100
0010
0010
2001
0000
,  // measure 96
3001
1000
0010
0001
0000
0201
0000
0000
,  // measure 97
0301
0010
0100
1000
0000
0120
0000
0000
,  // measure 98
1030
0001
0100
0010
0000
1200
0000
0000
,  // measure 99
1300
0001
0010
2002
0000
3003
0100
1000
,  // measure 100
0001
1000
0010
1000
0100
2001
0000
0000
,  // measure 101
3100
1000
0010
0100
0000
0021
0000
0000
,  // measure 102
0031
1000
0010
0001
0000
2010
0000
0000
,  // measure 103
3100
1000
0001
2200
0000
3300
0010
0001
,  // measure 104
0010
0100
0001
0100
0010
1002
0000
0000
,  // measure 105
0013
1000
0010
0001
0000
0201
0000
0000
,  // measure 106
0301
1000
0100
0010
0000
2100
0000
0000
,  // measure 107
3001
1000
0010
2020
0000
3030
0100
1000
,  // measure 108
0100
0010
0100
0001
1000
1200
0000
0000
,  // measure 109
0310
0001
1000
0001
0000
0102
0000
0000
,  // measure 110
0013
0001
1000
0010
0000
2001
0000
0000
,  // measure 111
3010
1000
0100
0220
0000
0330
0001
1000
,  // measure 112
0001
0100
0001
1000
0100
1000
0010
1000
,  // measure 113
0100
1000
0001
1000
0100
0010
0001
0100
,  // measure 114
0001
0010
0100
0010
0001
0010
0100
1000
,  // measure 115
0100
0001
0100
0010
0100
1000
0001
0100
,  // measure 116
0001
1000
0010
0100
0010
0001
0010
0100
,  // measure 117
0001
1000
0010
0100
0001
1000
0100
1000
,  // measure 118
0001
0010
0100
1000
0001
1000
0100
1000
,  // measure 119
0010
0000
0001
0000
0010
0000
1000
0000
0100
0000
0010
0000
0001
0100
0001
0000
,  // measure 120
1000
0010
1000
0100
0010
0001
1000
0001
,  // measure 121
0100
0000
0001
0000
0010
0000
0100
0000
0010
0000
0001
0000
1000
0100
1000
0000
,  // measure 122
0010
1000
1000
0100
0001
0100
0010
0001
,  // measure 123
1000
0001
0001
0100
0010
1000
0100
1000
,  // measure 124
0001
0100
0010
1000
0100
0001
0100
1000
,  // measure 125
0010
0000
0100
0000
0001
0000
1000
0000
0100
0000
1000
0000
0001
0100
0001
0000
,  // measure 126
1000
0000
0100
0000
0010
0000
0001
0000
0100
0000
0001
0000
1000
0010
1000
0000
,  // measure 127
0100
1000
0001
0100
0001
1000
2200
0000
,  // measure 128
0000
0000
0000
0000
,  // measure 129
3300
0000
0000
0000
;

//---------------dance-single - ----------------
#NOTEDATA:;
#CHARTNAME:;
#STEPSTYPE:dance-single;
#DESCRIPTION:;
#CHARTSTYLE:;
#DIFFICULTY:Challenge;
#METER:12;
#RADARVALUES:0.971060,1.066563,0.330717,0.389774,0.693915,1151.000000,1095.000000,56.000000,66.000000,0.000000,0.000000,0.000000,0.000000,0.000000,0.971060,1.066563,0.330717,0.389774,0.693915,1151.000000,1095.000000,56.000000,66.000000,0.000000,0.000000,0.000000,0.000000,0.000000;
#CREDIT:;
#DISPLAYBPM:190.000000;
#NOTES:
// measure 0
0000
0000
0000
0000
,  // measure 1
0000
0000
0000
0000
,  // measure 2
0000
0000
0000
0000
,  // measure 3
0000
0000
0000
0000
,  // measure 4
0000
0000
0000
0000
,  // measure 5
0000
0000
0000
0000
,  // measure 6
0000
0000
0000
0000
,  // measure 7
1000
0000
1000
0000
0010
0000
1000
0100
1000
0001
1000
0010
0100
0000
0100
0001
,  // measure 8
1000
0001
0100
0001
1000
0000
0100
1000
0001
0100
0001
0000
0001
0100
0001
0000
,  // measure 9
0010
0000
0010
0000
0100
0000
1000
0100
0010
0100
1000
0001
0010
0000
0010
0100
,  // measure 10
1000
0100
0010
0001
0100
0000
0100
0010
1000
0001
1000
0000
1000
0100
1000
0000
,  // measure 11
0001
0000
0001
0000
0010
0000
0001
0100
0001
1000
0010
0100
0001
0000
1000
0100
,  // measure 12
1000
0001
1000
0100
1000
0000
0010
1000
0001
1000
0010
0000
1000
0001
0010
0000
,  // measure 13
0001
0000
0001
0000
0100
0000
0010
0100
0001
1000
0010
0100
0001
0000
0010
0001
,  // measure 14
0010
0100
1000
0001
0100
0000
0010
1000
0010
0100
0001
0000
0001
0100
0001
0000
,  // measure 15
1000
0000
1000
0000
1100
0000
1000
0100
1000
0001
0100
0001
1000
0000
0001
1000
,  // measure 16
0010
1000
0001
1000
0010
0000
0100
0001
1000
0001
0100
0000
0100
0001
0100
0000
,  // measure 17
0001
0000
0001
0000
0011
0000
0010
0100
1000
0100
0010
0100
1000
0000
0001
0010
,  // measure 18
0100
0010
0001
1000
0010
0000
1000
0100
1000
0001
1000
0000
0001
0100
0001
0000
,  // measure 19
1000
0000
1000
0000
1001
0000
0010
1000
0001
1000
0010
1000
0001
0000
0010
0001
,  // measure 20
0100
0001
0010
0001
0100
0000
0001
1000
0100
1000
0001
0000
0100
0001
1000
0000
,  // measure 21
0100
0000
0100
0000
0110
0000
1000
0001
1000
0010
1000
0100
1000
0000
0001
0010
,  // measure 22
0001
0100
0001
1000
0001
0000
1000
0100
0010
0001
1000
0000
1000
0001
1000
0000
,  // measure 23
2200
0000
0000
0000
,  // measure 24
3300
0000
0000
0000
,  // measure 25
0000
0000
0000
0000
,  // measure 26
0020
0130
0020
0130
2000
3020
0130
0001
,  // measure 27
0100
1000
0100
0001
0100
1000
0100
0002
,  // measure 28
0023
0230
2300
3200
1300
0001
1000
0010
,  // measure 29
1000
0001
0100
0010
0100
0001
1000
0001
,  // measure 30
0020
0031
0020
0130
2000
3200
1300
0001
,  // measure 31
1000
0100
0010
0100
1000
0001
0010
0200
,  // measure 32
0320
0032
0203
0302
0013
0100
1000
0001
,  // measure 33
1000
0010
0100
0001
0100
0010
1000
0100
,  // measure 34
2000
3001
2000
3010
2000
3200
0310
0001
,  // measure 35
0100
0001
0010
0100
1000
0100
0001
0200
,  // measure 36
0320
0230
2300
3002
0103
1000
0100
0001
,  // measure 37
1000
0001
0100
1000
0001
0010
0100
1000
,  // measure 38
0020
0130
0020
1030
0002
0023
0130
1000
,  // measure 39
0100
0001
0100
1000
0100
0010
0100
2000
,  // measure 40
3002
0023
0230
2300
3001
1000
0001
0010
,  // measure 41
0001
0100
1000
0100
0001
0100
0010
0000
,  // measure 42
1100
0000
0000
0000
0010
0000
1000
0100
1000
0010
1000
0100
1000
0000
0001
0010
,  // measure 43
0001
0000
0100
0000
0001
0000
1000
0001
0100
0001
1000
0001
0100
0000
0010
0100
,  // measure 44
0001
0000
0010
0000
0100
0000
1000
0001
1000
0010
1000
0001
1000
0000
0100
1000
,  // measure 45
0001
0000
0100
0000
0010
0000
0100
0001
0100
0010
1000
0010
0100
0000
0001
1000
,  // measure 46
0001
0000
0010
0000
0100
0000
1000
0100
0010
0001
0100
0010
1000
0000
0001
1000
,  // measure 47
0010
0000
0100
0000
0001
0000
0010
0001
0010
0100
1000
0100
0010
0000
0001
1000
,  // measure 48
0001
0000
0100
0000
0010
0000
1000
0100
1000
0001
0100
0010
1000
0000
0001
0010
,  // measure 49
0001
0000
1000
0000
0100
0000
1000
0010
1000
0100
0010
0100
1000
0000
0001
0010
,  // measure 50
0100
0000
0000
0000
0000
1000
1000
0010
,  // measure 51
0010
0001
0001
0100
0100
1000
1100
1000
,  // measure 52
0100
1000
0100
0000
0001
0100
0001
0000
0010
0000
0001
0000
1000
0001
0100
0000
,  // measure 53
0010
0000
1000
0000
0001
1000
0100
0000
0010
0000
0001
0000
0001
0100
0001
0000
,  // measure 54
0010
0000
0001
0000
1000
0100
1000
0000
1000
0000
0010
0000
0100
0001
1000
0000
,  // measure 55
0100
0000
0010
0000
0001
1000
0010
0000
0100
0000
0001
0000
1000
0100
1000
0000
,  // measure 56
0010
1000
0010
0000
1000
0001
1000
0000
0001
0000
0010
0000
0100
1000
0001
0000
,  // measure 57
0010
0000
0100
0000
1000
0001
0010
0000
0100
0000
1000
0000
0001
0100
0001
0000
,  // measure 58
0001
0010
0100
0000
1000
0000
0001
0000
1000
0000
0100
0000
0010
0001
0100
0000
,  // measure 59
0001
0000
0010
0000
0100
1000
0010
0000
0100
0000
0001
0000
0010
0001
0010
0000
,  // measure 60
0010
0100
0010
0000
0100
1000
0001
0000
1000
0000
0100
0000
1000
0010
0100
0000
,  // measure 61
0001
0000
1000
0000
0001
0100
0010
0000
1000
0000
0100
0000
1000
0010
1000
0000
,  // measure 62
0100
1000
0100
0000
0010
0100
1000
0000
0001
0000
0010
0000
0100
0010
0001
0000
,  // measure 63
1000
0000
0001
0000
0100
0001
1000
0000
0100
0000
0010
0000
0001
0010
0001
0000
,  // measure 64
0001
1000
0001
0000
0100
0001
1000
0000
0100
0000
0010
0000
0100
1000
0001
0000
,  // measure 65
1000
0000
0010
0000
0100
0001
1000
0000
0001
0000
0010
0000
0100
0010
0001
0000
,  // measure 66
1000
0100
0010
0000
0100
1000
0001
0000
1000
0000
0100
0000
0010
0001
0100
0000
,  // measure 67
0001
0000
1000
0000
0100
1000
0001
0000
0100
0000
0010
0000
1000
0000
0000
0000
,  // measure 68
0101
0000
0100
0001
0010
0001
0100
0001
0010
0000
0001
0100
0010
0000
0000
0000
,  // measure 69
1100
0000
0100
1000
0010
1000
0100
1000
0010
0000
1000
0001
0100
0000
0000
0000
,  // measure 70
0110
0000
1000
0010
1000
0100
1000
0010
1000
0000
0100
1000
0010
0000
0000
0000
,  // measure 71
1001
0000
0001
0010
0001
0100
0001
0010
0001
0000
1000
0001
0010
0000
0000
0000
,  // measure 72
0110
0000
0010
0001
0100
0001
0010
0001
0100
0000
0010
1000
0100
0000
0000
0000
,  // measure 73
1001
0000
1000
0100
1000
0010
1000
0001
1000
0000
0010
1000
0001
0000
0000
0000
,  // measure 74
0101
0000
0100
0001
1000
0001
0100
0001
1000
0000
0100
1000
0010
0000
0000
0000
,  // measure 75
1000
0000
0000
0100
0000
0000
1000
0000
0000
0000
0000
0000
0001
0000
0000
0000
0010
0000
0000
0000
0100
0000
0000
0000
1000
0000
0000
0000
0000
0000
0000
0000
0000
0000
0000
0000
0000
0000
0000
0000
0000
0000
0000
0000
0000
0000
0000
0000
,  // measure 76
0000
0000
0000
0000
,  // measure 77
0000
0000
0000
0000
0000
0000
0010
0001
,  // measure 78
0010
0001
1000
0010
1000
0010
0100
1000
,  // measure 79
0100
1000
0001
0100
0001
0100
0110
0000
,  // measure 80
1000
0100
0001
0100
1000
0010
1000
0100
,  // measure 81
0001
0100
1000
0010
1000
0100
0001
0100
,  // measure 82
0010
0001
0100
0001
1000
0010
0100
0010
,  // measure 83
1000
0100
0001
0100
1000
0001
0100
0001
,  // measure 84
0010
0001
0100
0001
0010
0001
0100
0001
,  // measure 85
0010
0001
0100
0001
0010
0001
0100
0001
,  // measure 86
0010
0100
1000
0010
0100
0001
0010
0100
,  // measure 87
1000
0010
0100
0001
0010
0100
1000
0001
,  // measure 88
1000
0001
1000
0010
1000
0010
1000
0100
,  // measure 89
1000
0100
0010
0100
0010
0100
0010
0001
,  // measure 90
1000
0001
0010
0001
0100
0010
1000
0001
,  // measure 91
0100
1000
0100
0001
0010
0100
1000
0001
,  // measure 92
0010
0001
0010
0100
0010
1000
0010
0100
,  // measure 93
0010
0001
0010
0100
0010
1000
0010
0100
,  // measure 94
1000
0100
0010
0100
1000
0001
0010
0100
,  // measure 95
1000
0001
0010
0010
0010
0010
1001
0000
,  // measure 96
0001
0010
0100
1000
0010
0000
0100
0000
0000
0000
1200
0000
0000
0000
0000
0000
,  // measure 97
1300
0010
0100
0001
0010
0000
0100
0000
0000
0000
0021
0000
0000
0000
0000
0000
,  // measure 98
0031
1000
0010
0100
0001
0000
1000
0000
0000
0000
0120
0000
0000
0000
0000
0000
,  // measure 99
1030
0100
1000
0000
0001
0000
0202
0000
0000
0000
0303
0000
1010
0000
1000
0100
,  // measure 100
1000
0000
0001
0010
0100
1000
0100
0000
0000
0000
0102
0000
0000
0000
0000
0000
,  // measure 101
1003
0100
1000
0010
0100
0000
0001
0000
0000
0000
2100
0000
0000
0000
0000
0000
,  // measure 102
3010
1000
0100
1000
0010
0000
0100
0000
0000
0000
0021
0000
0000
0000
0000
0000
,  // measure 103
0031
0100
0010
0000
1000
0000
0220
0000
0000
0000
0330
0000
1001
0000
0001
0010
,  // measure 104
0001
0000
0010
0001
1000
0100
0010
0000
0000
0000
1200
0000
0000
0000
0000
0000
,  // measure 105
1300
0010
1000
0001
0100
0000
0010
0000
0000
0000
0021
0000
0000
0000
0000
0000
,  // measure 106
0031
1000
0100
1000
0010
0000
0100
0000
0000
0000
0102
0000
0000
0000
0000
0000
,  // measure 107
1003
0100
0010
0000
0001
0000
2020
0000
0000
0000
3030
0000
1001
0000
1000
0100
,  // measure 108
0010
0000
0001
1000
0010
0100
0001
0000
0000
0000
1020
0000
0000
0000
0000
0000
,  // measure 109
1030
0100
1000
0001
0100
0000
0010
0000
0000
0000
1200
0000
0000
0000
0000
0000
,  // measure 110
0310
0001
1000
0001
0100
0000
0010
0000
0000
0000
0102
0000
0000
0000
0000
0000
,  // measure 111
0013
0001
1000
0000
0100
0000
0022
0000
0000
0000
0033
0000
1001
0000
1000
0001
,  // measure 112
0100
0000
0001
1000
0010
0100
0001
0000
1000
0000
1100
0000
0100
0000
0010
0000
,  // measure 113
0001
0010
0100
1000
0010
0000
0100
0000
0001
0000
0011
0000
0010
0000
0100
0000
,  // measure 114
1000
0001
0010
0100
1000
0000
0001
0000
0100
0000
0110
0000
0100
0000
0001
0000
,  // measure 115
1000
0100
1000
0000
0001
0000
0202
0000
0000
0000
0303
0000
1001
0000
1000
0010
,  // measure 116
0100
0000
0001
0010
0100
1000
0001
0000
0100
0000
0101
0000
0100
0000
0001
0000
,  // measure 117
1000
0100
1000
0010
0100
0000
0001
0000
0010
0000
1100
0000
0100
0000
0010
0000
,  // measure 118
0001
1000
0100
1000
0001
0000
0100
0000
0010
0000
1010
0000
1000
0000
0100
0000
,  // measure 119
0010
0001
1000
0000
0010
0000
0220
0000
0000
0000
0330
0000
1001
0000
0001
0010
,  // measure 120
0100
0000
0010
0001
1000
0100
1000
0000
0001
0000
1100
0000
1000
0000
0100
0000
,  // measure 121
1000
0010
1000
0001
0100
0000
0010
0000
0100
0000
0011
0000
0100
0000
0001
0000
,  // measure 122
1000
0100
1000
0001
0010
0000
0100
0000
1000
0000
0101
0000
0001
0000
1000
0000
,  // measure 123
0001
0100
0010
0000
1000
0000
2020
0000
0000
0000
3030
0000
1001
0000
1000
0100
,  // measure 124
0010
0000
0001
1000
0010
0100
0001
0000
0100
0000
1010
0000
1000
0000
0001
0000
,  // measure 125
1000
0100
1000
0001
0100
0000
0010
0000
1000
0000
1100
0000
0100
0000
0010
0000
,  // measure 126
0001
1000
0001
0100
0010
0000
1000
0000
0100
0000
0101
0000
0001
0000
1000
0000
,  // measure 127
0010
1000
0001
0000
0100
0000
1010
0000
1000
0000
0001
0000
2002
0000
0000
0000
,  // measure 128
0000
0000
0000
0000
,  // measure 129
3003
0000
0000
0000
;

//---------------dance-single - ----------------
#NOTEDATA:;
#CHARTNAME:;
#STEPSTYPE:dance-single;
#DESCRIPTION:;
#CHARTSTYLE:;
#DIFFICULTY:Medium;
#METER:7;
#RADARVALUES:0.518011,0.609464,0.377962,0.301189,0.000000,614.000000,550.000000,64.000000,51.000000,0.000000,0.000000,0.000000,0.000000,0.000000,0.518011,0.609464,0.377962,0.301189,0.000000,614.000000,550.000000,64.000000,51.000000,0.000000,0.000000,0.000000,0.000000,0.000000;
#CREDIT:;
#DISPLAYBPM:190.000000;
#NOTES:
// measure 0
0000
0000
0000
0000
,  // measure 1
0000
0000
0000
0000
,  // measure 2
0000
0000
0000
0000
,  // measure 3
0000
0000
0000
0000
,  // measure 4
0000
0000
0000
0000
,  // measure 5
0000
0000
0000
0000
,  // measure 6
0000
0000
0000
0000
,  // measure 7
0100
1000
0001
0000
0200
0000
0310
0000
,  // measure 8
0001
1000
0010
0110
,  // measure 9
1000
0100
1000
0000
0002
0000
0013
0000
,  // measure 10
2000
3100
0002
0103
,  // measure 11
0100
0010
0100
0000
0002
0000
0013
0000
,  // measure 12
2000
3010
0001
1001
,  // measure 13
1000
0010
0001
0000
0200
0000
0301
0000
,  // measure 14
2000
3100
0002
1003
,  // measure 15
0001
0010
0100
0000
2000
0000
3100
0000
,  // measure 16
0020
1030
0001
0101
,  // measure 17
1000
0001
0010
0000
2000
0000
3010
0000
,  // measure 18
0002
0103
2000
3001
,  // measure 19
0010
0100
1000
0000
0002
0000
1003
0000
,  // measure 20
0020
0130
1000
1010
,  // measure 21
0100
0001
0010
0000
0200
0000
1300
0000
,  // measure 22
0002
0103
2000
0001
,  // measure 23
0200
0000
0000
0000
,  // measure 24
3300
0000
0000
0000
,  // measure 25
0000
0000
0000
0000
,  // measure 26
1001
0000
0101
0000
0200
0002
0000
0303
,  // measure 27
1000
0000
0001
0000
1000
0000
0001
1000
,  // measure 28
0010
0001
0010
1000
0001
0000
0100
0000
,  // measure 29
0010
1000
0100
0010
,  // measure 30
1001
0000
1100
0000
0002
0020
0000
0033
,  // measure 31
0001
0000
0100
0000
0010
0000
1000
0001
,  // measure 32
0100
1000
0100
0001
1000
0000
0001
0000
,  // measure 33
0100
0010
1000
0100
,  // measure 34
1001
0000
1010
0000
0200
0020
0000
0330
,  // measure 35
0100
0000
0001
0000
0010
0000
1000
0100
,  // measure 36
0001
0010
0001
0100
1000
0000
0100
0000
,  // measure 37
0001
1000
0100
0010
,  // measure 38
1100
0000
0101
0000
0200
2000
0000
3300
,  // measure 39
0010
0000
0001
0000
0100
0000
1000
0010
,  // measure 40
0100
1000
0100
0010
1000
0000
0100
0000
,  // measure 41
0001
0100
1000
0001
,  // measure 42
1001
0000
0010
0000
1000
0100
0001
0100
,  // measure 43
0010
0000
0001
0000
0100
0001
0010
0001
,  // measure 44
0100
0000
0010
0000
1000
0100
0010
0100
,  // measure 45
1000
0000
0010
0000
0100
0010
1000
0001
,  // measure 46
0100
0000
0010
0000
1000
0100
0001
0100
,  // measure 47
1000
0000
0010
0000
0100
0001
0010
0100
,  // measure 48
1000
0000
0010
0100
0001
0010
0100
1000
,  // measure 49
0010
0000
0100
0001
0010
0100
1000
0001
,  // measure 50
0100
0000
0000
0000
,  // measure 51
0000
0000
0000
1001
,  // measure 52
0101
0000
0001
0100
1000
0000
1000
0010
,  // measure 53
0001
0000
0001
0100
0010
0000
1000
0100
,  // measure 54
0010
0001
0100
0010
1000
0000
0001
0100
,  // measure 55
0001
0000
1000
0010
1000
0000
1100
0000
,  // measure 56
0101
0000
1000
0100
1000
0000
0010
0100
,  // measure 57
0001
0000
0010
0100
1000
0000
0001
0010
,  // measure 58
0100
1000
0010
0100
0001
0000
1000
0010
,  // measure 59
1000
0000
0001
0010
0001
0000
1001
0000
,  // measure 60
0110
0000
1000
0100
0010
0000
0001
1000
,  // measure 61
0010
0000
0100
0001
1000
0000
0001
0100
,  // measure 62
0001
0010
0100
1000
0010
0000
1000
0100
,  // measure 63
1000
0000
0010
0100
0010
0000
1010
0000
,  // measure 64
1001
0000
1000
0010
0100
0000
0001
0010
,  // measure 65
1000
0000
0001
0010
0100
0000
1000
0100
,  // measure 66
0010
0001
0100
1000
0100
0000
0010
0100
,  // measure 67
0010
0000
0001
1000
0001
0000
1100
0000
,  // measure 68
0010
0000
1000
0100
0010
0001
0100
0000
,  // measure 69
0001
0000
1000
0001
0100
0010
1000
0000
,  // measure 70
0001
0000
0010
0001
0100
0010
1000
0000
,  // measure 71
0100
0000
1000
0100
0010
0100
1000
0000
,  // measure 72
0010
0000
0100
0001
0010
0001
0100
0000
,  // measure 73
0010
0000
1000
0100
0010
0001
0100
0000
,  // measure 74
0010
1000
0001
0010
0100
1000
0001
0000
,  // measure 75
1000
0010
0200
0000
0000
0000
0301
0000
,  // measure 76
0000
0000
0000
0000
,  // measure 77
0000
0000
0000
1000
,  // measure 78
0100
0001
1000
0010
,  // measure 79
0100
0001
0010
2001
,  // measure 80
3010
0002
0103
2000
,  // measure 81
3100
0002
0013
0100
,  // measure 82
1000
0010
1000
0000
0001
0010
0100
0000
,  // measure 83
1000
0100
0010
0000
0002
0000
0103
0000
,  // measure 84
2000
3100
0002
0013
,  // measure 85
0200
1300
0020
1030
,  // measure 86
0200
0310
0002
0103
,  // measure 87
2000
3100
0001
0020
,  // measure 88
0130
0010
0001
1000
,  // measure 89
0001
0100
0010
1000
,  // measure 90
0001
0010
0001
0000
0010
1000
0010
0000
,  // measure 91
1000
0100
1000
0000
0100
0000
0002
0000
,  // measure 92
0103
2000
3001
0200
,  // measure 93
0310
2000
3100
0020
,  // measure 94
0130
2000
3100
0002
,  // measure 95
0013
1001
0000
1001
,  // measure 96
1000
0001
0100
0000
0000
0101
0000
0000
,  // measure 97
0001
1000
0010
0000
0000
1010
0000
0000
,  // measure 98
1000
0100
0010
0000
0000
0110
0000
0000
,  // measure 99
0001
0000
0000
1001
0000
0000
0010
0000
,  // measure 100
0001
0000
0100
0010
0000
1001
0000
0000
,  // measure 101
0100
0000
0010
1000
0000
1100
0000
0000
,  // measure 102
0100
0000
0010
0001
0000
1001
0000
0000
,  // measure 103
0100
0000
0000
1001
0000
0000
0010
0000
,  // measure 104
1000
0000
0100
0010
0000
0110
0000
0000
,  // measure 105
1000
0000
0001
0010
0000
1010
0000
0000
,  // measure 106
1000
0000
0001
0100
0000
1100
0000
0000
,  // measure 107
0010
0000
0000
0101
0000
0000
1000
0000
,  // measure 108
0001
0000
0100
0010
0000
1001
0000
0000
,  // measure 109
0001
0000
0010
0001
0000
1010
0000
0000
,  // measure 110
0100
0000
1000
0100
0000
0101
0000
0000
,  // measure 111
0010
0000
0000
1001
0000
0000
0100
0000
,  // measure 112
0010
0000
0001
0100
0000
1100
0000
0000
,  // measure 113
0010
0000
1000
0100
0000
1001
0000
0000
,  // measure 114
1000
0000
0001
0100
0000
0110
0000
0000
,  // measure 115
1100
0000
0000
0101
0000
0000
1000
0000
,  // measure 116
0001
0000
0010
0100
0000
1001
0000
0000
,  // measure 117
0001
0000
0010
1000
0000
1100
0000
0000
,  // measure 118
1000
0000
0100
0001
0000
0011
0000
0000
,  // measure 119
1010
0000
0000
1100
0000
0000
1001
0000
,  // measure 120
0100
0000
0001
0010
0000
1001
0000
0000
,  // measure 121
1001
0000
0100
1000
0000
1001
0000
0000
,  // measure 122
1001
0000
0010
1000
0000
1001
0000
0000
,  // measure 123
0110
0000
0000
1001
0000
0000
1000
0000
,  // measure 124
0100
0001
0010
0001
0100
1001
0000
0000
,  // measure 125
0100
0001
0010
0100
1000
1010
0000
0000
,  // measure 126
1000
0100
0010
0001
0100
1001
0000
0000
,  // measure 127
0110
0000
1000
0001
0100
0000
2002
0000
,  // measure 128
0000
0000
0000
0000
,  // measure 129
3003
0000
0000
0000
;

//---------------dance-single - ----------------
#NOTEDATA:;
#CHARTNAME:;
#STEPSTYPE:dance-single;
#DESCRIPTION:;
#CHARTSTYLE:;
#DIFFICULTY:Easy;
#METER:5;
#RADARVALUES:0.339997,0.380915,0.059057,0.011811,0.000000,403.000000,393.000000,10.000000,2.000000,0.000000,0.000000,0.000000,0.000000,0.000000,0.339997,0.380915,0.059057,0.011811,0.000000,403.000000,393.000000,10.000000,2.000000,0.000000,0.000000,0.000000,0.000000,0.000000;
#CREDIT:;
#DISPLAYBPM:190.000000;
#NOTES:
// measure 0
0000
0000
0000
0000
,  // measure 1
0000
0000
0000
0000
,  // measure 2
0000
0000
0000
0000
,  // measure 3
0000
0000
0000
0000
,  // measure 4
0000
0000
0000
0000
,  // measure 5
0000
0000
0000
0000
,  // measure 6
0000
0000
0000
0000
,  // measure 7
1000
0100
0001
1000
,  // measure 8
0001
0100
0010
1000
,  // measure 9
0100
0010
0100
1000
,  // measure 10
0001
0010
0100
1000
,  // measure 11
0001
1000
0100
0010
,  // measure 12
0001
1000
0010
0100
,  // measure 13
0001
0010
1000
0010
,  // measure 14
0100
1000
0100
0001
,  // measure 15
1000
0100
1000
0001
,  // measure 16
0010
0001
1000
0010
,  // measure 17
0100
0001
0100
1000
,  // measure 18
0010
1000
0100
0010
,  // measure 19
0001
0100
0001
0010
,  // measure 20
0100
0010
0100
1000
,  // measure 21
0001
1000
0001
0010
,  // measure 22
1000
0010
0001
0010
,  // measure 23
0001
0000
0000
0000
,  // measure 24
0000
0000
0000
0000
,  // measure 25
0000
0000
0000
0000
,  // measure 26
1001
0000
1001
0000
1000
0001
0000
0000
,  // measure 27
0000
0000
0000
0000
,  // measure 28
0010
0100
1000
0100
,  // measure 29
0001
0000
0000
0000
,  // measure 30
0110
0000
0110
0000
0001
1000
0000
0000
,  // measure 31
0000
0000
0000
0000
,  // measure 32
0001
0010
1000
0010
,  // measure 33
0100
0000
0000
0000
,  // measure 34
1100
0000
1100
0000
0001
0100
0000
0000
,  // measure 35
0000
0000
0000
0000
,  // measure 36
0010
1000
0100
0001
,  // measure 37
0100
0000
0000
0000
,  // measure 38
0101
0000
0101
0000
1000
0010
0000
0000
,  // measure 39
0000
0000
0000
0000
,  // measure 40
0001
0010
0100
1000
,  // measure 41
0100
0000
0000
0000
,  // measure 42
0001
0001
1000
0100
,  // measure 43
1000
1000
0010
0001
,  // measure 44
0010
0010
0100
1000
,  // measure 45
0100
0100
0001
0010
,  // measure 46
1000
1000
0100
0001
,  // measure 47
0010
0010
0100
1000
,  // measure 48
0010
0010
0001
0100
,  // measure 49
1000
1000
0010
0001
,  // measure 50
0100
0000
0000
0000
,  // measure 51
0000
0000
0000
0001
,  // measure 52
0001
0000
0100
0010
0100
0000
0001
0000
,  // measure 53
0001
1000
1000
0100
,  // measure 54
0010
0100
0010
0001
,  // measure 55
0100
0010
1000
0001
,  // measure 56
0001
0000
1000
0001
1000
0000
0100
0000
,  // measure 57
0010
0100
1000
0001
,  // measure 58
0010
0100
1000
0010
,  // measure 59
0100
0001
1000
0100
,  // measure 60
0100
0000
0010
0100
0010
0000
0001
0000
,  // measure 61
0100
1000
0100
0010
,  // measure 62
0100
1000
0100
0001
,  // measure 63
0010
0100
1000
0001
,  // measure 64
0001
0000
1000
0010
1000
0000
0100
0000
,  // measure 65
0010
0001
0100
1000
,  // measure 66
0010
0100
0001
0010
,  // measure 67
0100
1000
0001
0100
,  // measure 68
0100
0010
1000
0100
,  // measure 69
0100
0001
0010
0100
,  // measure 70
0100
1000
0001
0100
,  // measure 71
0100
1000
0100
0010
,  // measure 72
0100
0001
0100
0010
,  // measure 73
0100
1000
0100
0010
,  // measure 74
0100
0001
0010
0100
,  // measure 75
0010
1000
0000
0000
,  // measure 76
0000
0000
0000
0000
,  // measure 77
0000
0000
0000
0000
,  // measure 78
0000
0000
0000
0000
,  // measure 79
0000
0000
0000
0010
,  // measure 80
0001
0100
1000
0100
,  // measure 81
0001
0100
1000
0100
,  // measure 82
0001
0001
1000
1000
,  // measure 83
0010
0010
0100
0001
,  // measure 84
0010
1000
0010
0001
,  // measure 85
1000
0001
0100
1000
,  // measure 86
0100
0001
0100
1000
,  // measure 87
0001
1000
0100
0100
,  // measure 88
0010
0001
0100
1000
,  // measure 89
0100
0001
0010
0100
,  // measure 90
1000
1000
0001
0001
,  // measure 91
0100
0100
0010
0010
,  // measure 92
1000
0100
0010
0001
,  // measure 93
1000
0100
0010
0001
,  // measure 94
0001
1000
0001
0100
,  // measure 95
0010
1000
0000
1001
,  // measure 96
0010
0000
0100
0000
0000
0001
0000
0000
,  // measure 97
0010
0000
0100
0000
0000
1000
0000
0000
,  // measure 98
0001
0000
0100
0000
0000
0010
0000
0000
,  // measure 99
1000
0000
0000
0100
0000
0000
0010
0000
,  // measure 100
0001
0000
1000
0000
0000
0001
0000
0000
,  // measure 101
0010
0000
0100
0000
0000
1000
0000
0000
,  // measure 102
0001
0000
0100
0000
0000
0010
0000
0000
,  // measure 103
1000
0000
0000
0100
0000
0000
0010
0000
,  // measure 104
0001
0000
1000
0000
0000
0001
0000
0000
,  // measure 105
0100
0000
0010
0000
0000
1000
0000
0000
,  // measure 106
0100
0000
0010
0000
0000
0100
0000
0000
,  // measure 107
1000
0000
0000
0001
0000
0000
0100
0000
,  // measure 108
0010
0000
1000
0000
0000
0001
0000
0000
,  // measure 109
0010
0000
0100
0000
0000
1000
0000
0000
,  // measure 110
0001
0000
0010
0000
0000
1000
0000
0000
,  // measure 111
0010
0000
0000
0001
0000
0000
1000
0000
,  // measure 112
0001
0000
0100
0000
0000
0010
0000
0000
,  // measure 113
1000
0000
0100
0000
0000
0010
0000
0000
,  // measure 114
0100
0000
1000
0000
0000
0001
0000
0000
,  // measure 115
1000
0000
0000
0100
0000
0000
0001
0000
,  // measure 116
0100
0000
1000
0000
0000
0001
0000
0000
,  // measure 117
0100
0000
0010
0000
0000
1000
0000
0000
,  // measure 118
0001
0000
1000
0000
0000
0010
0000
0000
,  // measure 119
0100
0000
0000
0001
0000
0000
1000
0000
,  // measure 120
0100
0000
0010
0000
0000
0001
0000
0000
,  // measure 121
1000
0000
0001
0000
0000
0100
0000
0000
,  // measure 122
0010
0000
1000
0000
0000
0100
0000
0000
,  // measure 123
0010
0000
0000
0001
0000
0000
1000
0000
,  // measure 124
0001
0000
0100
0000
0000
0010
0000
0000
,  // measure 125
1000
0000
0100
0000
0000
0010
0000
0000
,  // measure 126
0001
0000
0100
0000
0000
1000
0000
0000
,  // measure 127
0100
0000
0000
0001
0000
0000
2002
0000
,  // measure 128
0000
0000
0000
0000
,  // measure 129
3003
0000
0000
0000
;

//---------------dance-single - ----------------
#NOTEDATA:;
#CHARTNAME:;
#STEPSTYPE:dance-single;
#DESCRIPTION:;
#CHARTSTYLE:;
#DIFFICULTY:Beginner;
#METER:3;
#RADARVALUES:0.232852,0.339502,0.094491,0.000000,0.000000,276.000000,260.000000,16.000000,0.000000,0.000000,0.000000,0.000000,0.000000,0.000000,0.232852,0.339502,0.094491,0.000000,0.000000,276.000000,260.000000,16.000000,0.000000,0.000000,0.000000,0.000000,0.000000,0.000000;
#CREDIT:;
#DISPLAYBPM:190.000000;
#NOTES:
// measure 0
0000
0000
0000
0000
,  // measure 1
0000
0000
0000
0000
,  // measure 2
0000
0000
0000
0000
,  // measure 3
0000
0000
0000
0000
,  // measure 4
0000
0000
0000
0000
,  // measure 5
0000
0000
0000
0000
,  // measure 6
0000
0000
0000
0000
,  // measure 7
0001
0001
0000
0001
,  // measure 8
0000
0001
0000
1000
,  // measure 9
1000
1000
0000
1000
,  // measure 10
0000
1000
0000
0010
,  // measure 11
0010
0010
0000
0010
,  // measure 12
0000
0010
0000
0100
,  // measure 13
0100
0100
0000
0100
,  // measure 14
0000
0100
0000
0001
,  // measure 15
0001
0001
0000
0001
,  // measure 16
0000
0001
0000
0010
,  // measure 17
0010
0010
0000
0010
,  // measure 18
0000
0010
0000
0100
,  // measure 19
0100
0100
0000
0100
,  // measure 20
0000
0100
0000
1000
,  // measure 21
1000
1000
0000
1000
,  // measure 22
0000
1000
0000
1000
,  // measure 23
1000
0000
0000
0000
,  // measure 24
0000
0000
0000
0000
,  // measure 25
0000
0000
0000
0000
,  // measure 26
1001
0000
0010
0000
,  // measure 27
0001
0000
0001
0000
,  // measure 28
1000
1000
1000
0000
,  // measure 29
0001
0000
1000
0000
,  // measure 30
0100
0000
0010
0000
,  // measure 31
0100
0000
0010
0000
,  // measure 32
0001
0001
0001
0000
,  // measure 33
0100
0000
0001
0000
,  // measure 34
1000
0000
0100
0000
,  // measure 35
0010
0000
0001
0000
,  // measure 36
0010
0010
0010
0000
,  // measure 37
0001
0000
0100
0000
,  // measure 38
0010
0000
1000
0000
,  // measure 39
0100
0000
0010
0000
,  // measure 40
0100
0100
0100
0000
,  // measure 41
1000
0000
0001
0000
,  // measure 42
0100
0000
0010
0010
,  // measure 43
0010
0000
1000
1000
,  // measure 44
1000
0000
0001
0001
,  // measure 45
0001
0000
1000
1000
,  // measure 46
1000
0000
0100
0100
,  // measure 47
0100
0000
0010
0010
,  // measure 48
0010
0000
0001
0001
,  // measure 49
0001
0000
1000
1000
,  // measure 50
1000
0000
0000
0000
,  // measure 51
0000
0000
0000
0010
,  // measure 52
0000
0010
0000
1000
,  // measure 53
0000
1000
0000
0001
,  // measure 54
0001
0001
0000
1000
,  // measure 55
0000
0001
0000
0100
,  // measure 56
0000
0010
0000
1000
,  // measure 57
0000
0100
0000
0010
,  // measure 58
0010
0010
0000
0001
,  // measure 59
0000
0100
0000
0010
,  // measure 60
0000
1000
0000
0100
,  // measure 61
0000
0010
0000
0001
,  // measure 62
0001
0001
0000
0010
,  // measure 63
0000
0100
0000
1000
,  // measure 64
0000
0001
0000
0100
,  // measure 65
0000
0010
0000
1000
,  // measure 66
1000
1000
0000
0001
,  // measure 67
0000
1000
0000
0100
,  // measure 68
0000
0010
0010
0010
,  // measure 69
0000
0001
0001
0001
,  // measure 70
0000
1000
1000
1000
,  // measure 71
0000
0010
0010
0010
,  // measure 72
0000
0100
0100
0100
,  // measure 73
0000
0001
0001
0001
,  // measure 74
0000
0010
0010
0010
,  // measure 75
0000
0100
0000
0000
,  // measure 76
0000
0000
0000
0000
,  // measure 77
0000
0000
0000
0000
,  // measure 78
0000
0000
0000
0000
,  // measure 79
0000
0000
0000
1000
,  // measure 80
0000
0010
0000
0001
,  // measure 81
0000
0010
0000
1000
,  // measure 82
0000
0100
0000
0010
,  // measure 83
0000
0001
0000
1000
,  // measure 84
0000
0001
0000
1000
,  // measure 85
0000
0001
0000
0010
,  // measure 86
0000
0100
0000
0010
,  // measure 87
0000
0100
0000
1000
,  // measure 88
0000
0001
0000
1000
,  // measure 89
0000
0001
0000
1000
,  // measure 90
0000
0010
0000
0100
,  // measure 91
0000
0001
0000
0010
,  // measure 92
0000
0100
0000
1000
,  // measure 93
0000
0001
0000
0100
,  // measure 94
0000
0010
0000
1000
,  // measure 95
0000
0000
0000
0000
,  // measure 96
0000
1001
0000
0010
,  // measure 97
0000
0001
0000
1000
,  // measure 98
0000
0001
0000
0100
,  // measure 99
0000
0100
0000
1000
,  // measure 100
0000
0100
0000
0001
,  // measure 101
0000
0001
0000
1000
,  // measure 102
0000
1000
0000
0100
,  // measure 103
0000
0010
0000
0100
,  // measure 104
0000
1000
0000
0001
,  // measure 105
0000
1000
0000
0001
,  // measure 106
0000
0100
0000
1000
,  // measure 107
0000
0100
0000
0001
,  // measure 108
0000
0010
0000
0100
,  // measure 109
0000
1000
0000
0001
,  // measure 110
0000
0010
0000
1000
,  // measure 111
0000
0100
0000
0010
,  // measure 112
0000
1001
0000
0100
,  // measure 113
0000
0110
0000
0001
,  // measure 114
0000
1001
0000
0001
,  // measure 115
0000
0110
0000
1000
,  // measure 116
0000
0110
0000
0001
,  // measure 117
0000
1001
0000
0100
,  // measure 118
0000
0110
0000
0001
,  // measure 119
0000
0110
0000
0010
,  // measure 120
0000
1001
0000
0100
,  // measure 121
0000
0110
0000
0001
,  // measure 122
0000
1001
0000
0001
,  // measure 123
0000
0110
0000
0010
,  // measure 124
0000
1001
0000
0001
,  // measure 125
0000
1001
0000
0100
,  // measure 126
0100
0100
0100
0100
,  // measure 127
0100
0100
0100
0100
;
