#TITLE:Echoes;
#SUBTITLE:;
#ARTIST:Solstis;
#TITLETRANSLIT:;
#SUBTITLETRANSLIT:;
#ARTISTTRANSLIT:;
#GENRE:Echoes;
#CREDIT:;
#BANNER:Echoes-bn.png;
#BACKGROUND:Echoes-bg.png;
#LYRICSPATH:;
#CDTITLE:;
#MUSIC:Echoes.mp3;
#OFFSET:-0.022000;
#SAMPLESTART:75.011139;
#SAMPLELENGTH:15.000000;
#LASTBEATHINT:248.000000;
#SELECTABLE:YES;
#DISPLAYBPM:128.000000;
#BPMS:0.000000=128.000000
;
#STOPS:
;
#BGCHANGES:;
#KEYSOUNDS:;
#ATTACKS:;

//---------------dance-single - ----------------
#NOTES:
     dance-single:
     :
     Hard:
     7:
     0.346186,0.492738,0.387728,0.605826,0.056544,300.000000,252.000000,48.000000,75.000000,0.000000,0.000000,0.346186,0.492738,0.387728,0.605826,0.056544,300.000000,252.000000,48.000000,75.000000,0.000000,0.000000:
// measure 0
0000
0000
0000
0000
,  // measure 1
0000
0000
0000
0000
,  // measure 2
0000
0000
0000
0000
,  // measure 3
0000
0000
0000
0000
0000
0000
0001
1000
,  // measure 4
1001
0100
0002
0103
,  // measure 5
0010
0100
2000
3100
,  // measure 6
0010
0100
0002
0103
,  // measure 7
0010
0000
0100
0000
2000
0000
3100
0010
,  // measure 8
1001
0001
1000
0001
2001
0000
3100
0000
,  // measure 9
1002
0103
2001
3001
,  // measure 10
1001
0100
0001
0100
1002
0000
0103
0000
,  // measure 11
2001
0000
0000
0000
3100
0000
0000
0000
1002
0000
0000
1000
0000
0000
1003
0000
,  // measure 12
1001
0010
0001
0010
2001
0000
3100
0000
,  // measure 13
1002
0103
2001
3001
,  // measure 14
1001
0100
0010
0100
1002
0000
0103
0000
,  // measure 15
2001
0000
0000
0000
3100
0000
0000
0000
1002
0000
0000
1000
0000
0000
1003
0000
,  // measure 16
0010
0001
0010
1000
0200
0000
0320
0000
,  // measure 17
0032
0000
0000
0000
2003
0000
0000
0000
3020
0000
0000
0030
0020
0000
0000
0030
,  // measure 18
0100
0001
0100
1000
0200
0000
0320
0000
,  // measure 19
2030
0000
0000
0000
3200
0000
0000
0000
0320
0000
0000
0030
0010
0000
0100
0000
,  // measure 20
1001
0100
0010
0100
0010
0000
0001
0000
,  // measure 21
1000
0010
0100
0110
,  // measure 22
0100
0001
1000
0100
0010
0000
0001
0000
,  // measure 23
1000
0010
0100
1001
,  // measure 24
0001
1000
0010
0100
0001
0000
0010
0000
,  // measure 25
0100
1000
0010
1010
,  // measure 26
0010
1000
0100
0001
1000
0001
0010
0100
,  // measure 27
1000
0001
1000
0001
1000
0001
1000
0001
1000
0000
0000
0000
0000
0000
0000
0000
,  // measure 28
2002
0003
0200
0300
,  // measure 29
0001
0100
0002
3000
,  // measure 30
0020
0030
2000
3000
,  // measure 31
0010
0000
0000
0000
0100
0000
0000
0000
1000
0000
0000
1000
0000
0000
1000
0000
,  // measure 32
2000
0003
0020
3000
,  // measure 33
0100
1000
0200
0030
,  // measure 34
0002
0300
2000
3000
,  // measure 35
0010
0000
0000
0000
1000
0000
0000
0000
0100
0000
0000
0010
0000
0000
1000
0000
,  // measure 36
2003
0001
3200
0001
,  // measure 37
0320
0001
0230
1000
,  // measure 38
0302
0010
2003
0100
,  // measure 39
3020
0000
0000
0000
0100
0000
0000
0000
1030
0000
0000
0010
0000
0000
0001
0000
,  // measure 40
0201
1000
0320
1000
,  // measure 41
0230
0001
0320
2030
,  // measure 42
3002
0010
0203
0010
,  // measure 43
0302
0000
0000
0000
1000
0000
0000
0000
0013
0000
0000
0001
0000
0000
0100
0000
,  // measure 44
2000
0020
3030
1100
,  // measure 45
0002
0000
0013
0000
0101
1000
0100
1000
,  // measure 46
0002
0000
0000
0003
0101
0000
1000
0000
,  // measure 47
0200
0000
0000
0000
0000
0000
0300
0000
1100
0000
0000
1001
0000
0000
1001
0000
,  // measure 48
0002
0020
0033
0101
,  // measure 49
2000
0000
3010
0000
1100
0001
0100
0001
,  // measure 50
2000
0000
0000
3000
1100
0000
0001
0000
,  // measure 51
0200
0000
0000
0000
0000
0000
0300
0000
0101
0000
0000
1001
0000
0000
1001
0000
,  // measure 52
2000
0002
3003
1010
,  // measure 53
0002
0000
1003
0000
1001
0010
0100
0010
,  // measure 54
0002
0000
0000
0003
1010
0000
0001
0000
,  // measure 55
2000
0000
0000
0000
0000
0000
3000
0000
0011
0000
0000
0110
0000
0000
1100
0000
,  // measure 56
0002
2000
3003
0011
,  // measure 57
2000
0000
3001
0000
1001
0010
0100
0010
,  // measure 58
2000
0000
0000
3000
0011
0000
1000
0000
,  // measure 59
0002
0000
0000
0000
0000
0000
0003
0000
1010
0000
0000
0110
0000
0000
0101
0000
,  // measure 60
2002
0000
0000
0000
,  // measure 61
3003
0000
0000
0000
;

//---------------dance-single - ----------------
#NOTES:
     dance-single:
     :
     Medium:
     6:
     0.276949,0.295643,0.096932,0.403884,0.032311,240.000000,228.000000,12.000000,50.000000,0.000000,0.000000,0.276949,0.295643,0.096932,0.403884,0.032311,240.000000,228.000000,12.000000,50.000000,0.000000,0.000000:
// measure 0
0000
0000
0000
0000
,  // measure 1
0000
0000
0000
0000
,  // measure 2
0000
0000
0000
0000
,  // measure 3
0000
0000
0000
0000
0000
0000
0001
1000
,  // measure 4
1001
0100
0002
0103
,  // measure 5
0010
0100
2000
3100
,  // measure 6
0010
0100
0002
0103
,  // measure 7
0010
0000
0100
0000
2000
0000
3100
0010
,  // measure 8
0001
1000
0001
1000
0100
0000
0001
0000
,  // measure 9
0100
1000
0001
0001
,  // measure 10
1000
0010
0001
0010
1000
0000
1000
0000
,  // measure 11
0001
0001
0100
1001
,  // measure 12
0100
0010
0100
0001
1000
0000
0001
0000
,  // measure 13
0010
0100
0010
0010
,  // measure 14
0001
1000
0001
0100
0001
0000
1000
0000
,  // measure 15
0010
0100
0010
1001
,  // measure 16
1000
0001
1000
0000
0100
0000
0010
0000
,  // measure 17
0100
0010
0001
1000
,  // measure 18
0001
1000
0001
0000
0100
0000
0010
0000
,  // measure 19
0100
0010
1000
0001
,  // measure 20
0100
0010
0100
0000
0001
0000
1000
0000
,  // measure 21
0010
0100
0001
1000
,  // measure 22
0010
0100
0010
0000
1000
0000
0001
0000
,  // measure 23
0100
0010
1000
0001
,  // measure 24
0100
0001
1000
0001
0100
0000
0010
0000
,  // measure 25
1000
0001
0100
0100
,  // measure 26
0010
1000
0001
1000
0010
0000
0100
0000
,  // measure 27
0001
1000
0100
0100
,  // measure 28
2002
0003
0200
0300
,  // measure 29
0001
0100
3001
0000
,  // measure 30
0022
0030
2000
3000
,  // measure 31
0010
0000
0000
0000
0100
0000
0000
0000
1003
0000
0000
0001
0000
0000
1000
0000
,  // measure 32
2002
3000
0200
0300
,  // measure 33
1000
0100
1003
0000
,  // measure 34
2020
0030
0002
0003
,  // measure 35
0010
0000
0000
0000
0100
0000
0000
0000
3001
0000
0000
1000
0000
0000
0001
0000
,  // measure 36
2002
0003
0020
0030
,  // measure 37
0001
0010
3001
0000
,  // measure 38
0202
0300
2000
3000
,  // measure 39
0100
0000
0000
0000
0010
0000
0000
0000
1003
0000
0000
0001
0000
0000
1000
0000
,  // measure 40
2002
3000
0020
0030
,  // measure 41
1000
0010
1003
0000
,  // measure 42
2200
0300
0002
0003
,  // measure 43
0100
0000
0000
0000
0010
0000
0000
0000
3001
0000
0000
1000
0000
0000
0001
0000
,  // measure 44
2000
0020
3030
0100
,  // measure 45
0002
0000
0013
0000
0100
1000
0100
1000
,  // measure 46
0002
0000
0103
0010
,  // measure 47
2000
0000
0000
0000
0000
0000
0000
0000
3010
0000
0000
0100
0000
0000
0001
0000
,  // measure 48
0002
0020
0033
0100
,  // measure 49
2000
0000
3010
0000
0100
0001
0100
0001
,  // measure 50
2000
0000
3100
0010
,  // measure 51
0002
0000
0000
0000
0000
0000
0000
0000
1003
0000
0000
0010
0000
0000
0100
0000
,  // measure 52
0002
0200
0303
0010
,  // measure 53
2000
0000
3100
0000
0010
0001
0010
0001
,  // measure 54
2000
0000
3010
0100
,  // measure 55
0002
0000
0000
0000
0000
0000
0000
0000
1003
0000
0000
0100
0000
0000
1000
0000
,  // measure 56
2000
0200
3300
0010
,  // measure 57
0002
0000
0103
0000
0010
1000
0010
1000
,  // measure 58
0002
0000
0013
0100
,  // measure 59
2000
0000
0000
0000
0000
0000
0000
0000
3001
0000
0000
0100
0000
0000
0010
0000
,  // measure 60
2002
0000
0000
0000
,  // measure 61
3003
0000
0000
0000
;

//---------------dance-single - ----------------
#NOTES:
     dance-single:
     :
     Easy:
     3:
     0.170785,0.246369,0.088854,0.597748,0.000000,148.000000,137.000000,11.000000,74.000000,0.000000,0.000000,0.170785,0.246369,0.088854,0.597748,0.000000,148.000000,137.000000,11.000000,74.000000,0.000000,0.000000:
// measure 0
0000
0000
0000
0000
,  // measure 1
0000
0000
0000
0000
,  // measure 2
0000
0000
0000
0000
,  // measure 3
0000
0000
0000
0000
,  // measure 4
1001
0000
0100
0000
,  // measure 5
0001
0000
0100
0000
,  // measure 6
1000
0000
0010
0000
,  // measure 7
0001
0000
0010
0000
,  // measure 8
1000
0001
0100
0100
,  // measure 9
0010
0010
1000
1000
,  // measure 10
0001
0010
0100
0100
,  // measure 11
1000
1000
0001
0001
,  // measure 12
0100
0010
1000
1000
,  // measure 13
0001
0001
0010
0010
,  // measure 14
0100
1000
0001
0001
,  // measure 15
0100
0100
0010
0010
,  // measure 16
2002
0000
0000
3003
,  // measure 17
0200
0000
0000
0300
,  // measure 18
0020
0000
0000
0030
,  // measure 19
0002
0000
0000
0003
,  // measure 20
1000
1000
2000
0000
,  // measure 21
3200
0000
0320
0000
,  // measure 22
0031
0001
0002
0000
,  // measure 23
0203
0000
0320
0000
,  // measure 24
1030
1000
2000
0000
,  // measure 25
3200
0000
0320
0000
,  // measure 26
0031
0001
0002
0000
,  // measure 27
0203
0000
0310
0000
,  // measure 28
2002
0003
0200
3300
,  // measure 29
0002
0000
0200
0303
,  // measure 30
0022
0030
2000
3003
,  // measure 31
0020
0000
2000
3030
,  // measure 32
2002
3000
0200
0303
,  // measure 33
2000
0000
0200
3300
,  // measure 34
2020
0030
0002
3003
,  // measure 35
0020
0000
0002
0033
,  // measure 36
0220
0030
0002
0303
,  // measure 37
0020
0000
2000
3030
,  // measure 38
0022
0003
0200
0330
,  // measure 39
0002
0000
0200
0303
,  // measure 40
0220
0300
2000
3030
,  // measure 41
0200
0000
2000
3300
,  // measure 42
0202
0003
0020
0330
,  // measure 43
0002
0000
0020
0033
,  // measure 44
2000
0020
0000
3030
,  // measure 45
0001
0010
0100
1000
,  // measure 46
0002
0000
0000
0103
,  // measure 47
2000
0000
0000
3100
,  // measure 48
0002
0020
0000
0033
,  // measure 49
1000
0010
0100
0001
,  // measure 50
2000
0000
0000
3100
,  // measure 51
0002
0000
0000
0103
,  // measure 52
2000
0200
0000
3300
,  // measure 53
0001
0100
0010
1000
,  // measure 54
0002
0000
0000
0013
,  // measure 55
2000
0000
0000
3010
,  // measure 56
0002
0200
0000
0303
,  // measure 57
1000
0100
0010
0001
,  // measure 58
2000
0000
0000
3010
,  // measure 59
0002
0000
0000
0013
,  // measure 60
2002
0000
0000
0000
,  // measure 61
3003
0000
0000
0000
;

//---------------dance-single - ----------------
#NOTES:
     dance-single:
     :
     Beginner:
     1:
     0.106164,0.147821,0.040388,0.355418,0.000000,92.000000,87.000000,5.000000,44.000000,0.000000,0.000000,0.106164,0.147821,0.040388,0.355418,0.000000,92.000000,87.000000,5.000000,44.000000,0.000000,0.000000:
// measure 0
0000
0000
0000
0000
,  // measure 1
0000
0000
0000
0000
,  // measure 2
0000
0000
0000
0000
,  // measure 3
0000
0000
0000
0000
,  // measure 4
0010
0000
0000
0000
,  // measure 5
1000
0000
0000
0000
,  // measure 6
0001
0000
0000
0000
,  // measure 7
0100
0000
0000
0000
,  // measure 8
0010
0010
0020
0030
,  // measure 9
0020
0030
0020
0030
,  // measure 10
1000
1000
2000
3000
,  // measure 11
2000
3000
2000
3000
,  // measure 12
0001
0001
0002
0003
,  // measure 13
0002
0003
0002
0003
,  // measure 14
0100
0100
0200
0300
,  // measure 15
0200
0300
0200
0300
,  // measure 16
0010
0000
1000
0000
,  // measure 17
0100
0000
0000
0000
,  // measure 18
0010
0000
0001
0000
,  // measure 19
0100
0000
0000
0000
,  // measure 20
0010
0000
0100
0000
,  // measure 21
0010
0000
0100
0000
,  // measure 22
1000
0000
0001
0000
,  // measure 23
1000
0000
0001
0000
,  // measure 24
0100
0000
0010
0000
,  // measure 25
0100
0000
0010
0000
,  // measure 26
1000
0000
0001
0000
,  // measure 27
1000
0000
0001
0000
,  // measure 28
2002
0000
0000
0000
,  // measure 29
0000
0000
3003
0000
,  // measure 30
0220
0000
0000
0000
,  // measure 31
0000
0000
0330
0000
,  // measure 32
2002
0000
0000
0000
,  // measure 33
0000
0000
3003
0000
,  // measure 34
0220
0000
0000
0000
,  // measure 35
0000
0000
0330
0000
,  // measure 36
2000
0000
3000
0000
,  // measure 37
0200
0000
0300
0000
,  // measure 38
0002
0000
0003
0000
,  // measure 39
0020
0000
0030
0000
,  // measure 40
0200
0000
0300
0000
,  // measure 41
0002
0000
0003
0000
,  // measure 42
2000
0000
3000
0000
,  // measure 43
0020
0000
0030
0000
,  // measure 44
1000
2000
0000
3000
,  // measure 45
0001
0001
0001
0000
,  // measure 46
0200
0000
0300
0000
,  // measure 47
0020
0000
0030
0000
,  // measure 48
0100
0200
0000
0300
,  // measure 49
0001
0001
0002
0003
,  // measure 50
0020
0000
0030
0000
,  // measure 51
0200
0000
0300
0000
,  // measure 52
0001
0002
0000
0003
,  // measure 53
1000
1000
1000
0000
,  // measure 54
0020
0000
0030
0000
,  // measure 55
0200
0000
0300
0000
,  // measure 56
0010
0020
0000
0030
,  // measure 57
1000
1000
2000
3000
,  // measure 58
0200
0000
0300
0000
,  // measure 59
0020
0000
0030
0000
,  // measure 60
2002
0000
0000
0000
,  // measure 61
3003
0000
0000
0000
;
