#VERSION:0.83;
#TITLE:Drive;
#SUBTITLE:;
#ARTIST:Jai Wolf (feat. The Chain Gang of 1974);
#TITLETRANSLIT:;
#SUBTITLETRANSLIT:;
#ARTISTTRANSLIT:;
#GENRE:Drive;
#ORIGIN:;
#CREDIT:;
#BANNER:Drive-bn.png;
#BACKGROUND:Drive-bg.png;
#PREVIEWVID:;
#JACKET:Drive-jacket.png;
#CDIMAGE:;
#DISCIMAGE:;
#LYRICSPATH:;
#CDTITLE:;
#MUSIC:Drive.mp3;
#OFFSET:-0.020530;
#SAMPLESTART:56.020191;
#SAMPLELENGTH:21.333340;
#SELECTABLE:YES;
#BPMS:0.000=90.000;
#STOPS:;
#DELAYS:;
#WARPS:;
#TIMESIGNATURES:0.000=4=4;
#TICKCOUNTS:0.000=4;
#COMBOS:0.000=1;
#SPEEDS:0.000=1.000=0.000=0;
#SCROLLS:0.000=1.000;
#FAKES:;
#LABELS:0.000=Song Start;
#LASTSECONDHINT:111.393532;
#BGCHANGES:;
#KEYSOUNDS:;
#ATTACKS:
;

//---------------dance-single - ----------------
#NOTEDATA:;
#CHARTNAME:;
#STEPSTYPE:dance-single;
#DESCRIPTION:;
#CHARTSTYLE:;
#DIFFICULTY:Hard;
#METER:7;
#RADARVALUES:0.293850,0.375219,0.043579,0.008716,0.039221,236.000000,231.000000,5.000000,1.000000,0.000000,0.000000,0.000000,0.000000,0.000000,0.293850,0.375219,0.043579,0.008716,0.039221,236.000000,231.000000,5.000000,1.000000,0.000000,0.000000,0.000000,0.000000,0.000000;
#CREDIT:;
#NOTES:
0000
0000
0000
0000
,
0000
0000
0000
0000
,
0000
0000
0000
0000
,
0000
0000
0000
0000
,
0000
0000
0000
0000
,
0000
0000
0000
0000
,
0000
0000
0000
0000
,
0000
0000
0000
0000
,
0000
0000
0000
0000
0001
0010
0100
1000
,
0001
0100
0001
1000
0000
0010
0100
0001
,
0000
0010
0100
0010
0000
0001
1000
0001
,
0100
1001
0100
0101
,
0100
0010
1001
0000
0010
1000
0001
0100
,
0010
1000
0100
0010
0000
0001
1000
0001
,
0000
0100
0000
0010
0000
1000
0000
0200
,
0000
0000
0000
0000
,
0300
0000
0000
0000
,
1010
0010
0001
0010
1000
0010
0001
0010
,
1000
0010
0100
0010
1000
0010
0100
0010
,
1000
0100
0010
0100
1000
0100
0010
0100
,
1000
0100
0001
0100
1000
0100
0001
0100
,
0010
0001
0010
0100
0010
0001
0010
0100
,
1000
0010
0001
0010
1000
0100
0001
0100
,
0010
0001
0100
0001
0010
0100
1000
0100
,
0010
0001
1000
0001
0100
0010
1000
0001
,
0100
1000
0100
0010
0100
1000
0100
0010
,
0100
0001
1000
0010
0100
0001
1000
0010
,
1000
0100
0010
0100
1000
0010
0100
0001
,
0010
0000
0000
0000
0100
0000
0000
0000
1000
0001
0000
1000
0001
0000
0100
0000
,
1001
0100
0001
0100
1000
0001
0100
0001
,
0000
1000
0010
1000
0001
0010
1000
0010
,
0000
0001
0100
0010
1000
0100
0010
0100
,
0000
1000
0010
1000
0001
0100
0010
1000
,
0000
0001
0010
1000
0010
0001
0100
0001
,
0000
1000
0010
0001
0010
1000
0100
1000
,
0000
0100
0001
0100
1000
0010
0100
0001
,
0000
0000
0010
0000
0001
0000
0010
0000
0100
1000
0100
1000
0001
0000
1000
0001
,
1000
0010
0100
0001
1000
0010
1000
0100
,
0010
0100
1000
0001
0100
0010
1000
0001
,
0100
0010
0100
0001
0010
0100
0010
0001
,
1000
0100
1000
0000
0001
0100
0001
0000
0010
0000
0100
0000
1000
0001
1000
0001
,
1000
0000
0000
0000
;

//---------------dance-single - ----------------
#NOTEDATA:;
#CHARTNAME:;
#STEPSTYPE:dance-single;
#DESCRIPTION:;
#CHARTSTYLE:;
#DIFFICULTY:Medium;
#METER:5;
#RADARVALUES:0.258986,0.303749,0.052295,0.008716,0.000000,208.000000,202.000000,6.000000,1.000000,0.000000,0.000000,0.000000,0.000000,0.000000,0.258986,0.303749,0.052295,0.008716,0.000000,208.000000,202.000000,6.000000,1.000000,0.000000,0.000000,0.000000,0.000000,0.000000;
#CREDIT:;
#NOTES:
0000
0000
0000
0000
,
0000
0000
0000
0000
,
0000
0000
0000
0000
,
0000
0000
0000
0000
,
0000
0000
0000
0000
,
0000
0000
0000
0000
,
0000
0000
0000
0000
,
0000
0000
0000
0000
,
0000
0000
0000
0000
0001
1000
0001
1000
,
0000
0100
1000
0100
0000
1000
0000
0010
,
0000
0100
0000
0001
0000
0010
0000
0100
,
0000
1001
0100
1001
,
0100
0000
1001
0000
0100
0010
0100
0010
,
0000
1000
0001
0100
0000
0010
0000
1000
,
0000
0100
0000
0010
0000
0001
0000
2000
,
0000
0000
0000
0000
,
3000
0000
0000
0000
,
1000
0100
1000
0100
1000
0100
1000
0100
,
1000
0100
1000
0100
1000
0100
1000
0100
,
1000
0001
1000
0001
1000
0001
1000
0001
,
1000
0001
1000
0001
1000
0001
1000
0001
,
0100
0001
0100
0001
0100
0001
0100
0001
,
0010
0001
0010
0001
0010
0001
0010
0001
,
1000
0001
1000
0001
0010
0001
0010
0001
,
1000
0001
0010
0001
1000
0001
0010
0001
,
1000
0001
1000
0001
1000
0001
1000
0001
,
0100
0001
0100
0001
0100
0001
0100
0001
,
1000
0001
1000
0001
0100
0001
0100
0001
,
1000
0001
0100
0000
0001
0000
0001
0000
,
0001
0100
0001
0000
0010
0000
0110
0000
,
0010
0100
0010
0000
0100
0000
1001
0000
,
0100
1000
0100
0000
1000
0000
1001
0000
,
1000
0010
1000
0000
0001
0100
0010
0000
,
1000
0010
1000
0000
0001
0100
0010
0000
,
1000
0100
0010
0000
0001
1000
0010
0000
,
0100
0001
1000
0010
0100
0000
0010
0000
,
1000
0001
0100
0010
1000
0000
0001
0000
,
1000
0100
0010
0100
1000
0100
0010
0100
,
1000
0001
1000
0100
1000
0001
1000
0100
,
1000
0001
0100
0001
1000
0001
0100
0001
,
1000
0001
1000
0001
0100
0010
1000
0001
,
0100
0000
0000
0000
;

//---------------dance-single - ----------------
#NOTEDATA:;
#CHARTNAME:;
#STEPSTYPE:dance-single;
#DESCRIPTION:;
#CHARTSTYLE:;
#DIFFICULTY:Easy;
#METER:3;
#RADARVALUES:0.163112,0.214411,0.008716,0.017432,0.000000,131.000000,130.000000,1.000000,2.000000,0.000000,0.000000,0.000000,0.000000,0.000000,0.163112,0.214411,0.008716,0.017432,0.000000,131.000000,130.000000,1.000000,2.000000,0.000000,0.000000,0.000000,0.000000,0.000000;
#CREDIT:;
#NOTES:
// measure 0
0000
0000
0000
0000
,  // measure 1
0000
0000
0000
0000
,  // measure 2
0000
0000
0000
0000
,  // measure 3
0000
0000
0000
0000
,  // measure 4
0000
0000
0000
0000
,  // measure 5
0000
0000
0000
0000
,  // measure 6
0000
0000
0000
0000
,  // measure 7
0000
0000
0000
0000
,  // measure 8
0000
0000
0000
0000
0010
0010
0010
0000
,  // measure 9
1000
0100
0010
0001
,  // measure 10
0100
0010
0100
0010
,  // measure 11
2000
0000
0000
0000
,  // measure 12
3000
0000
0000
0000
0100
0100
0100
0000
,  // measure 13
0010
0001
0100
0010
,  // measure 14
1000
0100
0010
0001
,  // measure 15
2000
0000
0000
0000
,  // measure 16
3000
0000
0000
0000
,  // measure 17
0001
0010
0100
0010
,  // measure 18
0001
1000
0100
1000
,  // measure 19
0001
0100
0001
1000
,  // measure 20
0001
0100
0010
1000
,  // measure 21
1001
1000
0001
1000
,  // measure 22
0100
0010
0001
0100
,  // measure 23
0010
1000
0010
0000
0100
0000
0100
0000
,  // measure 24
0001
0010
0100
1000
,  // measure 25
0010
1000
0001
0010
,  // measure 26
0100
1000
0001
0100
,  // measure 27
0010
0100
0010
0000
1000
0000
0001
0000
,  // measure 28
0100
0000
0010
0010
,  // measure 29
1000
0100
1000
1000
,  // measure 30
0001
0100
0001
0001
,  // measure 31
0010
0100
1000
1000
,  // measure 32
0010
0100
0001
0001
,  // measure 33
0100
0000
0100
0000
0100
0100
0100
0000
,  // measure 34
0010
0000
0010
0000
0010
0010
0010
0000
,  // measure 35
1000
0000
0100
0000
0010
0010
0010
0000
,  // measure 36
0001
0000
0100
0000
0010
0010
0010
0000
,  // measure 37
1000
0100
0010
0001
,  // measure 38
1000
0000
0100
0000
1000
0001
0100
0000
,  // measure 39
0010
0000
0100
0000
0001
0100
0001
0000
,  // measure 40
0010
0000
0100
0000
1000
0001
1000
0001
,  // measure 41
1000
0000
0000
0000
;

//---------------dance-single - ----------------
#NOTEDATA:;
#CHARTNAME:;
#STEPSTYPE:dance-single;
#DESCRIPTION:;
#CHARTSTYLE:;
#DIFFICULTY:Beginner;
#METER:1;
#RADARVALUES:0.114552,0.160808,0.000000,0.017432,0.000000,92.000000,92.000000,0.000000,2.000000,0.000000,0.000000,0.000000,0.000000,0.000000,0.114552,0.160808,0.000000,0.017432,0.000000,92.000000,92.000000,0.000000,2.000000,0.000000,0.000000,0.000000,0.000000,0.000000;
#CREDIT:;
#NOTES:
// measure 0
0000
0000
0000
0000
,  // measure 1
0000
0000
0000
0000
,  // measure 2
0000
0000
0000
0000
,  // measure 3
0000
0000
0000
0000
,  // measure 4
0000
0000
0000
0000
,  // measure 5
0000
0000
0000
0000
,  // measure 6
0000
0000
0000
0000
,  // measure 7
0000
0000
0000
0000
,  // measure 8
0000
0000
0010
0000
,  // measure 9
1000
0000
0100
0000
,  // measure 10
0010
0000
0001
0000
,  // measure 11
0200
0000
0000
0000
,  // measure 12
0300
0000
0010
0000
,  // measure 13
1000
0000
0100
0000
,  // measure 14
0010
0000
0001
0000
,  // measure 15
2000
0000
0000
0000
,  // measure 16
3000
0000
0000
0000
,  // measure 17
1000
1000
1000
1000
,  // measure 18
1000
1000
1000
1000
,  // measure 19
1000
1000
1000
1000
,  // measure 20
1000
1000
1000
0000
,  // measure 21
0010
0010
0010
0010
,  // measure 22
0010
0010
0010
0000
,  // measure 23
0100
0100
0100
0100
,  // measure 24
0100
0100
0100
0000
,  // measure 25
0001
0001
0001
0001
,  // measure 26
0001
0001
0001
0000
,  // measure 27
1000
1000
1000
1000
,  // measure 28
1000
0000
0010
0000
,  // measure 29
0100
0100
0100
0100
,  // measure 30
0000
0001
0001
0001
,  // measure 31
0000
1000
1000
1000
,  // measure 32
0000
0100
0100
0100
,  // measure 33
0000
0010
0010
0010
,  // measure 34
0000
0001
0001
0001
,  // measure 35
0000
1000
1000
1000
,  // measure 36
0000
0010
0010
0010
,  // measure 37
0000
0100
0100
0100
,  // measure 38
0000
0001
0001
0001
,  // measure 39
0001
0000
0010
0000
,  // measure 40
0100
0100
0100
0100
,  // measure 41
0100
0000
0000
0000
;
