#VERSION:0.83;
#TITLE:Dressed To Suppress;
#SUBTITLE:;
#ARTIST:Metric;
#TITLETRANSLIT:;
#SUBTITLETRANSLIT:;
#ARTISTTRANSLIT:;
#GENRE:Art of Doubt;
#ORIGIN:;
#CREDIT:;
#BANNER:Dressed To Suppress-bn.png;
#BACKGROUND:Dressed To Suppress-bg.png;
#PREVIEWVID:Dressed To Suppress-preview.avi;
#JACKET:Dressed To Suppress-jacket.png;
#CDIMAGE:;
#DISCIMAGE:;
#LYRICSPATH:;
#CDTITLE:;
#MUSIC:Dressed To Suppress.mp3;
#OFFSET:-0.022000;
#SAMPLESTART:111.761040;
#SAMPLELENGTH:16.551727;
#SELECTABLE:YES;
#BPMS:0.000=116.000;
#STOPS:;
#DELAYS:;
#WARPS:;
#TIMESIGNATURES:0.000=4=4;
#TICKCOUNTS:0.000=2;
#COMBOS:0.000=1;
#SPEEDS:0.000=1.000=0.000=0;
#SCROLLS:0.000=1.000;
#FAKES:;
#LABELS:0.000=Song Start;
#LASTSECONDHINT:143.850006;
#BGCHANGES:0.000=Dressed To Suppress-video.avi=1.000=1=0=1===CrossFade==,
99999=-nosongbg-=1.000=0=0=0 // don't automatically add -songbackground-
;
#KEYSOUNDS:;
#ATTACKS:
;

//---------------dance-single - ----------------
#NOTEDATA:;
#CHARTNAME:;
#STEPSTYPE:dance-single;
#DESCRIPTION:;
#CHARTSTYLE:;
#DIFFICULTY:Hard;
#METER:8;
#RADARVALUES:0.337416,0.398572,0.120779,0.234849,0.087230,352.000000,334.000000,18.000000,35.000000,0.000000,0.000000,0.000000,0.000000,0.000000,0.337416,0.398572,0.120779,0.234849,0.087230,352.000000,334.000000,18.000000,35.000000,0.000000,0.000000,0.000000,0.000000,0.000000;
#CREDIT:;
#NOTES:
0000
0000
0000
0000
,
0000
0000
0000
0000
,
0000
0000
0000
0000
,
0000
0000
0000
0000
,
1000
1000
0010
1000
1000
1000
0001
0010
,
0100
0100
0010
0100
0100
0100
1000
0010
,
0100
0100
0010
0100
0100
0100
0001
0010
,
0100
1000
0100
1000
0001
0010
0001
0100
,
2002
0000
3003
1000
0100
0001
0100
1000
,
0010
0000
0100
0001
0000
0000
0000
0000
1000
0000
0000
0000
1000
0000
0000
0000
,
0010
0000
0010
0100
0001
0100
0010
1000
,
0001
0010
0100
0000
0001
0010
0100
0000
,
2002
0000
3003
1000
0010
0001
0010
1000
,
0001
0000
0100
0001
0000
0000
0000
0000
0100
0000
0000
0000
0100
0000
0000
0000
,
0010
0000
0010
1000
0001
1000
0100
1000
,
0010
0100
0001
0000
0010
0100
0001
0000
,
2002
0000
3003
0001
0010
1000
0010
0001
,
0100
0000
0001
1000
0000
0000
0000
0000
0010
0000
0000
0000
0010
0000
0000
0000
,
0100
0000
0100
0001
0010
0001
0100
0010
,
1000
0100
0001
0101
,
2002
0000
3003
0001
0100
1000
0100
0001
,
1000
0000
0010
0100
0000
0000
0000
0000
0001
0000
0000
0000
0001
0000
0000
0000
,
0010
0000
0100
0000
1000
0000
0100
1000
0000
0000
0010
0000
0100
0000
0001
0100
,
0000
0001
0000
0000
1001
0000
0000
0000
0110
0000
0000
0000
1001
0000
0000
0000
,
0000
0000
0010
0000
1000
0000
0001
1000
0000
0000
0020
0000
0000
0000
1030
0000
,
0001
1000
0000
0200
0000
1300
0001
1000
,
0000
0000
0010
0000
0100
0000
0001
1000
0000
0000
0010
0000
0100
0000
0001
1000
,
0000
0100
0000
0000
0010
0000
0000
0000
0001
0010
0001
0000
0100
0000
0000
0000
,
0001
0000
0010
0000
0100
0000
1000
0010
0000
0000
2000
0000
0000
0000
3001
0000
,
0100
0010
0000
0200
0000
0301
0010
0100
,
0000
0000
1000
0000
0010
0000
0100
0001
0000
0000
0010
0000
0100
0000
1000
0001
,
0000
1000
0000
0000
1100
0000
0000
0000
1001
0000
0000
0000
0002
0000
2000
0000
,
0000
0000
3003
0000
0200
0000
0300
0020
,
0000
0000
0030
0000
2000
0000
3000
0200
,
0000
0010
0010
0010
,
0010
0000
0310
0000
1000
0000
0001
0200
,
0000
0300
0010
0000
1000
0000
0100
0020
,
0000
0030
0001
0000
1000
0000
0001
0020
,
0000
0100
0100
0100
,
0100
0000
0130
0000
1000
0000
0001
2000
,
0000
3000
0100
0000
0010
0000
0001
0200
,
0000
0300
0010
0000
1000
0000
0001
0020
,
0000
0230
0000
0000
0000
0000
1300
0000
,
0010
0000
0100
0000
0001
0000
0010
0200
,
0000
0300
1000
0000
0001
0000
1000
0020
,
0000
0030
0100
0000
0001
0000
0000
1000
,
0000
0200
0000
0000
0020
0000
0000
0000
0000
0000
0000
0000
0000
0000
0300
0000
,
0200
0000
0000
0000
0000
0000
0000
0300
,
0200
0000
0000
0330
,
0110
0000
0110
0000
1001
0100
0010
0100
,
1001
0000
0100
0000
0010
0000
1000
0100
0000
0000
0020
0000
0000
0000
0031
0000
,
0100
0010
0000
2000
0000
3001
0010
0100
,
0000
0000
1000
0000
0100
0000
0010
0001
0000
0000
0001
0000
0010
0000
0100
1000
,
0000
0100
0000
0000
1000
0000
0000
0000
0001
0100
0001
0000
1000
0000
0000
0000
,
0010
0000
0100
0000
0001
0000
1000
0100
0000
0000
0020
0000
0000
0000
0031
0000
,
1000
0010
0000
0200
0000
0301
1000
0100
,
0000
0000
0010
0000
0001
0000
1000
0010
0000
0000
0100
0000
0001
0000
1000
0001
,
0000
0100
0000
0000
0101
0000
0000
0000
1001
0000
0000
0000
0110
0000
0000
0000
,
1001
0000
1000
0010
0100
0000
1000
0100
,
0001
0000
1000
0010
0100
0000
1000
0100
,
0001
0010
0100
1000
,
0000
0010
0010
0010
1000
0001
0100
0000
,
0000
0000
0001
1000
0100
0000
0010
0001
,
0100
0000
0001
1000
0100
0000
0010
0001
,
0100
0001
1000
0010
,
0000
0100
0100
0100
0001
0010
0100
0000
,
1000
0000
0000
0000
;

//---------------dance-single - ----------------
#NOTEDATA:;
#CHARTNAME:;
#STEPSTYPE:dance-single;
#DESCRIPTION:;
#CHARTSTYLE:;
#DIFFICULTY:Challenge;
#METER:9;
#RADARVALUES:0.451485,0.509287,0.489828,0.140909,0.167749,471.000000,398.000000,73.000000,21.000000,0.000000,0.000000,0.000000,0.000000,0.000000,0.451485,0.509287,0.489828,0.140909,0.167749,471.000000,398.000000,73.000000,21.000000,0.000000,0.000000,0.000000,0.000000,0.000000;
#CREDIT:;
#NOTES:
0000
0000
0000
0000
,
0000
0000
0000
0000
,
0000
0000
0000
0000
,
0000
0000
0000
0000
,
1000
1000
1010
1000
1000
1000
1001
0010
,
0100
0100
0011
0100
0100
0100
1001
0010
,
0100
0100
1010
0100
0100
0100
1001
0010
,
0100
1000
0100
1000
0001
0010
0001
0100
,
2002
0000
0000
0000
3003
0000
0001
0100
0001
0000
1000
0010
0100
0000
0010
0000
,
1000
0000
0100
0010
0000
0000
0000
0000
0001
0000
1000
0000
0010
0000
0100
0000
,
0001
0000
0000
0000
0010
0000
0100
1000
0001
0000
0100
0001
1000
0000
0010
0000
,
0100
0001
1100
0000
0100
0001
1100
0000
,
0010
0000
0000
0000
0100
0000
0001
0010
0100
0000
1000
0010
0100
0000
0001
0000
,
1000
0000
0010
0100
0000
0000
0000
0000
1001
0000
0000
0000
0110
0000
0000
0000
,
1000
0000
0000
0000
0100
0000
0010
0001
1000
0000
0010
1000
0001
0000
0100
0000
,
0010
1000
0101
0000
0010
1000
0101
0000
,
1001
0000
0000
0000
0100
0000
0001
0000
1000
0000
0010
0100
0001
0000
1000
0000
,
0100
0000
0010
0100
0000
0000
0000
0000
1000
0000
0001
0000
0010
0000
0100
0000
,
0010
0000
0000
0000
0001
0000
0100
0001
1000
0000
0001
0100
0000
0001
1000
0000
,
0100
0000
0010
0000
0001
0010
0100
1000
,
0010
0000
0000
0000
0100
0000
0001
0000
1000
0001
0100
0010
1000
0000
0001
0000
,
0100
0000
0010
1000
0000
0000
0000
0000
0001
0000
1000
0000
0001
0000
0000
0000
,
0010
0000
0100
0000
1000
0000
0001
0100
0000
0000
0010
0000
1000
0000
0001
0100
,
0000
0010
0000
0000
1000
0000
0000
0100
0010
0001
0100
0000
0001
0000
0010
0000
,
0000
0000
1001
0000
0100
0000
0001
1000
0000
0000
1001
0000
0000
0000
1001
0000
,
0100
0101
0000
1001
0000
1001
0100
0101
,
0000
0000
1001
0000
0100
0000
0001
1000
0000
0000
1001
0000
0100
0000
0001
1000
,
0000
0100
0000
0000
1100
0000
0000
1000
0010
0100
0001
0000
0100
0000
0010
0000
,
1100
0000
0010
0000
0100
0000
0001
1000
0000
0000
1001
0000
0000
0000
1001
0000
,
0100
1100
0000
1001
0000
1001
0100
1100
,
0000
0000
1001
0000
0100
0000
1000
0001
0000
0000
1001
0000
0100
0000
1000
0001
,
0000
0100
0000
0000
0101
0000
0000
0000
1001
0000
0000
0000
0002
0000
2000
0000
,
0000
0000
3003
0000
0200
0000
0300
0020
,
0000
0000
0030
0000
2000
0000
3000
0200
,
0000
0000
0010
0010
0010
0010
0010
0010
,
0010
0010
0310
0000
1000
0000
0001
0200
,
0000
0300
0010
1000
0100
1000
0001
0020
,
0000
0030
0001
0100
1000
0100
0001
0020
,
0000
0000
0100
0100
0100
0100
0100
0100
,
0100
0100
0130
0000
1000
0000
0001
2000
,
0000
3000
0100
1000
0010
0100
0001
0200
,
0000
0300
0010
1000
0001
0010
1000
0020
,
0000
0031
0200
0000
0000
0000
0000
0000
0000
0000
0000
0000
0001
0000
0001
0000
,
0001
0001
0001
0001
0301
0000
0010
0200
,
0000
0300
1000
0100
0001
0100
1000
0020
,
0000
0030
0100
0001
1000
0100
0010
0001
,
0000
0200
0000
0000
0020
0000
0000
0000
0000
0000
0000
0000
0000
0000
0300
0000
,
0200
0000
0000
0000
0000
0000
0000
0300
,
0200
0000
0000
0330
,
0110
0000
0110
0000
1001
1001
0100
0100
,
0110
0000
0001
0000
1000
0000
0001
0100
0000
0000
1001
0000
0000
0000
1001
0000
,
0010
0101
0000
1001
0000
1001
0010
0101
,
0000
0000
1001
0000
0010
0000
0100
0001
0000
0000
1001
0000
0010
0000
0100
0001
,
0000
1000
0000
0000
0100
0000
0000
0010
0001
1000
0100
0000
0010
0000
0001
0000
,
1001
0000
0100
0000
1000
0000
0010
0100
0000
0000
0110
0000
0000
0000
0110
0000
,
1000
0101
0000
0110
0000
0110
1000
0101
,
0000
0000
0110
0000
1000
0000
0001
0100
0000
0000
0110
0000
1000
0000
0001
0100
,
0010
1000
0010
1000
0000
0000
0001
0100
0001
0100
0000
0000
0001
1000
0001
1000
,
0001
0000
1100
0010
0100
0000
1010
0100
,
0001
0000
1100
0010
0100
0000
1010
0100
,
0001
1100
1000
0101
,
0000
1001
0100
0001
1000
0001
0101
0000
,
0000
0000
1010
0100
0001
0000
1001
0100
,
1000
0000
1010
0100
0001
0000
1001
0100
,
1000
0101
0001
1100
,
0000
1001
0100
0001
1000
0001
0100
0000
,
1001
0000
0000
0000
;

//---------------dance-single - ----------------
#NOTEDATA:;
#CHARTNAME:;
#STEPSTYPE:dance-single;
#DESCRIPTION:;
#CHARTSTYLE:;
#DIFFICULTY:Medium;
#METER:5;
#RADARVALUES:0.262647,0.310001,0.100650,0.093940,0.000000,274.000000,259.000000,15.000000,14.000000,0.000000,0.000000,0.000000,0.000000,0.000000,0.262647,0.310001,0.100650,0.093940,0.000000,274.000000,259.000000,15.000000,14.000000,0.000000,0.000000,0.000000,0.000000,0.000000;
#CREDIT:;
#NOTES:
// measure 0
0000
0000
0000
0000
,  // measure 1
0000
0000
0000
0000
,  // measure 2
0000
0000
0000
0000
,  // measure 3
0000
0000
0000
0000
,  // measure 4
0001
0000
0010
0000
0100
0000
1000
0001
,  // measure 5
1000
0000
0010
0000
0100
0000
0001
1000
,  // measure 6
0001
0000
0010
0000
0100
0000
1000
0001
,  // measure 7
1000
0100
1000
0000
0001
0100
0001
0000
,  // measure 8
1000
0000
0001
0000
0100
0010
0100
0010
,  // measure 9
0100
0010
1000
0100
,  // measure 10
0010
0000
0001
0000
1000
0100
1000
0000
,  // measure 11
0001
0010
0001
0000
1000
0010
1000
0000
,  // measure 12
0001
0000
1000
0000
0010
0100
0010
0000
,  // measure 13
1000
0001
0100
0010
,  // measure 14
0100
0000
0001
0000
0010
0100
0010
0000
,  // measure 15
0001
1000
0001
0000
1000
0001
1000
0000
,  // measure 16
0010
0000
0100
0000
0001
0010
0001
0000
,  // measure 17
0010
0100
1000
0001
,  // measure 18
0100
0000
0010
0000
1000
0010
1000
0000
,  // measure 19
0100
1000
0001
0100
,  // measure 20
0010
0000
1000
0000
0001
1000
0100
0010
,  // measure 21
0001
1000
0001
1000
,  // measure 22
0010
0100
0010
0000
1000
0001
1000
0000
,  // measure 23
0101
0101
2002
3003
,  // measure 24
0010
1000
0010
0000
1000
0000
1100
0000
,  // measure 25
0001
1000
0001
0000
0010
0000
0100
0000
,  // measure 26
0010
0001
0010
0000
0100
0000
1001
0000
,  // measure 27
0100
0001
0100
0000
1000
0001
1000
0000
,  // measure 28
0100
0001
0100
0000
0001
0000
0011
0000
,  // measure 29
1000
0001
1000
0000
0100
0000
0010
0000
,  // measure 30
0100
1000
0100
0000
0010
0000
1001
0000
,  // measure 31
0010
1000
0010
0000
0001
1000
0001
0000
,  // measure 32
0020
0000
0130
1000
,  // measure 33
0002
0000
0103
0010
,  // measure 34
2000
0000
0000
0000
,  // measure 35
0000
0000
3001
0010
,  // measure 36
0200
0000
1300
0001
,  // measure 37
0200
0000
0310
1000
,  // measure 38
0002
0000
0000
0000
,  // measure 39
0000
0000
0013
0100
,  // measure 40
2000
0000
3100
0010
,  // measure 41
0002
0000
1003
0001
,  // measure 42
0200
0000
0000
0000
,  // measure 43
0000
0000
0310
1000
,  // measure 44
0002
0000
0013
0100
,  // measure 45
2000
0000
0000
0000
0000
3001
1000
0000
,  // measure 46
0200
0000
0000
0000
,  // measure 47
0010
0000
0000
0000
,  // measure 48
0010
0000
0000
0000
,  // measure 49
0010
0010
0310
0100
,  // measure 50
1000
0001
1000
0000
0001
0000
0101
0000
,  // measure 51
1000
0001
1000
0000
0010
0000
0100
0000
,  // measure 52
0010
1000
0010
0000
0100
0000
1001
0000
,  // measure 53
0100
0001
0100
0000
1000
0001
1000
0000
,  // measure 54
0100
0001
0100
0000
0001
0000
0011
0000
,  // measure 55
1000
0001
1000
0000
0100
0000
0010
0000
,  // measure 56
0100
1000
0100
0000
0010
0000
1001
0000
,  // measure 57
0010
1000
0010
0000
0001
1000
0001
0000
,  // measure 58
1001
0000
1000
0100
1000
0000
0001
1000
,  // measure 59
0000
0000
0001
0100
0001
0000
1000
0001
,  // measure 60
0000
0000
0000
1001
,  // measure 61
0000
0001
1000
0001
1000
0001
1000
0000
,  // measure 62
0000
0000
0001
0100
0001
0000
1000
0001
,  // measure 63
0000
0000
1000
0100
1000
0000
0001
1000
,  // measure 64
0000
0000
0000
1001
,  // measure 65
0000
0001
1000
0001
1000
0001
1000
0000
,  // measure 66
1001
0000
0000
0000
;

//---------------dance-single - ----------------
#NOTEDATA:;
#CHARTNAME:;
#STEPSTYPE:dance-single;
#DESCRIPTION:;
#CHARTSTYLE:;
#DIFFICULTY:Easy;
#METER:3;
#RADARVALUES:0.168708,0.199286,0.020130,0.154329,0.000000,176.000000,173.000000,3.000000,23.000000,0.000000,0.000000,0.000000,0.000000,0.000000,0.168708,0.199286,0.020130,0.154329,0.000000,176.000000,173.000000,3.000000,23.000000,0.000000,0.000000,0.000000,0.000000,0.000000;
#CREDIT:;
#NOTES:
// measure 0
0000
0000
0000
0000
,  // measure 1
0000
0000
0000
0000
,  // measure 2
0000
0000
0000
0000
,  // measure 3
0000
0000
0000
0000
,  // measure 4
1000
1000
0000
0010
,  // measure 5
0100
0100
0000
0001
,  // measure 6
0010
0010
0000
0100
,  // measure 7
0100
1000
0001
0000
,  // measure 8
0010
0000
0001
0100
,  // measure 9
0010
0000
1000
0000
,  // measure 10
0100
0000
0010
0100
,  // measure 11
1000
0001
0100
0010
,  // measure 12
0100
0000
0010
0010
,  // measure 13
1000
0100
0010
0000
,  // measure 14
0001
0000
1000
1000
,  // measure 15
0001
0100
1000
0100
,  // measure 16
0001
0000
0010
0010
,  // measure 17
1000
0100
0000
0000
,  // measure 18
0010
0000
0001
0001
,  // measure 19
1000
0000
0010
0000
,  // measure 20
0100
0000
0001
0001
,  // measure 21
1000
0000
0010
0010
,  // measure 22
0100
0010
1000
0000
,  // measure 23
0100
0010
0001
0000
,  // measure 24
1000
0010
0010
0001
,  // measure 25
1000
1000
0100
0001
,  // measure 26
0001
0010
1000
1000
,  // measure 27
0100
0100
0010
0000
,  // measure 28
0001
0010
1000
1000
,  // measure 29
0100
0001
0001
0010
,  // measure 30
1000
0100
0010
0000
,  // measure 31
0001
1000
0100
0010
,  // measure 32
0220
0000
0330
0000
,  // measure 33
2002
0000
3003
0000
,  // measure 34
0220
0000
0000
0000
,  // measure 35
0330
0000
2000
3000
,  // measure 36
0002
0003
0020
0030
,  // measure 37
0200
0300
0020
0030
,  // measure 38
0002
0000
0000
0000
,  // measure 39
0003
0000
2000
3000
,  // measure 40
0002
0000
0003
0100
,  // measure 41
0020
0030
2000
3000
,  // measure 42
0002
0000
0000
0000
,  // measure 43
0003
0000
0020
0030
,  // measure 44
0200
0300
2000
3000
,  // measure 45
0002
0003
0020
0030
,  // measure 46
0200
0000
0000
0000
,  // measure 47
0000
0000
0000
0000
,  // measure 48
0000
0000
0000
0000
,  // measure 49
0000
0000
0000
0300
,  // measure 50
1000
0010
0010
0001
,  // measure 51
1000
1000
0100
0001
,  // measure 52
0001
0010
1000
1000
,  // measure 53
0100
0100
0010
0000
,  // measure 54
0001
0010
1000
1000
,  // measure 55
0100
0001
0001
0010
,  // measure 56
1000
0100
0010
0000
,  // measure 57
0001
1000
0100
0010
,  // measure 58
0001
0100
0001
0100
,  // measure 59
1000
0100
1000
0100
,  // measure 60
0001
0100
0001
0100
,  // measure 61
0010
1000
0010
1000
,  // measure 62
0001
0010
0001
0010
,  // measure 63
0100
1000
0100
1000
,  // measure 64
0001
0100
1000
0100
,  // measure 65
0001
0001
1000
0100
,  // measure 66
1000
0000
0000
0000
;

//---------------dance-single - ----------------
#NOTEDATA:;
#CHARTNAME:;
#STEPSTYPE:dance-single;
#DESCRIPTION:;
#CHARTSTYLE:;
#DIFFICULTY:Beginner;
#METER:1;
#RADARVALUES:0.120779,0.176472,0.013420,0.087230,0.000000,126.000000,124.000000,2.000000,13.000000,0.000000,0.000000,0.000000,0.000000,0.000000,0.120779,0.176472,0.013420,0.087230,0.000000,126.000000,124.000000,2.000000,13.000000,0.000000,0.000000,0.000000,0.000000,0.000000;
#CREDIT:;
#NOTES:
// measure 0
0000
0000
0000
0000
,  // measure 1
0000
0000
0000
0000
,  // measure 2
0000
0000
0000
0000
,  // measure 3
0000
0000
0000
0000
,  // measure 4
1000
1000
0000
0100
,  // measure 5
0100
0100
0000
0010
,  // measure 6
0010
0010
0000
0001
,  // measure 7
0001
0001
0001
0000
,  // measure 8
0010
0000
0100
0100
,  // measure 9
0100
0000
1000
0000
,  // measure 10
0100
0000
0010
0010
,  // measure 11
0010
0000
0010
0000
,  // measure 12
0100
0000
1000
1000
,  // measure 13
1000
1000
0000
0000
,  // measure 14
0010
0000
0100
0000
,  // measure 15
0001
0001
0001
0000
,  // measure 16
1001
0000
0010
0010
,  // measure 17
0010
0000
0000
0000
,  // measure 18
1000
0000
0001
0001
,  // measure 19
0001
0000
0001
0000
,  // measure 20
0100
0000
0010
0010
,  // measure 21
0010
0000
0000
0000
,  // measure 22
1000
0000
0001
0000
,  // measure 23
0100
0100
0100
0000
,  // measure 24
0010
0010
0000
0010
,  // measure 25
0000
0100
0000
0100
,  // measure 26
0100
0100
0000
0001
,  // measure 27
0001
0000
1000
0000
,  // measure 28
0100
0100
0000
0010
,  // measure 29
0000
0010
0000
0100
,  // measure 30
0100
0100
0000
1000
,  // measure 31
1000
0000
0001
0000
,  // measure 32
2002
0000
3003
0000
,  // measure 33
0020
0000
0030
0000
,  // measure 34
0200
0000
0300
0000
,  // measure 35
0000
0000
0001
0000
,  // measure 36
0002
0000
0003
0000
,  // measure 37
0020
0000
0030
0000
,  // measure 38
0200
0000
0300
0000
,  // measure 39
0000
0000
1000
0000
,  // measure 40
2000
0000
3000
0000
,  // measure 41
0002
0000
0003
0000
,  // measure 42
0200
0000
0300
0000
,  // measure 43
0000
0000
0010
0000
,  // measure 44
0020
0000
0030
0000
,  // measure 45
2000
0000
3000
0000
,  // measure 46
0200
0000
0000
0000
,  // measure 47
0300
0000
0000
0000
,  // measure 48
0000
0000
0000
0000
,  // measure 49
0000
0000
0000
0000
,  // measure 50
0010
0010
0000
0010
,  // measure 51
0000
1000
0000
0001
,  // measure 52
0001
0001
0000
0010
,  // measure 53
0010
0000
0100
0000
,  // measure 54
1000
1000
0000
0010
,  // measure 55
0000
0100
0000
0001
,  // measure 56
0001
0001
0000
1000
,  // measure 57
1000
0000
0100
0000
,  // measure 58
0010
0010
0000
0010
,  // measure 59
0000
0001
0000
0001
,  // measure 60
0000
1000
0000
1000
,  // measure 61
0000
0100
0100
0100
,  // measure 62
0000
0010
0000
0010
,  // measure 63
0000
0001
0000
0001
,  // measure 64
0000
1000
0000
1000
,  // measure 65
0000
0010
0010
0010
;
