#TITLE:Dreams;
#SUBTITLE:;
#ARTIST:David Guetta & MORTEN ft. Lanie Gardner;
#TITLETRANSLIT:;
#SUBTITLETRANSLIT:;
#ARTISTTRANSLIT:;
#GENRE:Dreams;
#CREDIT:[Ness];
#BANNER:Dreams.png;
#BACKGROUND:Dreams-bg.png;
#LYRICSPATH:Dreams.lrc;
#CDTITLE:;
#MUSIC:Dreams.mp3;
#OFFSET:-0.015000;
#SAMPLESTART:86.236938;
#SAMPLELENGTH:16.875000;
#LASTBEATHINT:246.000000;
#SELECTABLE:YES;
#BPMS:0.000000=128.000000
;
#STOPS:
;
#BGCHANGES:;
#KEYSOUNDS:;
#ATTACKS:;

//---------------dance-single - ----------------
#NOTES:
     dance-single:
     :
     Hard:
     8:
     0.391823,0.437128,0.033861,0.296286,0.122747,324.000000,320.000000,4.000000,35.000000,0.000000,0.000000,0.391823,0.437128,0.033861,0.296286,0.122747,324.000000,320.000000,4.000000,35.000000,0.000000,0.000000:
0000
0000
0000
0000
,
0000
0000
0000
0000
,
0100
0000
0000
0001
0010
1000
0000
0020
,
0000
0000
0100
0100
0000
1000
1030
0000
,
0000
0000
0001
0010
0000
0100
0020
0000
,
0000
0001
0000
0130
,
0000
0000
0000
1000
0100
0001
0000
0100
,
0010
0200
0000
1300
0010
0100
0001
0000
,
0010
1000
0010
0001
,
1000
0100
0001
0100
,
0010
0000
1000
0100
0000
0010
0001
2000
,
0000
0000
3010
0100
0000
0001
0000
0000
,
0010
0000
0001
1000
0000
0100
0000
0020
,
0000
0130
1000
0001
,
0100
0000
0010
1000
0001
0100
0000
0001
,
0000
0010
0200
0000
0000
1300
0001
2000
,
0000
0000
3000
0000
0000
0010
1000
0002
,
0000
0000
1003
0000
0100
0000
0010
0100
,
1000
0000
0001
0000
0100
0000
0010
1000
,
0000
0002
0000
0000
0003
0010
0100
0010
,
0000
0000
0001
0000
1000
0000
0001
0100
,
0010
1000
0000
1000
0100
0010
0001
0000
,
0100
1000
0100
0001
,
1000
0000
0010
0100
0001
1000
0100
0000
,
0010
0001
1000
0001
,
0100
0000
0010
1000
0100
0010
0001
0000
,
1000
0000
0001
0010
0001
0000
1000
0010
,
0100
0000
1000
0100
0001
0100
1000
0000
,
0001
0000
0100
0010
1000
0000
0001
0010
,
0100
0000
1000
0010
0001
0010
1000
0000
,
0001
0000
1001
0000
0010
0100
0000
0110
,
0000
0000
1000
0000
0100
0010
0000
0001
,
1000
0001
0100
0000
0010
0000
1000
0000
,
0100
0001
0010
0110
,
2000
0000
3010
0002
0000
0013
2000
0000
,
3002
0000
0103
2000
0000
3100
0002
0000
,
0023
0000
0031
0200
0000
0301
0020
0000
,
0230
0000
1300
0020
0000
1030
0200
0000
,
0302
0000
0103
2000
0000
3010
2000
0000
,
3020
0000
0031
0020
0000
0130
2000
0000
,
3200
0000
0301
0020
0000
0031
0200
0000
,
2300
0000
3100
0002
0000
0003
1001
0000
,
0100
0000
0000
0100
0010
0000
1000
0000
0000
1000
0100
0000
0010
0000
0001
0000
,
1000
0000
0000
1000
0010
0000
0100
0000
0000
0100
0001
0000
0010
0000
0100
0000
,
0010
0000
0000
0010
0001
0000
1000
0000
0000
1000
0010
0000
0100
0000
0001
0000
,
1000
0000
0000
1000
0100
0000
0001
0000
0000
0001
0100
0000
1000
0000
0001
0000
,
1000
0000
0000
1000
0010
0000
0100
0000
0000
0100
0001
0000
0010
0000
0100
0000
,
0010
0000
0000
0010
0001
0000
1000
0000
0000
1000
0010
0000
0100
0000
0001
0000
,
0010
0000
0000
0010
0100
0000
1000
0000
0000
1000
0010
0000
0100
0000
0001
0000
,
0010
0000
0100
0000
1000
0000
0001
1000
,
0100
0000
0000
0100
0001
0000
0100
0000
0010
0000
0000
0010
1000
0000
0001
0000
,
1000
0000
0000
1000
0100
0000
0010
0000
0000
0010
0100
0000
1000
0000
0001
0000
,
0100
0000
0000
0100
0010
0000
1000
0000
0001
0000
0000
0001
0010
0000
0100
0000
,
1000
0000
0000
1000
0001
0000
0100
0000
0000
0100
0001
0000
0010
0000
0100
0000
,
1000
0000
0000
0010
1000
0000
0001
0000
0000
0010
0001
0000
1000
0000
0001
0000
,
0100
0000
0000
0010
0100
0000
0001
0000
0000
1000
0100
0000
0010
0000
0001
0000
,
1000
0000
0000
0100
1000
0000
0010
0000
0000
0100
0001
0000
0010
0000
0100
0000
,
1000
0000
0000
0001
1000
0000
0100
0000
0010
0000
0001
0000
0200
0000
0000
0000
,
0020
0000
0000
0000
0000
0330
0000
1000
,
0000
0001
0000
0000
1000
0001
0100
0010
,
0200
0000
0000
0300
;

//---------------dance-single - ----------------
#NOTES:
     dance-single:
     :
     Challenge:
     12:
     0.862254,0.848543,0.016931,0.016931,1.409476,713.000000,711.000000,2.000000,2.000000,0.000000,0.000000,0.862254,0.848543,0.016931,0.016931,1.409476,713.000000,711.000000,2.000000,2.000000,0.000000,0.000000:
0000
0000
0000
0000
,
0000
0000
0000
0000
,
1000
0010
1000
0000
0000
0000
0000
0000
0001
0010
0001
0000
0000
0000
0000
0000
1000
0010
1000
0000
0000
0000
0000
0000
0001
0010
0001
0000
0000
0000
0000
0000
,
0010
0000
0100
0000
0010
0100
0100
0000
,
1000
0100
1000
0000
0000
0000
0000
0000
0001
0100
0001
0000
0000
0000
0000
0000
1000
0100
1000
0000
0000
0000
0000
0000
0001
0100
0001
0000
0000
0000
0000
0000
,
0010
0100
1000
0001
,
0010
0001
0010
0000
0000
0000
0000
0000
0100
1000
0100
0000
0000
0000
0000
0000
0010
0001
0010
0000
0000
0000
0000
0000
0100
1000
0100
0000
0000
0000
0000
0000
,
1000
0000
0001
0000
0100
0010
0110
0000
,
1000
0001
1000
0000
0000
0000
0000
0000
0001
0100
0001
0000
0000
0000
0000
0000
1000
0010
1000
0000
0000
0000
0000
0000
0001
0010
0001
0000
0000
0000
0000
0000
,
0010
0001
0010
0000
0000
0000
0000
0000
0100
0010
0100
0000
0000
0000
0000
0000
1000
0100
1000
0000
0000
0000
0000
0000
0001
1000
0001
0000
0000
0000
0000
0000
,
0100
0001
0100
0000
0000
0000
0000
0000
0010
0100
0010
0000
0000
0000
0000
0000
1000
0010
1000
0000
0000
0000
0000
0000
0001
1000
0001
0000
0000
0000
0000
0000
,
0010
0000
0100
1000
0001
0100
0010
0000
,
1000
0001
1000
0000
0000
0000
0000
0000
0010
1000
0010
0000
0000
0000
0000
0000
1000
0001
1000
0000
0000
0000
0000
0000
0001
0100
0001
0000
0000
0000
0000
0000
,
0010
0001
0100
1000
,
0010
1000
0010
0000
0000
0000
0000
0000
1000
0001
1000
0000
0000
0000
0000
0000
0100
1000
0100
0000
0000
0000
0000
0000
0010
0100
0010
0000
0000
0000
0000
0000
,
0001
0010
0001
0000
0000
0000
0000
0000
0100
0001
0100
0000
0000
0000
0000
0000
0010
0100
0010
0000
0000
0000
0000
0000
1000
0010
1000
0000
0000
0000
0000
0000
,
0001
1000
0001
0000
0000
0000
0000
0000
0100
0001
0100
0000
0000
0000
0000
0000
0010
0100
0010
0000
0000
0000
0000
0000
1000
0010
1000
0000
0000
0000
0000
0000
,
0001
1000
0001
0000
0000
0000
0000
0000
0010
0001
0010
0000
0000
0000
0000
0000
0100
0010
0100
0000
0000
0000
0000
0000
1000
0100
1000
0000
0000
0000
0000
0000
,
0001
0000
1000
0010
0100
0010
0100
0001
1000
0000
0001
0010
0100
0010
0100
1000
,
0001
0000
0100
0001
0100
0010
1000
0010
1000
0000
0001
0010
0001
0010
0100
1000
,
0100
0000
1000
0001
1000
0010
1000
0100
1000
0000
0001
1000
0001
0010
0001
0100
,
0001
0000
0100
0010
1000
0010
0100
0001
0100
0000
0001
0010
0100
1000
0100
0010
,
0001
0000
1000
0100
0010
0001
0100
0010
1000
0000
0001
0100
0010
1000
0100
1000
,
0001
0000
1000
0010
0100
0001
0010
0001
1000
0000
0001
0100
0010
0100
0001
1000
,
0100
0000
0010
0001
1000
0010
0100
0001
0100
0000
0010
1000
0001
0010
0100
1000
,
0001
0000
1000
0100
1000
0001
0100
0010
1000
0000
0001
0100
0001
1000
0010
0100
,
0001
0000
1000
0001
1000
0010
0100
0010
0100
0000
0001
1000
0001
0010
0100
0010
,
0100
0000
1000
0100
1000
0100
0010
0100
0010
0000
0001
1000
0001
1000
0010
0100
,
0010
0000
1000
0001
1000
0010
1000
0100
1000
0000
0001
1000
0001
0100
0001
0010
,
0001
0000
0010
0001
1000
0100
0010
0001
1000
0000
0010
0100
0001
1000
0010
0100
,
0001
0000
1000
0001
0100
0010
1000
0001
1000
0001
0100
0010
1000
0010
1000
0010
,
1000
0001
0100
0010
0100
0001
0100
0001
0100
0010
1000
0100
0010
0100
0010
0001
,
1000
0001
1000
0001
1000
0100
0010
0100
0010
0001
1000
0001
1000
0001
0100
0010
,
0100
0010
1000
0001
1000
0001
1000
0010
0100
0010
0100
0001
1000
0000
0000
0000
,
0100
0000
0000
0100
0010
0000
0001
0000
0000
0001
0100
0000
0010
0000
1000
0000
,
0001
0000
0000
0001
0010
0000
0100
0000
0000
0100
1000
0000
0010
0000
0100
0000
,
0010
0000
0000
0010
1000
0000
0001
0000
0000
0001
0010
0000
0100
0000
1000
0000
,
0001
0000
0000
0001
0100
0000
1000
0000
0000
1000
0100
0000
0001
0000
1000
0000
,
0001
0000
0000
0001
0010
0000
0100
0000
0000
0100
1000
0000
0010
0000
0100
0000
,
0010
0000
0000
0010
1000
0000
0001
0000
0000
0001
0010
0000
0100
0000
1000
0000
,
0010
0000
0000
0010
0100
0000
0001
0000
0000
0001
0010
0000
0100
0000
1000
0000
,
0010
0000
0000
0010
0100
0000
0001
0000
0000
1000
0001
0000
0101
0000
0000
0000
,
0001
1000
0100
1000
0100
1000
0010
0100
0001
0100
0001
0100
0001
1000
0010
0100
,
0001
0010
0100
0010
0100
0010
0100
1000
0001
1000
0001
1000
0010
0100
0001
1000
,
0010
0100
0001
0100
0001
0100
0010
1000
0100
1000
0100
1000
0001
0010
0100
1000
,
0001
1000
0100
1000
0100
1000
0001
0100
0010
0100
0010
0100
0001
0010
0100
1000
,
0010
1000
0100
0010
0100
0010
0001
1000
0010
0100
0010
0100
0001
1000
0100
0010
,
0001
0100
0010
0100
0010
0100
0001
1000
0010
0100
0010
0100
0001
1000
0100
0010
,
0001
0100
0010
0100
0010
0100
0001
1000
0100
0010
0100
0010
0001
1000
0010
0100
,
0001
0100
0010
0100
0010
0100
0001
1000
0100
0010
0100
0010
0001
1000
0010
0100
,
0001
0010
0100
1000
0100
1000
0001
0100
0010
1000
0010
1000
0001
0010
0100
1000
,
0010
0100
0001
1000
0001
1000
0010
0100
0001
1000
0001
1000
0010
0100
0001
1000
,
0100
0010
0001
0100
0001
0100
0010
1000
0100
0010
0100
0010
0001
1000
0010
0100
,
0001
1000
0100
0010
0100
0010
0100
1000
0010
0100
0010
0100
0001
1000
0010
0100
,
0001
0010
0100
1000
0100
1000
0001
0100
0010
0100
0010
0100
0001
1000
0010
0100
,
0001
0010
0100
1000
0100
1000
0001
1000
0010
1000
0010
1000
0001
0100
0010
1000
,
0100
0010
0001
0100
0001
0100
0010
1000
0001
1000
0001
1000
0010
0100
0001
0010
,
0100
1000
0001
1000
0001
1000
0010
1000
0001
1000
0001
1000
0010
0100
0001
1000
,
0200
0000
0000
0000
0000
0300
0000
0010
,
0000
0001
0000
0000
1000
0010
0100
0001
,
0200
0000
0000
0300
;

//---------------dance-single - ----------------
#NOTES:
     dance-single:
     :
     Medium:
     5:
     0.290240,0.359988,0.084653,0.169306,0.000000,240.000000,230.000000,10.000000,20.000000,0.000000,0.000000,0.290240,0.359988,0.084653,0.169306,0.000000,240.000000,230.000000,10.000000,20.000000,0.000000,0.000000:
0000
0000
0000
0000
,
0000
0000
0000
0000
,
0200
0001
0010
0010
,
0301
0100
0010
1000
,
0002
1000
0010
1003
,
0100
0010
0000
0000
,
0200
0010
0010
0310
,
0001
0000
0100
0000
0010
1000
0001
0000
,
0000
0000
0000
0000
,
0000
0000
0000
0000
,
0020
0100
0100
0130
,
0001
0000
1000
0000
0010
1000
0100
0000
,
1000
0100
0001
0100
,
1000
0001
0000
0000
,
2000
0100
0010
3001
,
0010
0100
1000
0000
0100
0000
0010
0001
,
0010
0000
0002
0103
,
2000
0000
3010
0000
0200
0000
0301
1000
,
0001
0010
0200
0310
,
1000
0100
0020
0130
,
0001
0000
0010
0000
2000
0000
3001
1000
,
0100
0000
0020
0000
0130
1000
0001
0000
,
0200
1000
0001
0301
,
0020
0000
0100
0000
0130
0010
0100
0000
,
0001
1000
0100
0010
,
0001
0000
1000
0000
0010
0100
0020
0000
,
1000
0100
0100
0130
,
0001
0000
1000
0000
0100
0010
0100
0000
,
0020
0001
0100
0130
,
0001
1000
0010
0100
,
0001
0000
1000
0000
0100
0010
0000
0001
,
0000
0000
1000
0000
0010
0100
0000
0020
,
0000
0130
0000
0000
,
0000
0000
0000
0000
,
1000
0000
0000
0001
0000
0000
0100
0000
,
0010
0000
0000
1000
0000
0000
0100
0000
,
0010
0000
0000
0001
0000
0000
1000
0000
,
0001
0000
0000
0100
0000
0000
0010
0000
,
1000
0000
0000
0100
0000
0000
0010
0000
,
0001
0000
0000
0100
0000
0000
0010
0000
,
1000
0000
0000
0001
0000
0000
0010
0000
,
0100
0000
0000
0010
0000
0000
0000
0000
,
0001
0001
0000
0100
0100
0000
0010
0000
,
1000
1000
0000
0100
0100
0000
0110
0000
,
0001
0001
0000
1000
1000
0000
0010
0000
,
0100
0100
0000
0001
0001
0000
1001
0000
,
0100
0100
0000
0010
0010
0000
0001
0000
,
1000
1000
0000
0010
0010
0000
0110
0000
,
0001
0001
0000
0010
0010
0000
0100
0000
,
1000
1000
0000
0001
0001
0000
0100
0010
,
0100
0000
0110
0000
0001
0000
0010
0001
,
1000
0000
1100
0000
0100
0000
1000
0010
,
0100
0000
0110
0000
0010
0000
1000
0001
,
0100
0010
0100
0000
0001
1000
0001
0000
,
0100
0000
1001
0000
0010
1000
0010
0000
,
0100
0000
1001
0000
0100
1000
0001
0000
,
0010
0000
0110
0000
0010
0001
1000
0000
,
0001
0000
0110
0000
0001
0100
0020
0000
,
1000
0000
0000
0000
0030
0000
0000
0200
,
0000
0310
0000
0000
1000
0001
2000
0000
,
0000
0000
0000
3000
;

//---------------dance-single - ----------------
#NOTES:
     dance-single:
     :
     Easy:
     3:
     0.200749,0.257134,0.008465,0.313217,0.000000,166.000000,165.000000,1.000000,37.000000,0.000000,0.000000,0.200749,0.257134,0.008465,0.313217,0.000000,166.000000,165.000000,1.000000,37.000000,0.000000,0.000000:
// measure 0
0000
0000
0000
0000
,  // measure 1
0000
0000
0000
0000
,  // measure 2
0002
0000
0013
0000
,  // measure 3
1000
0100
0010
0100
,  // measure 4
2000
0000
3010
0000
,  // measure 5
0100
0000
0001
0000
,  // measure 6
2000
0000
3001
0000
,  // measure 7
0010
0001
1000
0100
,  // measure 8
0010
0000
0100
0000
,  // measure 9
0010
0000
0100
0000
,  // measure 10
0020
0000
0031
0000
,  // measure 11
0100
0010
1000
0001
,  // measure 12
0200
0000
0310
0000
,  // measure 13
0100
0001
0010
0100
,  // measure 14
2000
0000
3010
0000
,  // measure 15
1000
0100
0010
0001
,  // measure 16
0200
0000
0310
0000
,  // measure 17
0001
0010
0100
1000
,  // measure 18
0100
0010
0100
0000
,  // measure 19
2000
3000
0002
0003
,  // measure 20
1000
0010
0100
0001
,  // measure 21
0020
0030
0200
0300
,  // measure 22
2000
3000
0002
0003
,  // measure 23
2000
3000
0001
0100
,  // measure 24
0020
0030
0200
0300
,  // measure 25
0020
0030
1000
0100
,  // measure 26
0010
0001
0200
0300
,  // measure 27
0002
0003
1000
0001
,  // measure 28
2000
3000
0020
0030
,  // measure 29
0200
0300
0002
0003
,  // measure 30
0010
0010
0100
0010
,  // measure 31
0100
0100
1000
0001
,  // measure 32
0200
0020
0000
0330
,  // measure 33
0000
0000
0000
0000
,  // measure 34
2000
0000
0000
3100
,  // measure 35
0200
0000
0300
0001
,  // measure 36
0020
0000
0030
0010
,  // measure 37
0200
0000
0300
1000
,  // measure 38
0002
0000
0003
0100
,  // measure 39
0200
0000
0300
0010
,  // measure 40
2000
0000
3000
0100
,  // measure 41
0002
0000
0003
0000
,  // measure 42
1001
1000
0100
1000
,  // measure 43
0100
0010
0100
0010
,  // measure 44
0001
0100
0001
0100
,  // measure 45
0010
0100
0010
0100
,  // measure 46
0001
1000
0001
1000
,  // measure 47
0100
0010
0100
0010
,  // measure 48
0001
0010
0001
0010
,  // measure 49
0100
0000
0000
0000
,  // measure 50
1000
0010
1000
0100
,  // measure 51
1000
0010
1000
0100
,  // measure 52
0010
0001
0100
0001
,  // measure 53
0010
0001
0100
0001
,  // measure 54
0010
0100
1000
0001
,  // measure 55
0010
0100
1000
0001
,  // measure 56
0100
0010
1000
0001
,  // measure 57
0100
0010
1000
0001
,  // measure 58
0200
0000
0000
0300
,  // measure 59
0020
0030
2000
3000
,  // measure 60
0200
0000
0000
0300
;

//---------------dance-single - ----------------
#NOTES:
     dance-single:
     :
     Beginner:
     2:
     0.131817,0.204861,0.033861,0.126980,0.000000,109.000000,105.000000,4.000000,15.000000,0.000000,0.000000,0.131817,0.204861,0.033861,0.126980,0.000000,109.000000,105.000000,4.000000,15.000000,0.000000,0.000000:
// measure 0
0000
0000
0000
0000
,  // measure 1
0000
0000
0000
0000
,  // measure 2
0020
0000
0030
0000
,  // measure 3
0100
0000
0000
0000
,  // measure 4
2000
0000
3000
0000
,  // measure 5
0001
0000
0000
0000
,  // measure 6
0200
0000
0300
0000
,  // measure 7
0010
0000
0000
0000
,  // measure 8
0002
0000
0003
0000
,  // measure 9
1000
0000
1000
0000
,  // measure 10
0010
0000
0010
0000
,  // measure 11
0001
0000
0001
0000
,  // measure 12
0010
0000
0010
0000
,  // measure 13
1000
0000
1000
0000
,  // measure 14
0010
0000
0001
0000
,  // measure 15
0010
0000
1000
0000
,  // measure 16
0010
0000
0001
0000
,  // measure 17
0010
0000
1000
0000
,  // measure 18
0100
0100
0200
0300
,  // measure 19
0200
0300
0000
0000
,  // measure 20
0010
0010
0020
0030
,  // measure 21
0020
0030
0010
0010
,  // measure 22
0020
0030
0000
0000
,  // measure 23
0000
0000
0001
0001
,  // measure 24
0002
0003
0000
0000
,  // measure 25
0000
0000
1000
1000
,  // measure 26
2000
0000
3000
0000
,  // measure 27
0000
0000
0100
0100
,  // measure 28
0200
0000
0300
0000
,  // measure 29
0000
0000
0000
0000
,  // measure 30
0010
0000
0010
0000
,  // measure 31
0010
0000
0001
0000
,  // measure 32
0100
0200
0000
0300
,  // measure 33
0000
0000
0000
0000
,  // measure 34
1000
0000
0010
0000
,  // measure 35
0100
0000
0010
0000
,  // measure 36
0001
0000
0010
0000
,  // measure 37
0100
0000
0001
0000
,  // measure 38
1000
0000
0001
0000
,  // measure 39
0100
0000
1000
0000
,  // measure 40
0001
0000
0100
0000
,  // measure 41
1000
0000
0100
0000
,  // measure 42
0001
0001
0000
0100
,  // measure 43
0000
0010
0000
0100
,  // measure 44
0000
1000
0000
0100
,  // measure 45
0000
0010
0000
0100
,  // measure 46
0000
0001
0000
0010
,  // measure 47
0000
1000
0000
0010
,  // measure 48
0000
0100
0000
1000
,  // measure 49
0000
0100
0000
0010
,  // measure 50
0000
0001
0000
1001
,  // measure 51
0000
0010
0000
0100
,  // measure 52
0100
0100
0000
0110
,  // measure 53
0000
1000
0000
0001
,  // measure 54
0001
0001
0000
1001
,  // measure 55
0000
0001
0000
0010
,  // measure 56
0010
0010
0000
0110
,  // measure 57
0000
1000
1000
0000
,  // measure 58
0020
0000
0030
0000
,  // measure 59
0000
0000
0000
0000
,  // measure 60
0200
0000
0300
0000
;
