#VERSION:0.83;
#TITLE:Don;
#SUBTITLE:;
#ARTIST:Miranda! & CA7RIEL;
#TITLETRANSLIT:;
#SUBTITLETRANSLIT:;
#ARTISTTRANSLIT:;
#GENRE:Hotel Miranda!;
#ORIGIN:;
#CREDIT:[Ness];
#BANNER:Don.png;
#BACKGROUND:Black.png;
#PREVIEWVID:Don-previewvid.avi;
#JACKET:Don-jacket.png;
#CDIMAGE:;
#DISCIMAGE:Don-bg.png;
#LYRICSPATH:Don.lrc;
#CDTITLE:;
#MUSIC:Don.mp3;
#OFFSET:0.390000;
#SAMPLESTART:45.637085;
#SAMPLELENGTH:24.463242;
#SELECTABLE:YES;
#DISPLAYBPM:121.000000;
#BPMS:0.000=30.250,
0.188=45.375,
0.458=60.500,
0.813=75.625,
1.250=90.750,
1.417=95.625,
1.604=100.500,
1.813=105.375,
2.000=110.250,
2.333=121.000,
8.000=484.000,
8.667=121.000,
8.833=32.400,
8.917=90.750,
9.042=121.000,
9.208=151.250,
9.417=181.500,
9.667=211.750,
9.958=242.000,
10.000=121.000,
56.667=40.770,
56.938=100.833,
57.208=136.125,
57.583=171.417,
58.042=206.708,
58.625=220.000,
59.000=121.000,
139.000=60.500,
140.000=121.000,
142.000=484.000,
142.667=120.000,
142.833=32.400,
142.917=90.750,
143.042=121.000,
143.208=151.250,
143.417=181.500,
143.667=211.750,
143.958=242.000,
144.000=121.000,
268.000=60.500,
269.000=121.000,
271.000=484.000,
271.667=120.000,
271.833=32.400,
271.917=90.750,
272.042=121.000,
272.208=151.250,
272.417=181.500,
272.667=211.750,
272.958=242.000,
273.000=121.000;
#STOPS:8.000=0.124,
8.333=0.124,
139.000=0.331,
141.667=0.165,
142.000=0.124,
142.333=0.124,
206.667=0.496,
268.000=0.331,
270.667=0.165,
271.000=0.124,
271.333=0.124;
#DELAYS:;
#WARPS:;
#TIMESIGNATURES:0.000=4=4,
8.000=3=4,
11.000=4=4,
139.000=6=4,
145.000=4=4,
205.000=3=4,
208.000=4=4,
268.000=6=4,
274.000=4=4;
#TICKCOUNTS:0.000=2;
#COMBOS:0.000=1;
#SPEEDS:0.000=1.000=0.000=0;
#SCROLLS:0.000=1.000;
#FAKES:;
#LABELS:0.000=Song Start;
#LASTSECONDHINT:147.330551;
#BGCHANGES:0.000=Don.avi=1.000=1=0=0=StretchNoLoop==CrossFade==,
99999=-nosongbg-=1.000=0=0=0 // don't automatically add -songbackground-
;
#KEYSOUNDS:;
#ATTACKS:
;

//---------------dance-single - ----------------
#NOTEDATA:;
#CHARTNAME:;
#STEPSTYPE:dance-single;
#DESCRIPTION:;
#CHARTSTYLE:;
#DIFFICULTY:Challenge;
#METER:10;
#RADARVALUES:0.641222,0.606845,0.248617,0.141107,1.283404,668.000000,631.000000,37.000000,21.000000,0.000000,0.000000,0.000000,0.000000,0.000000,0.641222,0.606845,0.248617,0.141107,1.283404,668.000000,631.000000,37.000000,21.000000,0.000000,0.000000,0.000000,0.000000,0.000000;
#CREDIT:;
#DISPLAYBPM:121.000000;
#NOTES:
0000
0000
0000
0000
,
0000
0000
0000
0000
0000
0010
0100
0001
0100
0010
0110
0000
,
1000
0100
2000
0000
0000
0000
3001
0010
0100
1000
0000
0000
,
1000
0010
0100
0010
0000
0000
1000
0001
0100
0010
0000
0000
,
0001
1000
0010
0100
0000
0000
1000
0100
0001
0100
0000
0010
,
0001
1000
0001
0100
0000
0010
1000
0100
0010
0001
0000
0100
,
0010
0001
0010
0100
0000
0000
0101
0000
0000
0001
1000
0010
,
0100
0001
0010
0001
0000
0101
0000
1000
0010
0100
0000
0110
,
0000
0010
1000
0100
0000
1000
0001
0100
0010
1000
0000
0000
,
0001
1000
0100
0010
0000
0001
1000
0010
0100
0001
0000
1000
,
0001
0010
0100
1000
0000
0010
1000
0100
0010
0001
0100
0010
,
0100
0001
1000
0100
0000
1100
0000
0100
1000
0001
0100
0001
,
0010
0100
0010
0100
0000
1010
0000
1000
0010
0001
0000
0011
,
0000
0001
0010
1000
0000
1010
0000
1000
0001
0100
0000
0010
,
0100
0001
2000
0000
0000
0000
0000
0000
0000
3001
0010
0001
,
0010
1000
0010
0001
0000
1001
0000
1000
0001
1000
0000
1001
,
0000
0010
0100
0010
0000
0010
0100
0001
1000
0100
0000
0000
,
1000
0000
0001
0000
0100
0000
0001
0000
0000
0000
0101
0000
0000
0000
0001
1000
0001
0000
0100
0000
0000
0000
1100
0000
,
0000
0100
1000
0010
0000
1000
0001
0010
0100
1000
0001
1000
,
0010
0001
0010
1000
0000
1001
0000
1000
0001
0010
0100
1000
,
0001
0010
0001
1000
0000
0101
0000
0001
0010
0100
0000
0011
,
0000
0100
0010
0100
0000
1010
0000
0100
1000
0001
0000
1000
,
0010
0001
0020
0000
0000
0000
0130
0001
1000
0001
0000
2000
,
0010
0000
0001
0000
3000
0001
0010
0000
0100
0010
0000
1000
,
0010
0000
0001
0010
0000
0100
0010
0000
0001
0100
1000
0100
,
0001
0000
1000
0100
0000
0000
1100
0000
1000
0010
0100
0010
,
1000
0000
0001
0020
0000
0000
0130
0000
0000
0110
0000
0002
,
0010
0000
1000
0000
0003
1000
0010
0000
0100
0001
0000
0001
,
0010
0000
0100
2000
0000
0000
3001
0000
0100
0001
1000
0100
,
1000
0000
0000
0000
0010
0000
0100
0000
0000
0000
0000
0000
0110
0000
0000
0000
0001
0000
0010
0000
0100
0000
0010
0001
,
0010
0000
0100
0010
0000
0000
1001
0000
0001
1000
0010
0100
,
0001
0000
1000
0002
0000
0000
1003
0000
0100
1000
0001
0010
,
0100
0000
1000
0020
0000
0000
0130
0000
0001
0010
0001
1000
,
0010
0000
1000
0100
1000
0001
0100
0000
0010
0100
0001
1000
,
0100
0000
0010
0000
0001
0000
1000
0000
0010
0000
0100
0000
0010
0000
1000
0000
0001
0000
0010
0000
0100
0010
0100
0000
,
0000
0000
1000
0002
0010
0000
0103
0001
0200
0000
0000
0000
,
0310
0000
0000
0110
1000
0100
1000
0001
0100
0001
0000
1001
,
0000
0001
0010
0001
0000
1010
0000
1000
0100
1000
0000
0010
,
1000
0001
0010
0200
0000
0000
0310
0001
1000
0001
0000
0101
,
0000
0001
1000
0010
0000
1100
0000
0010
0001
0010
0000
0100
,
1000
0010
1000
0100
1000
0001
0100
0001
1000
0100
0000
0101
,
0000
0001
0010
0001
1000
0010
1000
0001
0010
0001
0000
1100
,
0000
0001
0010
1000
0000
0110
0000
1000
0100
0001
0000
0110
,
0000
0001
0010
1000
0000
1000
0010
0001
0010
0000
0000
0000
,
0100
1000
0001
0100
0010
0100
0001
1000
0001
1000
0000
0001
,
0010
0001
1000
0010
0000
1000
0100
1000
0001
0100
0000
0010
,
0100
0000
0001
0000
0010
0000
0100
0000
0000
0000
1000
0000
0010
0000
0100
0000
0001
0000
0010
0000
0100
1000
0100
0000
,
1000
0001
0100
0010
0000
0100
0001
0010
0100
1000
0000
0010
,
0001
0010
1000
0010
0100
0010
0001
0010
0100
0010
0000
0110
,
0000
0100
0001
0100
0010
0100
1000
0100
0010
0100
0000
0110
,
0000
0001
1000
0100
0000
1001
0000
1000
0010
0001
0000
0110
,
0000
0001
0100
1000
0000
0001
0100
0001
1000
0000
0000
0000
,
1001
0000
0002
0010
0000
1003
0010
0000
1000
0010
0000
0100
,
0001
0000
0010
0100
0000
1000
0010
0000
0001
0100
0000
0010
,
1000
0100
1000
0010
0000
0100
0002
0000
0000
0013
0000
0100
,
0010
0001
0100
0010
0000
1000
0200
0000
0000
0310
0000
0000
,
0011
0000
2000
0010
0000
3001
0010
0000
0001
0010
0000
0100
,
1000
0000
0010
0001
0000
0010
1000
0000
0100
0001
0000
1000
,
0100
1000
0001
0100
0000
0010
0100
0000
0000
0110
0000
0001
,
0010
0000
0001
0000
1000
0010
1000
0000
0000
0000
1000
0000
0001
0000
0000
0000
0000
0000
1001
0000
0000
0000
0001
0000
,
1000
0010
0100
0001
0000
1000
0002
0000
0000
1003
0000
0100
,
1000
0001
0010
0100
0000
1000
0020
0000
0000
0130
0000
0001
,
0010
0001
1000
0010
0000
1000
0100
1000
0001
0100
0000
0010
,
1000
0010
0100
0010
0001
0010
1000
0010
0100
0010
0000
1000
,
0100
1000
0001
1000
0010
1000
0100
1000
0001
1000
0000
0100
,
0001
0100
0010
0100
1000
0100
0001
0100
0010
0100
0000
0001
,
0010
0001
1000
0001
0100
0001
0010
0001
1000
0001
0100
1000
,
0100
0000
1000
0001
0010
0000
0000
0000
0000
0000
0001
0000
2000
0000
0100
0000
0000
0000
3010
0000
1000
0000
0020
0000
,
0000
0000
0000
0130
0001
0010
0001
0000
0001
0010
0100
1000
,
0010
0000
1000
0100
0001
0100
0010
0000
0001
1000
0010
0100
,
0001
0000
1000
0100
1000
0010
0100
0000
1000
0100
0001
0100
,
0010
0000
0100
0001
0100
0010
1000
0000
0001
0010
1000
0010
,
0002
0003
0000
0000
;

//---------------dance-single - ----------------
#NOTEDATA:;
#CHARTNAME:;
#STEPSTYPE:dance-single;
#DESCRIPTION:;
#CHARTSTYLE:;
#DIFFICULTY:Hard;
#METER:9;
#RADARVALUES:0.513554,0.509750,0.262056,0.073913,0.870161,535.000000,496.000000,39.000000,11.000000,0.000000,0.000000,0.000000,0.000000,0.000000,0.513554,0.509750,0.262056,0.073913,0.870161,535.000000,496.000000,39.000000,11.000000,0.000000,0.000000,0.000000,0.000000,0.000000;
#CREDIT:;
#DISPLAYBPM:121.000000;
#NOTES:
0000
0000
0000
0000
,
0000
0000
0000
0000
,
0000
0000
0000
0000
0000
0000
0000
0000
0000
0001
1000
0001
,
1000
0000
1000
0100
0000
0100
0010
0000
0010
0001
0000
0001
,
0100
0000
0100
0010
0000
0010
1000
0000
1000
0001
1000
0001
,
1000
0000
1000
0100
0000
0100
0010
0000
0010
0001
0000
0001
,
1000
0000
1000
0100
0000
0000
0110
0000
0000
0001
0000
1000
,
0010
0000
1000
0001
0000
0000
1000
0001
1000
0100
0000
0000
,
0010
0000
0001
1000
0000
0001
1000
0000
0001
0100
0000
0000
,
0010
1000
0010
0100
0000
0000
0001
0010
0100
1000
0000
0000
,
0010
0000
0100
0001
0000
1000
0001
0000
1000
0010
0000
1000
,
0010
0000
0100
0010
0000
0000
0110
0000
0000
0100
0000
1000
,
0100
0000
0010
0100
0000
0000
0110
0000
0000
0001
0000
0010
,
0000
1000
0000
0010
0000
0100
0000
1000
0000
0100
0000
1000
,
0001
1000
0001
0000
0000
0000
0000
0000
0000
0020
0000
0000
,
0230
0000
0000
1300
0000
0010
0000
0100
0000
0001
0000
0010
,
0000
0100
0000
1000
0000
0010
0100
0010
0100
0010
0000
0000
,
1000
0001
1000
0010
0000
0100
0000
0001
0000
0010
0000
0001
,
0000
1000
0000
0100
0000
0010
0100
0010
0100
1000
0000
0010
,
0100
0000
0100
0010
0000
0110
0000
0100
0000
0001
0000
0001
,
1000
0000
1000
0100
0000
1100
0000
1000
0000
0001
0000
0101
,
0000
0001
0000
1000
0000
1010
0000
1000
0000
0001
0000
0010
,
0100
0010
0200
0000
0000
0000
0300
0000
0000
0021
0000
0000
,
1000
0000
0000
0031
0000
0001
1000
0000
1000
0010
0000
0010
,
0100
0000
0100
0001
0000
1000
0100
0000
0000
1000
0001
1000
,
0001
0000
0001
0100
0000
0000
0101
0000
0000
0001
1000
0001
,
1000
0000
1000
0100
0000
0000
1100
0000
0000
1020
0000
0000
,
0001
0000
0000
1030
0000
1000
0100
0000
0100
0001
0000
0001
,
0010
0000
0010
0100
0000
0000
0110
0000
0001
0100
0001
0100
,
0001
0000
0100
0001
0000
0000
0101
0000
1000
0010
1000
0010
,
1000
0000
0010
1000
0000
0000
1010
0000
1000
0100
1000
0100
,
1000
0000
0001
0100
0000
0000
0110
0000
0001
0010
0001
0010
,
0001
0000
1000
0010
0000
0000
0110
0000
1000
0010
0000
0100
,
0001
0000
0001
0010
0000
0100
1000
0000
1000
0010
0000
0010
,
0100
0000
0100
0001
0000
0001
1000
0010
0100
0002
0003
0000
,
0000
0000
0000
0000
,
0000
0000
0000
0100
0000
0100
0001
0000
0010
0100
0000
0110
,
0000
1000
0000
0010
0000
0110
0000
0100
0000
0001
0000
0010
,
0100
1000
0001
0100
0000
0000
0010
1000
0010
1000
0000
1001
,
0000
0001
0000
0010
0000
1001
0000
1000
0000
0001
0000
1000
,
0100
1000
0100
1000
0000
1000
0001
0000
0001
0100
0000
0110
,
0000
0100
0000
0001
0000
0001
0010
0000
0010
0100
0000
0110
,
0000
1000
0010
1000
0000
0001
0000
0001
0010
0001
0000
1000
,
0000
1000
0010
1000
0000
0001
0100
0010
1000
0000
0000
0000
,
0110
0000
0000
0001
0010
0001
0010
0100
0010
0100
0000
0110
,
0000
1000
0000
0010
0000
0110
0000
0001
0000
0100
0000
0001
,
1000
0001
1000
0001
0000
0000
1000
0010
0100
0001
0000
1001
,
0000
0010
0000
0100
0000
0110
0000
0001
0000
1000
0000
0100
,
1000
0001
1000
0001
0000
0100
0001
0000
0100
0010
0000
1010
,
0000
0010
0000
1000
0000
1000
0100
0000
0100
0010
0000
0011
,
0000
0001
1000
0001
0000
0100
0000
1000
0001
1000
0000
0010
,
0000
0001
1000
0001
0000
0010
0100
0010
0100
0000
0000
0000
,
1020
0000
0000
0001
0000
0000
1030
0000
1000
0001
0000
0001
,
0010
0000
0010
0100
0000
0100
1000
0000
0001
0100
0000
0000
,
0001
1000
0001
1000
0000
0010
0100
0000
0000
0101
0000
0000
,
0001
0010
0100
1000
0000
0010
0100
0000
0000
1100
0000
0000
,
0021
0000
0000
1000
0000
0000
0031
0000
0001
0100
0000
0100
,
1000
0000
1000
0010
0000
0010
0001
0000
0000
1001
0000
1000
,
0100
0010
0100
1000
0000
0010
0100
0000
0000
0101
0000
0001
,
0010
0100
0010
0001
0000
1000
0100
0000
0000
1100
0000
0001
,
0100
0010
0100
0001
0000
1000
0010
0000
0000
0110
0000
1000
,
0010
0100
0010
1000
0000
0001
0010
0000
0000
0110
0000
1000
,
0001
1000
0100
1000
0000
0001
1000
0001
0100
0001
0000
1000
,
0010
0000
0010
0100
0000
0100
0001
0100
0001
0100
0000
0001
,
0010
0000
0010
0100
0000
0100
1000
0100
1000
0100
0000
1000
,
0010
0000
0100
0001
0000
0010
0100
1000
0001
0100
0000
0010
,
1000
0000
1000
0100
0000
0100
0010
0000
0010
0001
1000
0010
,
0200
0300
0000
0000
0000
0000
0000
0000
0000
0000
0000
0000
,
0000
0000
0000
1001
0000
0000
2000
0000
0000
3001
0010
0100
,
0010
0000
0000
0001
1000
0001
0100
0000
0000
0010
1000
0010
,
0100
0000
0000
0001
1000
0100
0010
0000
0000
0100
1000
0100
,
0010
0000
0000
0001
0010
0100
1000
0000
0000
1000
0010
0100
,
0002
0003
0000
0000
;

//---------------dance-single - ----------------
#NOTEDATA:;
#CHARTNAME:;
#STEPSTYPE:dance-single;
#DESCRIPTION:;
#CHARTSTYLE:;
#DIFFICULTY:Medium;
#METER:6;
#RADARVALUES:0.349408,0.388381,0.315811,0.288934,0.255337,364.000000,317.000000,47.000000,43.000000,0.000000,0.000000,0.000000,0.000000,0.000000,0.349408,0.388381,0.315811,0.288934,0.255337,364.000000,317.000000,47.000000,43.000000,0.000000,0.000000,0.000000,0.000000,0.000000;
#CREDIT:;
#DISPLAYBPM:121.000000;
#NOTES:
0000
0000
0000
0000
,
0000
0000
0000
0000
,
0000
0000
0000
0020
,
0031
0000
1000
0001
0000
0000
1000
0000
0010
1000
0000
0000
,
0001
0000
1000
0001
0000
0000
0110
0000
0000
2000
0000
0000
,
3001
0000
0010
0100
0000
0000
0010
0000
0100
0010
0000
0000
,
0100
0000
1000
0001
0000
0000
1001
0000
0000
0002
0000
0000
,
0010
1003
0101
1000
,
0101
0000
0000
1000
0000
0000
0001
0000
1000
0010
0000
0000
,
2000
3010
1100
0010
,
1100
0000
0000
0010
0000
0000
0100
0000
0001
0010
0000
0000
,
0100
0020
0031
1000
,
0001
0000
1000
0001
0000
0000
1001
0000
0000
0010
0000
0010
,
0000
0010
0000
0100
0000
0100
0000
0100
0000
0002
0000
0000
,
2000
0000
3003
0000
0000
0000
0000
0000
0000
0200
0000
0000
,
0000
0000
0000
0320
,
0000
0032
0000
1003
,
0010
0000
1000
0001
0000
0000
1100
0000
0000
0010
0000
0000
,
1100
0000
0000
0001
0000
0000
1000
0000
0100
2000
0000
0000
,
0010
3001
0110
1000
,
0101
0000
0000
0010
0000
0000
0101
0000
0000
0001
0000
0001
,
0000
0001
0000
1000
0000
1000
0000
1000
0000
0200
0000
0000
,
0020
0000
0330
0000
0000
0000
0000
0000
0000
2002
0000
0000
,
0000
0000
0000
3003
0000
0000
0010
0000
0100
0010
0000
0100
,
0010
0000
0100
0010
0000
1000
0001
0000
0000
2000
0000
0000
,
0001
3100
1100
0002
,
1000
0103
0101
0020
,
0000
0000
0000
0000
0000
0000
0130
0000
0010
0100
0000
0010
,
0100
0000
0001
1000
0000
0000
1001
0000
0000
0020
0000
0000
,
1000
0130
0110
0200
,
0001
0000
0000
0310
0000
0000
1001
0000
0000
0001
0000
0001
,
1000
0000
1000
0001
0000
0000
1001
0000
0000
0010
0000
0010
,
0100
0000
0100
0010
0000
0000
0110
0000
0000
2000
0000
0000
,
3010
0002
0103
1000
,
1010
0011
0200
0310
,
0000
0000
0000
0000
,
0000
2000
0100
3010
,
1100
0010
1001
0010
,
0100
0000
0001
1000
0000
0000
0002
0000
0000
0103
0000
0000
,
0011
0100
1010
0100
,
0001
0000
1000
0100
0000
0000
0001
0000
0000
0200
0000
0000
,
0310
0000
0000
0001
0000
1000
0001
0000
1000
0001
0000
0000
,
1001
0000
0000
0100
0000
0100
0000
0100
0000
0010
0000
0010
,
0000
0010
0000
2000
0000
0000
3002
0000
0000
0203
0000
0000
,
0000
0000
0000
0310
0000
0000
1000
0000
0001
0010
0000
0000
,
0110
1000
0110
0001
,
1000
0000
0010
0100
0000
0000
0001
0000
1000
0100
0000
0000
,
1001
0010
1001
0100
,
0001
0000
1000
0002
0000
0000
0100
0000
0000
1003
0000
0000
,
0110
0001
1100
1000
,
0011
0000
0000
1000
0000
1000
0000
1000
0000
0001
0000
0001
,
0000
0001
0000
0020
0000
0000
0200
0000
0330
0000
0000
0000
,
2002
0000
0000
0000
0000
0000
3003
0000
0000
1000
0000
0010
,
0100
0000
0010
0100
0000
0010
0100
0000
0001
0010
0000
0000
,
0200
1000
0310
0011
,
0200
0001
0310
1010
,
0200
0000
0000
0000
0000
0000
0000
0000
0000
0301
0000
0100
,
0010
0000
0100
0010
0000
1000
0001
0000
0000
1001
0000
0000
,
0200
0000
0000
0301
0000
1000
0100
0000
0000
0110
0000
0000
,
0010
0000
0100
0010
0000
0100
0010
0000
0000
1001
0000
0000
,
1000
0000
1000
0001
0000
0001
0100
0000
0000
1001
0000
0000
,
0100
0000
0100
0010
0000
0010
1000
0000
0000
0110
0000
0000
,
0002
0103
2000
3010
,
0001
0000
0001
1000
0000
1000
0010
0000
0010
0100
0000
0000
,
0001
0000
0001
1000
0000
1000
0100
0000
0100
0010
0000
0000
,
0100
0000
0100
1000
0000
1000
0001
0000
0001
0100
0000
0000
,
0010
0000
0000
1100
0000
0000
0101
0000
0000
0010
0000
1000
,
0100
0000
0000
0000
,
0000
0000
0000
0000
0000
0000
1002
0000
0000
0013
0000
0001
,
0010
0000
0000
0001
0000
1000
0001
0000
0000
1000
0000
0001
,
0100
0000
0000
0101
0000
0000
2001
0000
0000
3010
0000
1000
,
0010
0000
0000
1000
0000
0001
1000
0000
0000
0001
0000
1000
,
0200
0300
0000
0000
;

//---------------dance-single - ----------------
#NOTEDATA:;
#CHARTNAME:;
#STEPSTYPE:dance-single;
#DESCRIPTION:;
#CHARTSTYLE:;
#DIFFICULTY:Easy;
#METER:4;
#RADARVALUES:0.238058,0.291286,0.067194,0.208301,0.000000,248.000000,238.000000,10.000000,31.000000,0.000000,0.000000,0.000000,0.000000,0.000000,0.238058,0.291286,0.067194,0.208301,0.000000,248.000000,238.000000,10.000000,31.000000,0.000000,0.000000,0.000000,0.000000,0.000000;
#CREDIT:;
#DISPLAYBPM:121.000000;
#NOTES:
0000
0000
0000
0000
,
0000
0000
0000
0000
,
0000
0000
0000
0002
,
1003
0100
0100
0010
,
0010
0001
0001
2000
,
3001
0100
0100
0010
,
0010
1000
0000
0100
,
1000
0001
0100
0001
,
1000
0001
1000
0001
,
0100
0010
0100
1000
,
0001
1000
0001
0100
,
0010
1000
1000
0001
,
0010
0100
0100
0010
,
0010
0100
0100
0010
,
0100
0000
0000
0002
,
0000
0000
0000
2003
,
0000
0000
0000
3100
,
0010
0100
0010
0001
,
0100
0010
1000
0001
,
1000
0100
0100
1000
,
0001
0100
0100
0010
,
1000
0001
0010
0100
,
1000
0000
0000
2002
,
0000
3003
0010
1000
,
0100
0001
0100
1000
,
0002
0200
0303
0001
,
2000
0200
3300
0020
,
0000
0000
0130
0001
,
0010
1000
0100
0010
,
0200
0020
0330
0001
,
2000
0002
3003
1000
,
0100
0010
0011
0001
,
0010
0100
1100
2000
,
3001
0002
1003
0010
,
0100
0001
1000
0100
,
0000
0000
0000
0000
,
0000
0100
0001
0010
,
0100
1000
0010
1000
,
0010
0100
0001
1000
,
0100
0010
0100
0010
,
0100
1000
0010
0001
,
0001
1000
0010
0100
,
0100
0001
0001
1000
,
1000
0001
0100
0000
,
0000
0010
1000
0010
,
0001
0010
1000
0001
,
1000
0100
0010
0001
,
0100
0010
1000
0100
,
0010
0001
1000
0100
,
0100
0001
1000
0100
,
0100
0010
0001
1000
,
0010
0100
0001
0000
,
2002
0000
3003
0010
,
0001
0100
1000
0100
,
0001
2000
0200
3300
,
1000
0002
0200
0303
,
0020
0000
0000
1030
,
0100
0001
0010
1000
,
0100
0020
0200
0330
,
1000
0002
2000
3003
,
0001
0100
0010
1010
,
1000
0010
0100
0101
,
0002
0013
2000
3010
,
0100
0001
1000
1001
,
0001
1000
0100
1001
,
1000
0001
1000
1001
,
0010
1000
0100
0010
,
1001
0000
0000
0000
,
0000
0000
0001
0001
,
0010
1000
0100
0010
,
0001
0100
1000
1000
,
0001
1000
0010
0001
,
0200
0300
0000
0000
;

//---------------dance-single - ----------------
#NOTEDATA:;
#CHARTNAME:;
#STEPSTYPE:dance-single;
#DESCRIPTION:;
#CHARTSTYLE:;
#DIFFICULTY:Beginner;
#METER:2;
#RADARVALUES:0.153586,0.193518,0.000000,0.107510,0.000000,160.000000,160.000000,0.000000,16.000000,0.000000,0.000000,0.000000,0.000000,0.000000,0.153586,0.193518,0.000000,0.107510,0.000000,160.000000,160.000000,0.000000,16.000000,0.000000,0.000000,0.000000,0.000000,0.000000;
#CREDIT:;
#DISPLAYBPM:121.000000;
#NOTES:
0000
0000
0000
0000
,
0000
0000
0000
0000
,
0000
0000
0000
0010
,
0000
0100
0000
0010
,
0000
0100
0000
0001
,
0000
1000
0000
0001
,
0000
1000
0000
0001
,
0001
0001
0000
0010
,
0000
0100
0000
1000
,
1000
1000
0000
0010
,
0000
0100
0000
0001
,
0001
0001
0000
1000
,
1000
1000
0000
0100
,
0000
0100
0000
0100
,
0000
0000
0000
0000
,
0000
0000
0000
0000
,
0000
0000
0000
0010
,
0000
0100
0000
0010
,
0000
0100
0000
1000
,
1000
1000
0000
0001
,
0001
0001
0000
0100
,
0000
0010
0000
0100
,
0000
0000
0000
0002
,
0000
0003
0000
0010
,
0000
0100
0000
1000
,
1000
2000
3000
0001
,
0001
0002
0003
0200
,
0000
0300
0000
0010
,
0010
0010
0000
1000
,
1000
2000
3000
0001
,
0001
0002
0003
0010
,
0010
0020
0030
0100
,
0100
0200
0300
1000
,
1000
1000
0000
0001
,
0001
0001
0000
0100
,
0000
0000
0000
0000
,
0000
1000
1000
1000
,
0000
0010
0000
0100
,
0000
0001
0001
0001
,
0000
0010
0000
0100
,
0000
1000
1000
1000
,
0000
0001
0001
0001
,
0000
0100
0000
0100
,
0000
0100
0000
0000
,
0000
0010
0010
0010
,
0000
1000
0000
0001
,
0000
0010
0010
0010
,
0000
0100
0000
1000
,
0000
0001
0001
0001
,
0000
1000
1000
1000
,
0000
0100
0000
0010
,
0000
0100
0000
0000
,
2000
0000
3000
0000
,
0010
0000
0100
0000
,
0001
0001
0002
0003
,
1000
1000
2000
3000
,
0200
0000
0300
0000
,
0010
0010
0010
0000
,
0001
0001
0002
0003
,
1000
1000
2000
3000
,
0010
0010
0020
0030
,
0100
0100
0200
0300
,
0001
0001
0001
0000
,
1000
1000
1000
0000
,
0100
0100
0100
0000
,
0010
0010
0010
0000
,
0001
0001
0001
0001
,
0001
0000
0000
0000
,
0000
0000
1000
0000
,
0010
0000
0001
0000
,
0010
0000
1000
0000
,
0100
0000
0001
0000
,
0100
0000
0000
0000
;

//---------------dance-double - ----------------
#NOTEDATA:;
#CHARTNAME:;
#STEPSTYPE:dance-double;
#DESCRIPTION:;
#CHARTSTYLE:;
#DIFFICULTY:Challenge;
#METER:10;
#RADARVALUES:0.634503,0.606845,0.255337,0.141107,1.263246,661.000000,623.000000,38.000000,21.000000,0.000000,0.000000,0.000000,0.000000,0.000000,0.634503,0.606845,0.255337,0.141107,1.263246,661.000000,623.000000,38.000000,21.000000,0.000000,0.000000,0.000000,0.000000,0.000000;
#CREDIT:;
#DISPLAYBPM:121.000000;
#NOTES:
00000000
00000000
00000000
00000000
,
00000000
00000000
00000000
00000000
00000000
00000100
00010000
00001000
01000000
00100000
01100000
00000000
,
10000000
00100000
20000000
00000000
00000000
00000000
30010000
00100000
00001000
00010000
00000000
00000000
,
00000010
00001000
00000001
00000010
00000000
00000000
00000100
00010000
00001000
01000000
00000000
00000000
,
00100000
10000000
01000000
00100000
00000000
00000000
00010000
01000000
00001000
00100000
00000000
00100000
,
00001000
00010000
00000010
00001000
00000000
00001000
00000100
00010000
00001000
01000000
00000000
00100000
,
10000000
00100000
01000000
00001000
00000000
00000000
00011000
00000000
00000000
00000010
00001000
00000100
,
00000010
00000100
00010000
00001000
00000000
00011000
00000000
00001000
00100000
01000000
00000000
01100000
,
00000000
00100000
00010000
10000000
00000000
10000000
00100000
01000000
00100000
10000000
00000000
00000000
,
00010000
01000000
00001000
00010000
00000000
00010000
00000010
00000100
00000001
00000010
00000000
00000010
,
00000100
00000010
00000001
00001000
00000000
00000100
00010000
00001000
00010000
00000010
00000100
00000010
,
00010000
00001000
01000000
00100000
00000000
01100000
00000000
00100000
10000000
00010000
00100000
00010000
,
10000000
01000000
00100000
01000000
00000000
10010000
00000000
10000000
00010000
00100000
00000000
00101000
,
00000000
00001000
00010000
00000010
00000000
00010010
00000000
00000100
00000001
00001000
00000000
00000100
,
00010000
00001000
02000000
00000000
00000000
00000000
00000000
00000000
00000000
03010000
00100000
01000000
,
00100000
00010000
00100000
00001000
00000000
00011000
00000000
00010000
00001000
00010000
00000000
00010010
,
00000000
00001000
00010000
00001000
00000000
00100000
00001000
00010000
00000100
00000010
00000000
00000000
,
00000001
00000000
00000100
00000000
00000010
00000000
00001000
00000000
00000000
00000000
00001010
00000000
00000000
00000000
00010000
00001000
00010000
00000000
00000100
00000000
00000000
00000000
00010100
00000000
,
00000000
00000100
00010000
00001000
00000000
01000000
00100000
01000000
00010000
10000000
00100000
10000000
,
00100000
00010000
00100000
10000000
00000000
10010000
00000000
10000000
00010000
00100000
00001000
00010000
,
00000010
00001000
00000010
00000100
00000000
00000101
00000000
00000001
00001000
00000100
00000000
00001100
,
00000000
00010000
00001000
01000000
00000000
01010000
00000000
01000000
00100000
10000000
00000000
10000000
,
00100000
00010000
00200000
00000000
00000000
00000000
01300000
00010000
00100000
01000000
00000000
00020000
,
00100000
00000000
10000000
00000000
00030000
00010000
01000000
00000000
00010000
00001000
00000000
00010000
,
00100000
00000000
00010000
00000010
00000000
00001000
00010000
00000000
00010000
01000000
00100000
01000000
,
00010000
00000000
00010000
01000000
00000000
00000000
00011000
00000000
00001000
00000100
00000010
00000100
,
00001000
00000000
00010000
00002000
00000000
00000000
00013000
00000000
00000000
00000110
00000000
00002000
,
00000010
00000000
00000001
00000000
00003000
00001000
00000100
00000000
00001000
00010000
00000000
00001000
,
00000010
00000000
00001000
00100000
00000000
00000000
00011000
00000000
00001000
00000010
00000001
00000010
,
00001000
00000000
00001000
00000100
00000000
00000000
00011000
00000000
00010000
00100000
10000000
00100000
,
00010000
00000000
00001000
00020000
00000000
00000000
00031000
00000000
00001000
01000000
00100000
01000000
,
00001000
00000000
00010000
00002000
00000000
00000000
00013000
00000000
00000010
00000100
00000001
00000010
,
00000100
00000000
00010000
00000020
00000000
00000000
00000130
00000000
00010000
00001000
00010000
01000000
,
00100000
00000000
00100000
00010000
10000000
00010000
01000000
00000000
01000000
00010000
00100000
00001000
,
00010000
00000000
00000010
00000000
00000100
00000000
00000001
00000000
00000010
00000000
00000100
00000000
00010000
00000000
00001000
00000000
01000000
00000000
00100000
00000000
10000000
00010000
10000000
00000000
,
00000000
00000000
10000000
00020000
00100000
00000000
00031000
00010000
00002000
00000000
00000000
00000000
,
00003100
00000000
00000000
00000110
00000001
00000100
00000001
00001000
00000100
00001000
00000000
00001001
,
00000000
00010000
00001000
00010000
00000000
00011000
00000000
01000000
00010000
01000000
00000000
00100000
,
10000000
01000000
10000000
00200000
00000000
00000000
01300000
00010000
00100000
00001000
00000000
00001100
,
00000000
00001000
00000001
00000010
00000000
00000110
00000000
00000100
00010000
00001000
00000000
00100000
,
00010000
00100000
01000000
10000000
00100000
10000000
00010000
01000000
00100000
10000000
00000000
11000000
,
00000000
10000000
00100000
10000000
00010000
00100000
00001000
00010000
00000010
00001000
00000000
00000110
,
00000000
00001000
00000010
00000001
00000000
00000110
00000000
00000001
00000100
00001000
00000000
00000110
,
00000000
00001000
00100000
01000000
00000000
00010000
10000000
00010000
01000000
00000000
00000000
00000000
,
00010000
00001000
00010000
00000010
00000100
00000010
00001000
00000100
00010000
00001000
00000000
00001000
,
00010000
00100000
10000000
00100000
00000000
00100000
00010000
10000000
01000000
00100000
00000000
00010000
,
01000000
00000000
00001000
00000000
00010000
00000000
00000100
00000000
00000000
00000000
00000010
00000000
00000001
00000000
00000100
00000000
00000010
00000000
00001000
00000000
00000001
00000100
00000001
00000000
,
00001000
00000100
00000010
00000100
00000000
00000100
00010000
00001000
01000000
00100000
00000000
10000000
,
01000000
00010000
01000000
00100000
01000000
00100000
00010000
01000000
00001000
00010000
00000000
00011000
,
00000000
00000010
00001000
00000001
00000010
00000100
00001000
00000001
00000100
00000010
00000000
00000110
,
00000000
00010000
00001000
00010000
00000000
00011000
00000000
10000000
00010000
10000000
00000000
10010000
,
00000000
01000000
00001000
00010000
00000000
00000100
00000010
00000100
00001000
00000000
00000000
00000000
,
00001001
00000000
00002000
00000010
00000000
00000001
00000000
00003000
00000100
00001000
00000000
00010000
,
00001000
00000000
00000010
00001000
00000000
00100000
00001000
00000000
00001000
00010000
00000000
00000010
,
00000100
00000010
00010000
00001000
00000000
00000100
00010000
00000000
00000000
00011000
00000000
01000000
,
00100000
01000000
00001000
00010000
00000000
00010000
00002000
00000000
00000000
00013000
00000000
00000000
,
10010000
00000000
00020000
00100000
00000000
10000000
00000000
00030000
00100000
00000010
00000000
00010000
,
00001000
00000000
01000000
00000100
00000000
00001000
00010000
00000000
00000000
00011000
00000000
00010000
,
00100000
01000000
00100000
00010000
00000000
01000000
00010000
00000000
00000000
00011000
00000000
00001000
,
00000010
00000001
00000010
00001000
00000000
00010000
00002000
00000000
00000000
00013000
00000000
00010000
,
00000100
00000010
00000001
00000100
00000000
00000010
00020000
00000000
00000000
00031000
00000000
01000000
,
00100000
10000000
00010000
00100000
00000000
01000000
20000000
00000000
00000000
30010000
00000000
01000000
,
00100000
10000000
00010000
01000000
00000000
00001000
00010000
00000010
00000100
00000010
00000000
00000100
,
00000001
00001000
00000100
00010000
00001000
01000000
00100000
00010000
00100000
10000000
00000000
01000000
,
00100000
00010000
10000000
01000000
00100000
00001000
00010000
00000010
00000001
00000010
00000000
00000100
,
00000001
00001000
00000100
00010000
00001000
00100000
10000000
00100000
00001000
00010000
00000000
00000010
,
00001000
00000010
00000100
00000001
00000010
00000100
00001000
00000100
00000001
00000100
00010000
00001000
,
01000000
00000000
00010000
10000000
00100000
00000000
00000000
00000000
00000000
00000000
00010000
00000000
20000000
00000000
01000000
00000000
00000000
00000000
30100000
00000000
10000000
00000000
00200000
00000000
,
00000000
00000000
00000000
01300000
00001000
00010000
00000100
00000000
00000000
00000010
00010000
00001000
,
00100000
00000000
00000000
01000000
00001000
00010000
00000010
00000000
00000000
00000100
00010000
00001000
,
01000000
00000000
00100000
10000000
01000000
00100000
00001000
00000000
00010000
00000010
00000100
00000001
,
00000010
00000000
00000100
00010000
00001000
01000000
00100000
00000000
10000000
01000000
00001000
01000000
,
00200000
00300000
00000000
00000000
;

//---------------dance-double - ----------------
#NOTEDATA:;
#CHARTNAME:;
#STEPSTYPE:dance-double;
#DESCRIPTION:;
#CHARTSTYLE:;
#DIFFICULTY:Hard;
#METER:9;
#RADARVALUES:0.500115,0.534024,0.194862,0.080633,0.826485,521.000000,492.000000,29.000000,12.000000,0.000000,0.000000,0.000000,0.000000,0.000000,0.500115,0.534024,0.194862,0.080633,0.826485,521.000000,492.000000,29.000000,12.000000,0.000000,0.000000,0.000000,0.000000,0.000000;
#CREDIT:;
#DISPLAYBPM:121.000000;
#NOTES:
00000000
00000000
00000000
00000000
,
00000000
00000000
00000000
00000000
,
00000000
00000000
00000000
00000000
00000000
00000000
00000000
00000000
00000000
00100000
01000000
00100000
,
01000000
00000000
01000000
00010000
00000000
00010000
00100000
00000000
00100000
00001000
00000000
00001000
,
00010000
00000000
00010000
00000010
00000000
00000010
00000100
00000000
00000100
00000001
00001000
00000001
,
00001000
00000000
00001000
00000010
00000000
00000010
00010000
00000000
00010000
00001000
00000000
00001000
,
00100000
00000000
00100000
01000000
00000000
00000000
01100000
00000000
00000000
10000000
00000000
01000000
,
00100000
00000000
00001000
00100000
00000000
00000000
00010000
10000000
00010000
01000000
00000000
00000000
,
00001000
00000000
00010000
00001000
00000000
00010000
00001000
00000000
00010000
00000010
00000000
00000000
,
00000100
00000001
00000100
00000010
00000000
00000000
00001000
00000100
00000010
00000001
00000000
00000000
,
00000010
00000000
00000100
00010000
00000000
01000000
00100000
00000000
10000000
01000000
00000000
01000000
,
00100000
00000000
00100000
00001000
00000000
00000000
00011000
00000000
00000000
00000010
00000000
00001000
,
00000010
00000000
00000100
00000010
00000000
00000000
00000110
00000000
00000000
00000001
00000000
00000010
,
00000000
00010000
00000000
00000100
00000000
00001000
00000000
01000000
00000000
00100000
00000000
10000000
,
00010000
10000000
00010000
00000000
00000000
00000000
00000000
00000000
00000000
00000020
00000000
00000000
,
00000230
00000000
00000000
00000301
00000000
00001000
00000000
00000100
00000000
00000010
00000000
00000100
,
00000000
00010000
00000000
00001000
00000000
01000000
00100000
01000000
00100000
01000000
00000000
00000000
,
00010000
00100000
00010000
00100000
00000000
01000000
00000000
10000000
00000000
00100000
00000000
01000000
,
00000000
00001000
00000000
00010000
00000000
00000010
00000100
00000010
00000100
00000001
00000000
00000001
,
00001000
00000000
00001000
00000100
00000000
00001100
00000000
00000100
00000000
00000010
00000000
00000100
,
00010000
00000000
00001000
00010000
00000000
00011000
00000000
00001000
00000000
01000000
00000000
01010000
,
00000000
00100000
00000000
10000000
00000000
10100000
00000000
10000000
00000000
00010000
00000000
00100000
,
00001000
00010000
00002000
00000000
00000000
00000000
00003000
00000000
00000000
00010020
00000000
00000000
,
00000001
00000000
00000000
00001030
00000000
00001000
00000100
00000000
00000100
00000010
00000000
00000010
,
00000001
00000000
00000001
00000100
00000000
00010000
00000100
00000000
00000000
00010000
00001000
00010000
,
00001000
00000000
00010000
00001000
00000000
00000000
00011000
00000000
00000000
00100000
01000000
00100000
,
01000000
00000000
10000000
00010000
00000000
00000000
10010000
00000000
00000000
02001000
00000000
00000000
,
10000000
00000000
00000000
03010000
00000000
00010000
00100000
00000000
00100000
01000000
00000000
01000000
,
10000000
00000000
10000000
00100000
00000000
00001000
00100000
00000000
00000000
00001000
00010000
00001000
,
00010000
00000000
00001000
00010000
00000000
00000000
00011000
00000000
00000000
00000010
00000100
00000010
,
00000100
00000000
00000001
00000010
00000000
00000000
00000110
00000000
00000100
00010000
00000100
00010000
,
00000100
00000000
00001000
00000010
00000000
00000000
00011000
00000000
00001000
01000000
00001000
01000000
,
00010000
00000000
01000000
00100000
00000000
00000000
01100000
00000000
10000000
00100000
00000000
00100000
,
00001000
00000000
00001000
00010000
00000000
00010000
00000010
00000000
00000010
00000100
00000000
00000100
,
00000001
00000000
00000001
00001000
00000000
00001000
00000100
00010000
00001000
00020000
00030000
00000000
,
00000000
00000000
00000000
00000000
,
00000000
00000000
00000000
00000010
00000000
00001000
00000100
00000000
00001000
00000010
00000000
00000000
,
00000100
00000010
00010000
00000010
00000000
00000000
00010000
00000000
00001000
01000000
00000000
00001000
,
00100000
00000000
00001000
01000000
00000000
00000000
00100000
10000000
00100000
01000000
00000000
00000000
,
00010000
10000000
01000000
00100000
00000000
00000000
01000000
00000000
01000000
10000000
00000000
10000000
,
00100000
00000000
01000000
00001000
00000000
00001000
00010000
00000000
00010000
00001000
00000000
00000000
,
00011000
00000000
00000000
00100000
00000000
00010000
00100000
00000000
01000000
10000000
00000000
00000000
,
10010000
00000000
00000000
10000000
00000000
01000000
00000000
00001000
00000000
00100000
00000000
00010000
,
00000000
00000100
00000000
00000010
00000000
00000001
00000100
00000001
00001000
00000000
00000000
00000000
,
00000000
00000000
00000000
00000100
00000000
00000100
00000010
00000000
00000010
00001000
00000000
00001000
,
00000100
00000010
00000100
00000010
00000000
00000010
00000100
00000000
00000100
00010000
00000000
00010000
,
00001000
00010000
00001000
01000000
00000000
01000000
00100000
00000000
00100000
10000000
00000000
10000000
,
01000000
00100000
01000000
00100000
00000000
00100000
00001000
00000000
00001000
00010000
00000000
00010000
,
00001000
00010000
00001000
01000000
00000000
01000000
00100000
00000000
00100000
10000000
00000000
10010000
,
00000000
10000000
00000000
00010000
00000000
00100000
00001000
00000000
00010000
00000010
00000000
00010010
,
00000000
00000010
00000000
00000100
00000000
00000101
00000000
00000001
00000000
00001000
00000000
00001001
,
00000000
00000010
00000000
00001000
00000000
00000100
00010000
00001000
00020000
00030000
00000000
00000000
,
00201000
00000000
00000000
10000000
00000000
00000000
00310000
00000000
00010000
01000000
00000000
01000000
,
00100000
00000000
00100000
10000000
00000000
10000000
01000000
00000000
00001000
01000000
00000000
00000000
,
00001000
00010000
00001000
00010000
00000000
00001000
00010000
00000000
00000000
00011000
00000000
00000000
,
00000010
00000100
00000010
00000100
00000000
00000001
00001000
00000000
00000000
00001001
00000000
00000000
,
00010200
00000000
00000000
00000001
00000000
00000000
00001300
00000000
00001000
00000010
00000000
00000010
,
00000001
00000000
00000001
00000100
00000000
00000100
00001000
00000000
00010000
00001000
00000000
00000000
,
00010000
00001000
00010000
00000100
00000000
00010000
00001000
00000000
00000000
00011000
00000000
00000000
,
00001000
00010000
00001000
01000000
00000000
00001000
00010000
00000000
00000000
00011000
00000000
01000000
,
00001000
01000000
00001000
01000000
00000000
00010000
00100000
00000000
00000000
00011000
00000000
00010000
,
00000100
00010000
00000100
00001000
00000000
00000100
00000010
00000000
00000000
00000001
00001000
00000001
,
00000100
00000000
00000010
00001000
00000010
00001000
00000010
00000000
00000100
00000001
00000000
00000001
,
00000010
00000000
00000010
00000100
00000010
00000100
00010000
00000000
00010000
00001000
00000000
00001000
,
00100000
00000000
00100000
01000000
10000000
01000000
10000000
00000000
10000000
00010000
00000000
01000000
,
00001000
00000000
00010000
00000100
00010000
00001000
01000000
00000000
00100000
10000000
00000000
10000000
,
01000000
00100000
00001000
00010000
00001000
00010000
00000010
00000100
00000010
00000001
00001000
00000001
,
00002000
00003000
00000000
00000000
00000000
00000000
00000000
00000000
00000000
00000000
00000000
00000000
,
00000000
00000000
00000000
10010000
00000000
00000000
20000000
00000000
00000000
30010000
00100000
00010000
,
01000000
00000000
00000000
00001000
00010000
00001000
00010000
00000000
00000000
00000010
00000100
00000010
,
00001000
00000000
00000000
00000001
00000100
00000001
00001000
00000000
00000000
00000100
00010000
00000100
,
00010000
00000000
00000000
00001000
01000000
00001000
01000000
00000000
00000000
00100000
10000000
00100000
,
02000000
03000000
00000000
00000000
;

//---------------dance-double - ----------------
#NOTEDATA:;
#CHARTNAME:;
#STEPSTYPE:dance-double;
#DESCRIPTION:;
#CHARTSTYLE:;
#DIFFICULTY:Medium;
#METER:6;
#RADARVALUES:0.345569,0.388381,0.329250,0.295653,0.238538,360.000000,311.000000,49.000000,44.000000,0.000000,0.000000,0.000000,0.000000,0.000000,0.345569,0.388381,0.329250,0.295653,0.238538,360.000000,311.000000,49.000000,44.000000,0.000000,0.000000,0.000000,0.000000,0.000000;
#CREDIT:;
#DISPLAYBPM:121.000000;
#NOTES:
00000000
00000000
00000000
00000000
,
00000000
00000000
00000000
00000000
,
00000000
00000000
00000000
00000020
,
00000130
00000000
00000001
00000100
00000000
00000000
00000010
00000000
00001000
00000010
00000000
00000000
,
00010000
00000000
00001000
00010000
00000000
00000000
00011000
00000000
00000000
02000000
00000000
00000000
,
03100000
00000000
10000000
01000000
00000000
00000000
00100000
00000000
01000000
00100000
00000000
00000000
,
00001000
00000000
00010000
00000100
00000000
00000000
00011000
00000000
00000000
00020000
00000000
00000000
,
00000010
00030100
00010100
00000010
,
00010100
00000000
00000000
00000010
00000000
00000000
00000100
00000000
00000001
00001000
00000000
00000000
,
00020000
00031000
10100000
00010000
,
10100000
00000000
00000000
01000000
00000000
00000000
00010000
00000000
10000000
00010000
00000000
00000000
,
00100000
00002000
00013000
00000100
,
00000010
00000000
00000100
00000010
00000000
00000000
00000110
00000000
00000000
00000001
00000000
00000001
,
00000000
00000001
00000000
00001000
00000000
00001000
00000000
00001000
00000000
00000200
00000000
00000000
,
00020000
00000000
00030300
00000000
00000000
00000000
00000000
00000000
00000000
00002000
00000000
00000000
,
00000000
00000000
00000000
02003000
,
00000000
03200000
00000000
10300000
,
01000000
00000000
00100000
00010000
00000000
00000000
00011000
00000000
00000000
00000010
00000000
00000000
,
00011000
00000000
00000000
01000000
00000000
00000000
00100000
00000000
01000000
00200000
00000000
00000000
,
01000000
10300000
01100000
10000000
,
01001000
00000000
00000000
00100000
00000000
00000000
01001000
00000000
00000000
00010000
00000000
00010000
,
00000000
00010000
00000000
00001000
00000000
00001000
00000000
00001000
00000000
00000200
00000000
00000000
,
00000020
00000000
00000330
00000000
00000000
00000000
00000000
00000000
00000000
00002002
00000000
00000000
,
00000000
00000000
00000000
00003003
00000000
00000000
00000001
00000000
00001000
00000001
00000000
00001000
,
00000001
00000000
00001000
00000001
00000000
00001000
00000100
00000000
00000000
00020000
00000000
00000000
,
00001000
01030000
11000000
00200000
,
00010000
01300000
01010000
00200000
,
00000000
00000000
00000000
00000000
00000000
00000000
10300000
00000000
00010000
10000000
00000000
00010000
,
01000000
00000000
00001000
00010000
00000000
00000000
00011000
00000000
00000000
00000200
00000000
00000000
,
00000001
00000310
00000110
00000020
,
00010000
00000000
00000000
00000130
00000000
00000000
00000110
00000000
00000000
00001000
00000000
00001000
,
00000010
00000000
00000010
00000100
00000000
00000000
00000110
00000000
00000000
00010000
00000000
00010000
,
00001000
00000000
00001000
00100000
00000000
00000000
01100000
00000000
00000000
20000000
00000000
00000000
,
30100000
00002000
00003010
00000001
,
00001100
00000101
00020000
00031000
,
00000000
00000000
00000000
00000000
,
00000000
00002000
00100000
01003000
,
01001000
00100000
10010000
00100000
,
01000000
00000000
00001000
00010000
00000000
00000000
00000200
00000000
00000000
00000310
00000000
00000000
,
00010100
00000001
00010100
00000010
,
00010000
00000000
00001000
00010000
00000000
00000000
00000020
00000000
00000000
00000130
00000000
00000000
,
00000110
00000000
00000000
00010000
00000000
00000000
00001000
00000000
00010000
00001000
00000000
00000000
,
01100000
00000000
00000000
00100000
00000000
00100000
00000000
00100000
00000000
01000000
00000000
01000000
,
00000000
01000000
00000000
20000000
00000000
00000000
00200000
00000000
30300000
00000000
00000000
00000000
,
00000000
02000000
10000000
03100000
,
01100000
00001000
01100000
10000000
,
00100000
00000000
01000000
00001000
00000000
00000000
00011000
00000000
00000100
00000010
00000000
00000000
,
00011000
00100000
00011000
00000100
,
00000010
00000000
00000100
00000020
00000000
00000000
00000100
00000000
00000000
00000031
00000000
00000000
,
00000110
00000001
00010010
00000100
,
00011000
00000000
00000000
00001000
00000000
00001000
00000000
00001000
00000000
00100000
00000000
00100000
,
00000000
00100000
00000000
02000000
00000000
00000000
00200000
00000000
03300000
00000000
00000000
00000000
,
20020000
00000000
00000000
00000000
00000000
00000000
30030000
00000000
00000000
10000000
00000000
00010000
,
10000000
00000000
00010000
01000000
00000000
00010000
01000000
00000000
00010000
00100000
00000000
00000000
,
00002000
00010000
00003100
00000101
,
00000020
00001000
00000130
00001100
,
00000020
00000000
00000000
00000000
00000000
00000000
00000000
00000000
00000000
00000031
00000000
00001000
,
00000001
00000000
00001000
00000100
00000000
00010000
00001000
00000000
00000000
00011000
00000000
00000000
,
02000000
10000000
03100000
01100000
,
00200000
00001000
01300000
01100000
,
00010000
00000000
00010000
00100000
00000000
00100000
01000000
00000000
00000000
01100000
00000000
00000000
,
00001000
00000000
00001000
00010000
00000000
00010000
00000010
00000000
00000000
00000110
00000000
00000000
,
00000002
00000013
00020000
00130000
,
01000000
00000000
01000000
00100000
00000000
00000000
00010000
00000000
10000000
00010000
00000000
00000000
,
10000000
00000000
10000000
00100000
00000000
00100000
01000000
00000000
00000000
01100000
00000000
00000000
,
00001000
00000000
00001000
00010000
00000000
00010000
00000100
00000000
00000000
00000110
00000000
00000000
,
00000010
00000000
00000010
00000001
00000000
00000001
00001000
00000000
00001000
00000010
00000000
00000010
,
00000100
00000000
00000000
00000000
,
00000000
00000000
00000000
00000000
00000000
00000000
10020000
00000000
00000000
00130000
00000000
00010000
,
00100000
00000000
00000000
00001000
00000000
00010000
00001000
00000000
00000000
00000010
00000000
00001000
,
00000010
00000000
00000000
00000110
00000000
00000000
00001002
00000000
00000000
00000013
00000000
00000100
,
00000010
00000000
00000000
00000100
00000000
00010000
00000100
00000000
00000000
00010000
00000000
00001000
,
02000000
03000000
00000000
00000000
;

//---------------dance-double - ----------------
#NOTEDATA:;
#CHARTNAME:;
#STEPSTYPE:dance-double;
#DESCRIPTION:;
#CHARTSTYLE:;
#DIFFICULTY:Easy;
#METER:4;
#RADARVALUES:0.237099,0.291286,0.060475,0.215021,0.000000,247.000000,238.000000,9.000000,32.000000,0.000000,0.000000,0.000000,0.000000,0.000000,0.237099,0.291286,0.060475,0.215021,0.000000,247.000000,238.000000,9.000000,32.000000,0.000000,0.000000,0.000000,0.000000,0.000000;
#CREDIT:;
#DISPLAYBPM:121.000000;
#NOTES:
// measure 0
00000000
00000000
00000000
00000000
,  // measure 1
00000000
00000000
00000000
00000000
,  // measure 2
00000000
00000000
00000000
02000000
,  // measure 3
03001000
00000100
00000100
00000010
,  // measure 4
00000010
00001000
00001000
00020000
,  // measure 5
00030100
00000010
00000010
00000100
,  // measure 6
00010000
00001000
00000000
00000100
,  // measure 7
00010000
00001000
01000000
00001000
,  // measure 8
00100000
00001000
01000000
00100000
,  // measure 9
10000000
01000000
00100000
00001000
,  // measure 10
01000000
00001000
00100000
00001000
,  // measure 11
00010000
00000010
00000010
00000100
,  // measure 12
00000001
00000100
00000100
00000010
,  // measure 13
00000010
00010000
00010000
00001000
,  // measure 14
01000000
00000000
00000000
02000000
,  // measure 15
00000000
00000000
00000000
03002000
,  // measure 16
00000000
00000000
00000000
00003100
,  // measure 17
00000010
00000100
00001000
00000001
,  // measure 18
00000010
00000100
00010000
01000000
,  // measure 19
00100000
01000000
01000000
00100000
,  // measure 20
00010000
10000000
10000000
00100000
,  // measure 21
01000000
00001000
00010000
00000100
,  // measure 22
00000010
00000000
00000000
00022000
,  // measure 23
00000000
00033000
00010000
00001000
,  // measure 24
00000100
00000010
00000100
00010000
,  // measure 25
00002000
00020000
00033000
01000000
,  // measure 26
00200000
02000000
03300000
00020000
,  // measure 27
00000000
00000000
10030000
01000000
,  // measure 28
00100000
00010000
00001000
00000100
,  // measure 29
00000020
00000002
00000033
00000100
,  // measure 30
00000002
00002000
00003003
00000100
,  // measure 31
00010000
00001000
00011000
01000000
,  // measure 32
00010000
00001000
00011000
00000200
,  // measure 33
00010300
02000000
03001000
00010000
,  // measure 34
00001000
00010000
01000000
00100000
,  // measure 35
00000000
00000000
00000000
00000000
,  // measure 36
00000000
01000000
00001000
00010000
,  // measure 37
00000100
00010000
00000010
00010000
,  // measure 38
00000100
00000010
00000001
00000100
,  // measure 39
00000010
00010000
00000100
00010000
,  // measure 40
00000010
00010000
00001000
00100000
,  // measure 41
00100000
01000000
10000000
01000000
,  // measure 42
01000000
00100000
00100000
00001000
,  // measure 43
00001000
00010000
00000100
00000000
,  // measure 44
00000000
00100000
00001000
00010000
,  // measure 45
00000010
00000100
00000010
00010000
,  // measure 46
00001000
01000000
00100000
10000000
,  // measure 47
00100000
01000000
00001000
00010000
,  // measure 48
00000100
00010000
00001000
00100000
,  // measure 49
00100000
01000000
10000000
01000000
,  // measure 50
01000000
00100000
00001000
00010000
,  // measure 51
00000010
00000100
00000001
00000000
,  // measure 52
00022000
00000000
00033000
00001000
,  // measure 53
00010000
01000000
00100000
01000000
,  // measure 54
00001000
00020000
00002000
00033000
,  // measure 55
00000100
00000020
00000200
00000330
,  // measure 56
00002000
00000000
00000000
00003010
,  // measure 57
00000001
00000100
00001000
00010000
,  // measure 58
01000000
00200000
00020000
00330000
,  // measure 59
10000000
00200000
02000000
03300000
,  // measure 60
00010000
00001000
00010000
00011000
,  // measure 61
00000100
00000010
00000100
00000110
,  // measure 62
00000020
00000130
00020000
00031000
,  // measure 63
01000000
00100000
10000000
10010000
,  // measure 64
10000000
01000000
00100000
00101000
,  // measure 65
00001000
00010000
00000010
00000110
,  // measure 66
00000001
00001000
00000100
00020000
,  // measure 67
00031000
00000000
00000000
00000000
,  // measure 68
00000000
00000000
01000000
01000000
,  // measure 69
00001000
00010000
00000100
00000010
,  // measure 70
00000100
00010000
00001000
00001000
,  // measure 71
01000000
00010000
01000000
00100000
,  // measure 72
20000000
30000000
00000000
00000000
;
